(Violin Concerto) Johann Sebastian Bach - Violin Concertos BWV 1041, BWV 1042, BWV 1055, BWV 1056 - Brecon Baroque, R. Podger - 2010, FLAC (image+.cue) lossless


Статистика раздачи [Обновить пиров]
Размер:  276 MB   |    Зарегистрирован:  1 год 1 месяц   |    Скачан:  0 раз

Полного источника не было: Никогда

 
   
 
 
 

[Цитировать]

Johann Sebastian Bach - Violin Concertos BWV 1041, BWV 1042, BWV 1055, BWV 1056 - Brecon Baroque, Rachel Podger
Жанр: Violin Concerto
Страна-производитель диска: Germany
Год издания диска: 2010
Издатель (лейбл): Channel Classics
Номер по каталогу: CCS SA 30910
Дата записи: 2010
Аудиокодек: FLAC
Тип рипа: image+.cue
Битрейт аудио: lossless
Продолжительность: 51:18
Источник: скачано с web
Важная информация: рип не мой, все благодарности оригинальному аплоудеру / Important Note: not my rip, all credits to the original uploader
Наличие сканов в содержимом раздачи: да
Треклист:
[01]-[03] Violin Concerto No. 1 in g minor, BWV 1041
[04]-[06] Violin Concerto No. 2 in E major, BWV 1042
[07]-[09] Violin Concerto in g minor, after BWV 1056
[10]-[12] Violin Concerto in A major, after BWV 1055
Исполнители:
Rachel Podger (violin/director)
Brecon Baroque

Лог создания рипа

Exact Audio Copy V1.0 beta 3 from 29. August 2011
EAC extraction logfile from 22. August 2013, 17:42
Rachel Podger, Brecon Baroque / J.S. Bach - Violin Concertos
Used drive : ATAPI iHAS122 Adapter: 0 ID: 0
Read mode : SecureUtilize accurate stream : YesDefeat audio cache : YesMake use of C2 pointers : No
Read offset correction : 6Overread into Lead-In and Lead-Out : NoFill up missing offset samples with silence : YesDelete leading and trailing silent blocks : NoNull samples used in CRC calculations : YesUsed interface : Native Win32 interface for Win NT & 2000
Used output format : User Defined EncoderSelected bitrate : 1024 kBit/sQuality : HighAdd ID3 tag : NoCommand line compressor : C:\Program Files\Exact Audio Copy\FLAC\FLAC.EXEAdditional command line options : -6 -V -T "ARTIST=%artist%" -T "TITLE=%title%" -T "ALBUM=%albumtitle%" -T "DATE=%year%" -T "TRACKNUMBER=%tracknr%" -T "GENRE=%genre%" -T "COMMENT=%comment%" -T "BAND=%albuminterpret%" -T "ALBUMARTIST=%albuminterpret%" -T "COMPOSER=%composer%" %haslyrics%--tag-from-file=LYRICS="%lyricsfile%"%haslyrics% -T "DISCNUMBER=%cdnumber%" -T "TOTALDISCS=%totalcds%" -T "TOTALTRACKS=%numtracks%" %hascover%--picture="%coverfile%"%hascover% %source% -o %dest%
TOC of the extracted CD
Track | Start | Length | Start sector | End sector --------------------------------------------------------- 1 | 0:00.00 | 3:51.06 | 0 | 17330 2 | 3:51.06 | 5:16.03 | 17331 | 41033 3 | 9:07.09 | 3:20.56 | 41034 | 56089 4 | 12:27.65 | 7:32.24 | 56090 | 90013 5 | 20:00.14 | 5:42.59 | 90014 | 115722 6 | 25:42.73 | 2:37.25 | 115723 | 127522 7 | 28:20.23 | 3:30.51 | 127523 | 143323 8 | 31:50.74 | 2:53.26 | 143324 | 156324 9 | 34:44.25 | 3:15.45 | 156325 | 170994 10 | 37:59.70 | 4:16.68 | 170995 | 190262 11 | 42:16.63 | 5:17.65 | 190263 | 214102 12 | 47:34.53 | 4:05.34 | 214103 | 232511
Range status and errors
Selected range
Filename D:\Propriétaire\Documents\Musique Upload en cours\Rachel Podger, Brecon Baroque - J.S. Bach - Violin Concertos.wav
Peak level 88.8 % Extraction speed 8.5 X Range quality 100.0 % Copy CRC 2729220C Copy OK
No errors occurred
AccurateRip summary
Track 1 accurately ripped (confidence 25) [8D775682] (AR v2)Track 2 accurately ripped (confidence 25) [BBFB1F74] (AR v2)Track 3 accurately ripped (confidence 25) [0DDE42FF] (AR v2)Track 4 accurately ripped (confidence 25) [7DB1EAFF] (AR v2)Track 5 accurately ripped (confidence 25) [92AC5902] (AR v2)Track 6 accurately ripped (confidence 25) [ACD7C5CD] (AR v2)Track 7 accurately ripped (confidence 25) [EAA33BB5] (AR v2)Track 8 accurately ripped (confidence 25) [75D69E5B] (AR v2)Track 9 accurately ripped (confidence 25) [4145A13F] (AR v2)Track 10 accurately ripped (confidence 25) [0AC6B3AC] (AR v2)Track 11 accurately ripped (confidence 25) [6F7E3CC4] (AR v2)Track 12 accurately ripped (confidence 24) [67256558] (AR v2)
All tracks accurately ripped
End of status report
[teatrix.ru].t10002.torrent 
Торрент: Зарегистрирован [ 2015-10-25 20:37 ] · 1880196EC62C270EC8917A00BE12808A2FE978F2

Скачать .torrent

Скачать

12 KB

Статус: проверено
Скачан: 0 раз
Размер: 276 MB
terms.php



Быстрый ответ

Имя:

      
Для отправки сообщений необходимо включить JavaScript
Показать сообщения:    

Текущее время: 05-Дек 07:30

Часовой пояс: UTC + 3


Вы можете начинать темы
Вы можете отвечать на сообщения
Вы не можете редактировать свои сообщения
Вы не можете удалять свои сообщения
Вы не можете голосовать в опросах
Вы не можете прикреплять файлы к сообщениям
Вы можете скачивать файлы