(Baroque/Classic/Concerti) Antonio Vivaldi - Famous Flute concerti, Capella Istropolitana - Jaroslav Krecek(conductors), City of London Sinfonia - Nicholas Kraemer(conductors) - 1997, FLAC (image+.cue) lossless


Статистика раздачи [Обновить пиров]
Размер:  360 MB   |    Зарегистрирован:  1 год 1 месяц   |    Скачан:  2 раза

Полного источника не было: 4 месяца 26 дней

 
   
 
 
 

[Цитировать]

Antonio Vivaldi - Famous Flute concerti, Capella Istropolitana - Jaroslav Krecek(conductors), City of London Sinfonia - Nicholas Kraemer(conductors) 1997
Жанр: Baroque/Classic
Страна-производитель диска: Germany
Год издания диска: 1997
Издатель (лейбл):Naxos
Номер по каталогу: 8.554053
Дата записи: 1989
Аудиокодек: FLAC
Тип рипа: image+.cue
Битрейт аудио: lossless
Продолжительность: 78:15
Источник: собственная коллекция
Наличие сканов в содержимом раздачи: да
Треклист:
Concerto for Piccolo and Strings in C major, RV 443
1.Allegro - 3:35
2.Largo - 4:05
3.Allegro molto - 2:43
Concerto for Flute and Strings in A Minor, RV 108
4.Alegro molto - 2:55
5.Largo - Andante - 2:22
6.Allegro molto - 2:33
Concerto for Two Flutes and Strings in C major, RV 533
7.Allegro molto - 2:43
8.Largo - 1:53
9.Allegro - 2:03
Concerto for Flute and String in major, Op.10, No.1, RV 433, "La tempesta di mare"
10.Allegro - 2:54
11.Lagro - 1:44
12.Presto - 2:11
Concerto for Flute and String in G Minor, Op. 10, No. 2, RV 439, "La notte"
13.Largo - 4:13
14.Presto - 1:08
15.Largo-Il sonno - Allegro - 3:37
Concerto for Flute and Strings in D major, Op. 10, No. 3, RV 428, "Il Cardelino"
16.Allegro - 3:45
17.Cantable - 3:04
18.Allegro - 2:52
Concerto for Flute and Strings in F major, Op. 10, No. 5, RV 434
19.Allegro ma non tanto - 2:52
20.Largo e cantable - 3:03
21.Allegro molto - 1:41
Concerto for Piccolo and Strings in C major, RV 444
22.Allegro non molto - 4:39
23.Largo - 2:14
24.Allegro molto - 2:53
Concerto for Piccolo and Strings in A minor, RV 445
25.Allegro - 4:46
26.Larghetto - 2:22
27.Allegro - 3:22
Исполнители:
Capella Istropolitana - Jaroslav Krecek(piccolo-flute, flute, conductor, (2,4,6,10,11,12,14,17,20,23,26)), City of London Sinfonia - Nicholas Kraemer(conductor, flute(8)), Jiri Stivin - piccolo flute(1,3,24,27), Jiri Valek - flute(5,13,15,16,18,19,21), Deborah Davis - flute(7,9)

EAC

Exact Audio Copy V1.0 beta 3 from 29. August 2011
Отчёт EAC об извлечении, выполненном 7. сентября 2013, 3:48
Krecek, Kraemer / Famous Flute Concerti
Дисковод: Optiarc DVD RW AD-7243S Adapter: 2 ID: 0
Режим чтения : ДостоверностьИспользование точного потока : ДаОтключение кэша аудио : ДаИспользование указателей C2 : Нет
Коррекция смещения при чтении : 48Способность читать области Lead-in и Lead-out : НетЗаполнение пропущенных сэмплов тишиной : ДаУдаление блоков с тишиной в начале и конце : НетПри вычислениях CRC использовались нулевые сэмплы : ДаИнтерфейс : Встроенный Win32-интерфейс для Win NT/2000
Выходной формат : Пользовательский кодировщикВыбранный битрейт : 1024 kBit/sКачество : ВысокийДобавление ID3-тега : НетУтилита сжатия : C:\Exact Audio Copy\FLAC\FLAC.EXEДополнительные параметры : -6 -V -T "ARTIST=%artist%" -T "TITLE=%title%" -T "ALBUM=%albumtitle%" -T "DATE=%year%" -T "TRACKNUMBER=%tracknr%" -T "GENRE=%genre%" -T "COMMENT=%comment%" -T "BAND=%albuminterpret%" -T "ALBUMARTIST=%albuminterpret%" -T "COMPOSER=%composer%" %haslyrics%--tag-from-file=LYRICS="%lyricsfile%"%haslyrics% -T "DISCNUMBER=%cdnumber%" -T "TOTALDISCS=%totalcds%" -T "TOTALTRACKS=%numtracks%" %hascover%--picture="%coverfile%"%hascover% %source% -o %dest%
TOC извлечённого CD
Трек | Старт | Длительность | Начальный сектор | Конечный сектор --------------------------------------------------------------------- 1 | 0:00.00 | 3:33.10 | 0 | 15984 2 | 3:33.10 | 4:05.00 | 15985 | 34359 3 | 7:38.10 | 2:47.32 | 34360 | 46916 4 | 10:25.42 | 2:50.10 | 46917 | 59676 5 | 13:15.52 | 2:22.03 | 59677 | 70329 6 | 15:37.55 | 2:37.10 | 70330 | 82114 7 | 18:14.65 | 2:39.10 | 82115 | 94049 8 | 20:54.00 | 1:52.40 | 94050 | 102489 9 | 22:46.40 | 2:07.42 | 102490 | 112056 10 | 24:54.07 | 2:50.10 | 112057 | 124816 11 | 27:44.17 | 1:44.00 | 124817 | 132616 12 | 29:28.17 | 2:16.00 | 132617 | 142816 13 | 31:44.17 | 4:08.10 | 142817 | 161426 14 | 35:52.27 | 1:08.00 | 161427 | 166526 15 | 37:00.27 | 3:41.30 | 166527 | 183131 16 | 40:41.57 | 3:46.10 | 183132 | 200091 17 | 44:27.67 | 3:04.00 | 200092 | 213891 18 | 47:31.67 | 2:56.23 | 213892 | 227114 19 | 50:28.15 | 2:47.10 | 227115 | 239649 20 | 53:15.25 | 3:03.00 | 239650 | 253374 21 | 56:18.25 | 1:45.72 | 253375 | 261321 22 | 58:04.22 | 4:34.10 | 261322 | 281881 23 | 62:38.32 | 2:14.00 | 281882 | 291931 24 | 64:52.32 | 2:57.65 | 291932 | 305271 25 | 67:50.22 | 4:41.10 | 305272 | 326356 26 | 72:31.32 | 2:22.00 | 326357 | 337006 27 | 74:53.32 | 3:22.20 | 337007 | 352176
Характеристики диапазона извлечения и сообщения об ошибках
Выбранный диапазон
Имя файла D:\временная папка Lossless\A.Viavaldi-Famous flute concerti(1989)1997.wav
Пиковый уровень 80.2 % Скорость извлечения 4.5 X Качество диапазона 100.0 % CRC теста C3052D7F CRC копии C3052D7F Копирование... OK
Ошибок не произошло
AccurateRip: сводка
Трек 1 точность не определена (достоверность 2) [8AA414A4], AccurateRip вернул [2D50D384] (AR v2)Трек 2 точность не определена (достоверность 2) [7BB8394B], AccurateRip вернул [CD5EC28D] (AR v2)Трек 3 точность не определена (достоверность 2) [BC695F87], AccurateRip вернул [66B5A3AD] (AR v2)Трек 4 точность не определена (достоверность 2) [27CFD586], AccurateRip вернул [0C08B499] (AR v2)Трек 5 точность не определена (достоверность 2) [E5DD12DA], AccurateRip вернул [38606DAF] (AR v2)Трек 6 точность не определена (достоверность 2) [5F9DC585], AccurateRip вернул [FA3A21F5] (AR v2)Трек 7 точность не определена (достоверность 2) [BAB30E91], AccurateRip вернул [DCF7EE4D] (AR v2)Трек 8 точность не определена (достоверность 2) [1B29DB7F], AccurateRip вернул [5561662B] (AR v2)Трек 9 точность не определена (достоверность 2) [65B45459], AccurateRip вернул [FA425889] (AR v2)Трек 10 точность не определена (достоверность 2) [AEC7A5ED], AccurateRip вернул [F99B5AD7] (AR v2)Трек 11 точность не определена (достоверность 2) [AE730684], AccurateRip вернул [6BC6BE32] (AR v2)Трек 12 точность не определена (достоверность 2) [56EC8237], AccurateRip вернул [A2B763EA] (AR v2)Трек 13 точность не определена (достоверность 2) [CD4F6B4E], AccurateRip вернул [7DF2F492] (AR v2)Трек 14 точность не определена (достоверность 2) [6EA78C94], AccurateRip вернул [70B945CB] (AR v2)Трек 15 точность не определена (достоверность 2) [38DB84BE], AccurateRip вернул [FD813A0F] (AR v2)Трек 16 точность не определена (достоверность 2) [F8FD9308], AccurateRip вернул [AD7CB688] (AR v2)Трек 17 точность не определена (достоверность 2) [DB79A1B3], AccurateRip вернул [1B35DB42] (AR v2)Трек 18 точность не определена (достоверность 2) [74C758CA], AccurateRip вернул [0E3E77F3] (AR v2)Трек 19 точность не определена (достоверность 2) [67916608], AccurateRip вернул [B3E444ED] (AR v2)Трек 20 точность не определена (достоверность 2) [E1B3400E], AccurateRip вернул [E8BB808F] (AR v2)Трек 21 точность не определена (достоверность 2) [8DBBB59A], AccurateRip вернул [17D6F7AA] (AR v2)Трек 22 точность не определена (достоверность 2) [83A040D1], AccurateRip вернул [C2D6FA21] (AR v2)Трек 23 точность не определена (достоверность 2) [D8270B74], AccurateRip вернул [27E1976C] (AR v2)Трек 24 точность не определена (достоверность 2) [E8F7B5E9], AccurateRip вернул [35A858C6] (AR v2)Трек 25 точность не определена (достоверность 2) [06A3D482], AccurateRip вернул [CBA37C40] (AR v2)Трек 26 точность не определена (достоверность 2) [21004BB6], AccurateRip вернул [ACF7427B] (AR v2)Трек 27 точность не определена (достоверность 2) [61002AB2], AccurateRip вернул [DC8B9D0D] (AR v2)
Ни один трек не прошёл проверки на точностьВ вашей базе может быть иной вариант штамповки диска
Конец отчёта
---- CUETools DB Plugin V2.1.3
[CTDB TOCID: _Yga7wezMLKZZtfSAstppDAUYPI-] found, Submit result: _Yga7wezMLKZZtfSAstppDAUYPI- has been confirmed[128f4ce2] (1/1) Accurately ripped
==== Контрольная сумма отчёта ECE799320A33794C35044553059CFFAC658D68E6164ED4AD7E399A115D043146 ====

CUE

REM GENRE BaroqueREM DATE 1989REM DISCID A712571BREM COMMENT "ExactAudioCopy v1.0b3"PERFORMER " Krecek, Kraemer"TITLE "Famous Flute Concerti"FILE "A.Viavaldi-Famous flute concerti(1989)1997.flac" WAVE TRACK 01 AUDIO TITLE "Concerto for Piccolo and Strings in C Major RV 443 - 1. Allegro" PERFORMER " Krecek, Kraemer" INDEX 01 00:00:00 TRACK 02 AUDIO TITLE "Concerto for Piccolo and Strings in C Major RV 443 - 2. Largo" PERFORMER " Krecek, Kraemer" INDEX 01 03:33:10 TRACK 03 AUDIO TITLE "Concerto for Piccolo and Strings in C Major RV 443 - 3. Allegro molto" PERFORMER " Krecek, Kraemer" INDEX 01 07:38:10 TRACK 04 AUDIO TITLE "Concerto for Flute and Strings in A Minor RV 108 - 1. Allegro molto" PERFORMER " Krecek, Kraemer" INDEX 00 10:21:00 INDEX 01 10:25:42 TRACK 05 AUDIO TITLE "Concerto for Flute and Strings in A Minor RV 108 - 2. Largo - Andante" PERFORMER " Krecek, Kraemer" INDEX 01 13:15:52 TRACK 06 AUDIO TITLE "Concerto for Flute and Strings in A Minor RV 108 - 3. Allegro molto" PERFORMER " Krecek, Kraemer" INDEX 01 15:37:55 TRACK 07 AUDIO TITLE "Concerto for Two Flutes and Strings in C Major RV 533 - 1. Allegro molto" PERFORMER " Krecek, Kraemer" INDEX 00 18:10:25 INDEX 01 18:14:65 TRACK 08 AUDIO TITLE "Concerto for Two Flutes and Strings in C Major RV 533 - 2. Largo" PERFORMER " Krecek, Kraemer" INDEX 01 20:54:00 TRACK 09 AUDIO TITLE "Concerto for Two Flutes and Strings in C Major RV 533 - 3. Allegro" PERFORMER " Krecek, Kraemer" INDEX 01 22:46:40 TRACK 10 AUDIO TITLE "Concerto for Flute and Strings in F Major Op 10 Nr 1 RV 433 'La tempesta di ..." PERFORMER " Krecek, Kraemer" INDEX 00 24:49:57 INDEX 01 24:54:07 TRACK 11 AUDIO TITLE "Concerto for Flute and Strings in F Major Op 10 Nr 1 RV 433 'La tempesta di ..." PERFORMER " Krecek, Kraemer" INDEX 01 27:44:17 TRACK 12 AUDIO TITLE "Concerto for Flute and Strings in F Major Op 10 Nr 1 RV 433 'La tempesta di ..." PERFORMER " Krecek, Kraemer" INDEX 01 29:28:17 TRACK 13 AUDIO TITLE "Concerto for Flute and Strings in G Minor Op. 10 Nr. 2 RV 439 'La notte' - 1...." PERFORMER " Krecek, Kraemer" INDEX 00 31:39:47 INDEX 01 31:44:17 TRACK 14 AUDIO TITLE "Concerto for Flute and Strings in G Minor Op. 10 Nr. 2 RV 439 'La notte' - 2...." PERFORMER " Krecek, Kraemer" INDEX 01 35:52:27 TRACK 15 AUDIO TITLE "Concerto for Flute and Strings in G Minor Op. 10 Nr. 2 RV 439 'La notte' - 3...." PERFORMER " Krecek, Kraemer" INDEX 01 37:00:27 TRACK 16 AUDIO TITLE "Concerto for Flute and Strings in D Major Op. 10 Nr. 3 RV 428 'Il cardellino'..." PERFORMER " Krecek, Kraemer" INDEX 00 40:37:42 INDEX 01 40:41:57 TRACK 17 AUDIO TITLE "Concerto for Flute and Strings in D Major Op. 10 Nr. 3 RV 428 'Il cardellino'..." PERFORMER " Krecek, Kraemer" INDEX 01 44:27:67 TRACK 18 AUDIO TITLE "Concerto for Flute and Strings in D Major Op. 10 Nr. 3 RV 428 'Il cardellino'..." PERFORMER " Krecek, Kraemer" INDEX 01 47:31:67 TRACK 19 AUDIO TITLE "Concerto for Flute and Strings in F Major Op. 10 Nr. 5 RV 434 - 1. Allegro m..." PERFORMER " Krecek, Kraemer" INDEX 00 50:23:45 INDEX 01 50:28:15 TRACK 20 AUDIO TITLE "Concerto for Flute and Strings in F Major Op. 10 Nr. 5 RV 434 - 2. Largo e c..." PERFORMER " Krecek, Kraemer" INDEX 01 53:15:25 TRACK 21 AUDIO TITLE "Concerto for Flute and Strings in F Major Op. 10 Nr. 5 RV 434 - 3. Allegro m..." PERFORMER " Krecek, Kraemer" INDEX 01 56:18:25 TRACK 22 AUDIO TITLE "Concerto for Piccolo and Strings in C Major RV 444 - 1. Allegro non molto" PERFORMER " Krecek, Kraemer" INDEX 00 57:59:57 INDEX 01 58:04:22 TRACK 23 AUDIO TITLE "Concerto for Piccolo and Strings in C Major RV 444 - 2. Largo" PERFORMER " Krecek, Kraemer" INDEX 01 62:38:32 TRACK 24 AUDIO TITLE "Concerto for Piccolo and Strings in C Major RV 444 - 3. Allegro molto" PERFORMER " Krecek, Kraemer" INDEX 01 64:52:32 TRACK 25 AUDIO TITLE "Concerto for Piccolo and Strings in A Minor RV 445 - 1. Allegro" PERFORMER " Krecek, Kraemer" INDEX 00 67:45:60 INDEX 01 67:50:22 TRACK 26 AUDIO TITLE "Concerto for Piccolo and Strings in A Minor RV 445 - 2. Larghetto" PERFORMER " Krecek, Kraemer" INDEX 01 72:31:32 TRACK 27 AUDIO TITLE "Concerto for Piccolo and Strings in A Minor RV 445 - 3. Allegro" PERFORMER " Krecek, Kraemer" INDEX 01 74:53:32
[teatrix.ru].t10003.torrent 
Торрент: Зарегистрирован [ 2015-10-25 20:37 ] · 2E4B30967D5AA5B65B736F68B1DE57A865933AB5

Скачать .torrent

Скачать

15 KB

Статус: проверено
Скачан: 2 раз
Размер: 360 MB
terms.php



Быстрый ответ

Имя:

      
Для отправки сообщений необходимо включить JavaScript
Показать сообщения:    

Текущее время: 11-Дек 14:59

Часовой пояс: UTC + 3


Вы можете начинать темы
Вы можете отвечать на сообщения
Вы не можете редактировать свои сообщения
Вы не можете удалять свои сообщения
Вы не можете голосовать в опросах
Вы не можете прикреплять файлы к сообщениям
Вы можете скачивать файлы