(Classical/Piano) Wolfgang Amadeus Mozart - Piano Concertos Nos. 20 KV 466, 21 KV 467 - Cristofori, Arthur Schoonderwoerd - 2012, FLAC (image+.cue) lossless


Статистика раздачи [Обновить пиров]
Размер:  313 MB   |    Зарегистрирован:  1 год 1 месяц   |    Скачан:  0 раз

Полного источника не было: Никогда

 
   
 
 
 

[Цитировать]

Wolfgang Amadeus Mozart - Piano Concertos Nos. 20 KV 466, 21 KV 467 - Cristofori, Arthur Schoonderwoerd
Жанр: Classical/Piano
Страна-производитель диска: Германия
Год издания диска: 2012
Издатель (лейбл): ACCENT
Номер по каталогу: ACC 24265
Дата записи: 2011
Аудиокодек: FLAC
Тип рипа: image+.cue
Битрейт аудио: lossless
Продолжительность: 57'45
Источник: собственный рип
Наличие сканов в содержимом раздачи: да
Треклист:
Wolfgang Amadeus Mozart (1756-1791)
Piano Concerto no. 20 in D minor KV 466
1 Allegro 13'56
2 Romance 8'06
3 Allegro assai 8'13
Piano Concerto no. 21 in C major KV 467
4 Allegro maestoso 14'30
5 Andante 5'26
6 Allegro vivace assai 7'23
Исполнители:
Arthur Schoonderwoerd
fortepiano & musical direction
Copy after Anton Walter (Vienna, around 1782) by Gerard Tuinman and Paul Poletti,
5 octaves (FF-f'''), 2 knee levers for dampers and moderator,
Viennese action (1782) with bare wooden hammers without check
Tuning: Robert Jaumandreu
Cristofori
Luigi de Filippi violin I & concertmaster
Corrado Lepore violin II
Michel Renard, Marten Boeken viola
Charles Zebley flute
Anna Starr, Joel Raymond oboe
Balduin Wetter, Dominik Bischof horn
Krisztran Kovatz, Giuseppe Frau trumpet
Philip Tarr timpani
Monica Fischalek, Jochen Schneider bassoon
François Michel violoncello
Szilard Chereji double bass

Лог создания рипа

Exact Audio Copy V1.0 beta 3 from 29. August 2011
Отчёт EAC об извлечении, выполненном 26. августа 2013, 15:20
Ensemble Cristofori, Arthur Schoonderwoerd / Mozart - Piano Concertos Nos. 20 KV 466, 21 KV 467
Дисковод: HL-DT-STDVDRAM GT33N Adapter: 1 ID: 0
Режим чтения : ДостоверностьИспользование точного потока : ДаОтключение кэша аудио : ДаИспользование указателей C2 : Нет
Коррекция смещения при чтении : 103Способность читать области Lead-in и Lead-out : НетЗаполнение пропущенных сэмплов тишиной : ДаУдаление блоков с тишиной в начале и конце : НетПри вычислениях CRC использовались нулевые сэмплы : ДаИнтерфейс : Встроенный Win32-интерфейс для Win NT/2000
Выходной формат : Пользовательский кодировщикВыбранный битрейт : 1024 kBit/sКачество : ВысокийДобавление ID3-тега : ДаУтилита сжатия : C:\Program Files (x86)\Exact Audio Copy\Flac\flac.exeДополнительные параметры : -8 -V -T "ALBUMARTIST=%albumartist%" -T "ALBUM=%albumtitle%" -T "DATE=%year%" -T "TRACKTOTAL=%numtracks%" -T "GENRE=%genre%" -T "COMMENT=%comment%" -T "PERFORMER=%albuminterpret%" -T "COMPOSER=%composer%" %source% -o %dest%
TOC извлечённого CD
Трек | Старт | Длительность | Начальный сектор | Конечный сектор --------------------------------------------------------------------- 1 | 0:00.00 | 13:56.23 | 0 | 62722 2 | 13:56.23 | 8:06.24 | 62723 | 99196 3 | 22:02.47 | 8:21.47 | 99197 | 136818 4 | 30:24.19 | 14:30.68 | 136819 | 202136 5 | 44:55.12 | 5:26.52 | 202137 | 226638 6 | 50:21.64 | 7:23.52 | 226639 | 259915
Характеристики диапазона извлечения и сообщения об ошибках
Выбранный диапазон
Имя файла O:\!Rips\Mozart - Piano Concertos Nos. 20 KV 466, 21 KV 467.wav
Пиковый уровень 99.6 % Скорость извлечения 2.2 X Качество диапазона 100.0 % CRC теста B9507D5E CRC копии B9507D5E Копирование... OK
Ошибок не произошло
AccurateRip: сводка
Трек 1 : извлечено точно (доверие 6) [04428213] (AR v2)Трек 2 : извлечено точно (доверие 6) [6F4DBB02] (AR v2)Трек 3 : извлечено точно (доверие 6) [CFFA923D] (AR v2)Трек 4 : извлечено точно (доверие 6) [A63529AC] (AR v2)Трек 5 : извлечено точно (доверие 6) [0366C55B] (AR v2)Трек 6 : извлечено точно (доверие 6) [A245301C] (AR v2)
Все треки извлечены точно
Конец отчёта
==== Контрольная сумма отчёта 68DFEA333955C79D5C72516C94A59C52C2EFBC9FD3E746E12D09DB9ED1211021 ====

Содержание индексной карты (.CUE)

REM GENRE ClassicalREM DATE 2012REM DISCID 500D8906REM COMMENT "ExactAudioCopy v1.0b3"PERFORMER "Ensemble Cristofori, Arthur Schoonderwoerd"TITLE "Mozart - Piano Concertos Nos. 20 KV 466, 21 KV 467"FILE "Mozart - Piano Concertos Nos. 20 KV 466, 21 KV 467.flac" WAVE TRACK 01 AUDIO TITLE "Piano Concerto no. 20 in D minor KV 466 - I. Allegro" PERFORMER "Ensemble Cristofori, Arthur Schoonderwoerd" INDEX 01 00:00:00 TRACK 02 AUDIO TITLE "II. Romanze" PERFORMER "Ensemble Cristofori, Arthur Schoonderwoerd" INDEX 01 13:56:23 TRACK 03 AUDIO TITLE "III. Allegro assai" PERFORMER "Ensemble Cristofori, Arthur Schoonderwoerd" INDEX 01 22:02:47 TRACK 04 AUDIO TITLE "Piano Concerto no. 21 in C Major KV 467 - I. Allegro maestoso" PERFORMER "Ensemble Cristofori, Arthur Schoonderwoerd" INDEX 00 30:16:14 INDEX 01 30:24:19 TRACK 05 AUDIO TITLE "II. Andante" PERFORMER "Ensemble Cristofori, Arthur Schoonderwoerd" INDEX 01 44:55:12 TRACK 06 AUDIO TITLE "III. Allegro vivace assai" PERFORMER "Ensemble Cristofori, Arthur Schoonderwoerd" INDEX 01 50:21:64
[teatrix.ru].t10004.torrent 
Торрент: Зарегистрирован [ 2015-10-25 20:37 ] · E6BCC9BB018C2468B99C6C5CD56B832BC6367AC5

Скачать .torrent

Скачать

51 KB

Статус: проверено
Скачан: 0 раз
Размер: 313 MB
terms.php



Быстрый ответ

Имя:

      
Для отправки сообщений необходимо включить JavaScript
Показать сообщения:    

Текущее время: 10-Дек 21:35

Часовой пояс: UTC + 3


Вы можете начинать темы
Вы можете отвечать на сообщения
Вы не можете редактировать свои сообщения
Вы не можете удалять свои сообщения
Вы не можете голосовать в опросах
Вы не можете прикреплять файлы к сообщениям
Вы можете скачивать файлы