(Classical) Чарльз Стэнфорд – Фортепианный концерт № 2, Вариации на английскую тему / Stanford – Piano Concerto No. 2; Concert Variations on «Down among the Dead Men» (Fingerhut, Handley) - 1989 / 1998, FLAC (image+.cue) lossless


Статистика раздачи [Обновить пиров]
Размер:  251 MB   |    Зарегистрирован:  1 год 1 месяц   |    Скачан:  0 раз

Полного источника не было: Никогда

 
   
 
 
 

[Цитировать]

Стэнфорд – Фортепианный концерт № 2, Вариации на английскую тему / Stanford – Piano Concerto No. 2; Concert Variations on «Down among the Dead Men» (Fingerhut, Handley)
Жанр: Classical
Страна-производитель диска: ЕС
Год издания диска: 1989 / 1998
Издатель (лейбл): Chandos
Номер по каталогу: 8736 / 7099
Дата записи: 19 — 23 февраля 1989 г., Белфаст.
Аудиокодек: FLAC
Тип рипа: image+.cue
Битрейт аудио: lossless
Продолжительность: 01:05:06
Источник: odeonmusic
Наличие сканов в содержимом раздачи: да
Треклист:
Чарльз Вильерс Стэнфорд (1852 — 1924).
Фортепианный концерт № 2 c-moll, op. 126 (оконч. 1911).
01. I. Allegro moderato [15:28].
02. II. Adagio molto. — Più mosso (quasi andante). — Tempo I. — Più moto, ma molto tranquillo [12:36].
03. III. Allegro molto. — Più tranquillo. — Tempo I [10:41].
Концертные вариации на английскую тему («Down Among the Dead Men») c-moll для фортепиано с оркестром, op. 71 (1897 — 1898).
04. Вступление. Lento. — Allegro moderato. — Lento. — Allegro moderato. — [02:23].
(05.) Тема. Allegro vivace. —
05. Вариация I. Tranquillo. — [00:50].
06. Вариация II. Poco più mosso. — [01:00].
07. Вариация III. Poco meno mosso. — [01:21].
08. Вариация IV. Presto. — [00:39].
09. Вариация V. — [00:52].
10. Вариация VI. Poco a poco più sostenuto. — [01:29].
11. Вариация VII. Intermezzo. — Più mosso (quasi cadenza). — Moderato. — [02:19].
12. Вариация VIII. Andante tranquillo. — [02:10].
13. Вариация IX. [L'istesso tempo.] — Allegro con fuoco. — [01:55].
14. Вариация X. — [00:49].
15. Вариация XI. Lento. — Poco più mosso. — Allegro. — Presto. — [03:42].
16. Вариация XII. Finale. Allegro moderato e deciso. — Più lento. — Allegro [07:34].
Исполнители:
Margaret Fingerhut (фортепиано).
Ulster Orchestra.
Дирижер Vernon Handley.

Лог создания рипа

Exact Audio Copy V1.0 beta 3 from 29. August 2011
EAC extraction logfile from 19. April 2013, 20:43
Margaret Fingerhut / Stanford - Piano Concerto No.2, Concert Variations - Margaret Fingerhut
Used drive : TSSTcorpCDDVDW SH-222BB Adapter: 2 ID: 1
Read mode : SecureUtilize accurate stream : YesDefeat audio cache : YesMake use of C2 pointers : No
Read offset correction : 6Overread into Lead-In and Lead-Out : NoFill up missing offset samples with silence : YesDelete leading and trailing silent blocks : NoNull samples used in CRC calculations : YesUsed interface : Native Win32 interface for Win NT & 2000
Used output format : User Defined EncoderSelected bitrate : 1024 kBit/sQuality : HighAdd ID3 tag : NoCommand line compressor : C:\Program Files\Exact Audio Copy\Flac\flac.exeAdditional command line options : -8 -V -T "TITLE=%title%" -T "ARTIST=%artist%" -T "ALBUMARTIST=%albumartist%" -T "ALBUM=%albumtitle%" -T "DATE=%year%" -T "TRACKNUMBER=%tracknr%" -T "TRACKTOTAL=%numtracks%" -T "GENRE=%genre%" -T "COMMENT=%comment%" -T "PERFORMER=%albuminterpret%" -T "COMPOSER=%composer%" %source% -o %dest%
TOC of the extracted CD
Track | Start | Length | Start sector | End sector --------------------------------------------------------- 1 | 0:00.00 | 15:34.15 | 0 | 70064 2 | 15:34.15 | 12:40.42 | 70065 | 127106 3 | 28:14.57 | 10:46.05 | 127107 | 175561 4 | 39:00.62 | 2:23.63 | 175562 | 186349 5 | 41:24.50 | 0:50.35 | 186350 | 190134 6 | 42:15.10 | 0:59.42 | 190135 | 194601 7 | 43:14.52 | 1:20.73 | 194602 | 200674 8 | 44:35.50 | 0:38.70 | 200675 | 203594 9 | 45:14.45 | 0:53.70 | 203595 | 207639 10 | 46:08.40 | 1:29.02 | 207640 | 214316 11 | 47:37.42 | 2:18.45 | 214317 | 224711 12 | 49:56.12 | 2:10.23 | 224712 | 234484 13 | 52:06.35 | 1:55.00 | 234485 | 243109 14 | 54:01.35 | 0:47.67 | 243110 | 246701 15 | 54:49.27 | 3:42.43 | 246702 | 263394 16 | 58:31.70 | 6:34.30 | 263395 | 292974
Range status and errors
Selected range
Filename G:\Ripped general\[3425] Stanford – Piano Concerto No.2, Concert Variations – Margaret Fingerhut\Stanford - Piano Concerto No.2, Concert Variations - Margaret Fingerhut.wav
Peak level 93.3 % Extraction speed 7.5 X Range quality 99.9 % Test CRC 6C8B41FA Copy CRC 6C8B41FA Copy OK
No errors occurred
AccurateRip summary
Track 1 not present in databaseTrack 2 not present in databaseTrack 3 not present in databaseTrack 4 not present in databaseTrack 5 not present in databaseTrack 6 not present in databaseTrack 7 not present in databaseTrack 8 not present in databaseTrack 9 not present in databaseTrack 10 not present in databaseTrack 11 not present in databaseTrack 12 not present in databaseTrack 13 not present in databaseTrack 14 not present in databaseTrack 15 not present in databaseTrack 16 not present in database
None of the tracks are present in the AccurateRip database
End of status report

Содержание индексной карты (.CUE)

REM GENRE ClassicalREM DATE 1989REM DISCID 100F4210REM COMMENT "ExactAudioCopy v1.0b3"PERFORMER "Margaret Fingerhut & Vernon Handley"TITLE "Stanford – Piano Concerto No. 2, Concert Variations – Margaret Fingerhut"FILE "Stanford – Piano Concerto No. 2, Concert Variations – Margaret Fingerhut.flac" WAVE TRACK 01 AUDIO TITLE "Piano Concerto No. 2 in C minor, Op. 126 - I. Allegro moderato" PERFORMER "Margaret Fingerhut & Vernon Handley" INDEX 01 00:00:00 TRACK 02 AUDIO TITLE "Piano Concerto No. 2 in C minor, Op. 126 - II. Adagio molto - Piu mosso (quasi andante)" PERFORMER "Margaret Fingerhut & Vernon Handley" INDEX 00 15:30:12 INDEX 01 15:34:15 TRACK 03 AUDIO TITLE "Piano Concerto No. 2 in C minor, Op. 126 - III. Allegro molto - Largamente e sostenuto" PERFORMER "Margaret Fingerhut & Vernon Handley" INDEX 00 28:11:20 INDEX 01 28:14:57 TRACK 04 AUDIO TITLE "Concert Variations, Op. 71 - Introduction. Lento - Allegro moderato - Thema. Allegro vivace" PERFORMER "Margaret Fingerhut & Vernon Handley" INDEX 00 38:55:42 INDEX 01 39:00:62 TRACK 05 AUDIO TITLE "Concert Variations, Op. 71 - I. Tranquillo" PERFORMER "Margaret Fingerhut & Vernon Handley" INDEX 01 41:24:50 TRACK 06 AUDIO TITLE "Concert Variations, Op. 71 - II. Poco piu mosso" PERFORMER "Margaret Fingerhut & Vernon Handley" INDEX 01 42:15:10 TRACK 07 AUDIO TITLE "Concert Variations, Op. 71 - III. Poco meno mosso" PERFORMER "Margaret Fingerhut & Vernon Handley" INDEX 01 43:14:52 TRACK 08 AUDIO TITLE "Concert Variations, Op. 71 - IV. Presto" PERFORMER "Margaret Fingerhut & Vernon Handley" INDEX 01 44:35:50 TRACK 09 AUDIO TITLE "Concert Variations, Op. 71 - V" PERFORMER "Margaret Fingerhut & Vernon Handley" INDEX 01 45:14:45 TRACK 10 AUDIO TITLE "Concert Variations, Op. 71 - VI. Poco a poco piu sostenuto" PERFORMER "Margaret Fingerhut & Vernon Handley" INDEX 01 46:08:40 TRACK 11 AUDIO TITLE "Concert Variations, Op. 71 - VII. Intermezzo" PERFORMER "Margaret Fingerhut & Vernon Handley" INDEX 01 47:37:42 TRACK 12 AUDIO TITLE "Concert Variations, Op. 71 - VIII. Andante tranquillo" PERFORMER "Margaret Fingerhut & Vernon Handley" INDEX 01 49:56:12 TRACK 13 AUDIO TITLE "Concert Variations, Op. 71 - IX" PERFORMER "Margaret Fingerhut & Vernon Handley" INDEX 01 52:06:35 TRACK 14 AUDIO TITLE "Concert Variations, Op. 71 - X" PERFORMER "Margaret Fingerhut & Vernon Handley" INDEX 01 54:01:35 TRACK 15 AUDIO TITLE "Concert Variations, Op. 71 - XI. Lento" PERFORMER "Margaret Fingerhut & Vernon Handley" INDEX 01 54:49:27 TRACK 16 AUDIO TITLE "Concert Variations, Op. 71 - XII. Finale. Allegro moderato e deciso" PERFORMER "Margaret Fingerhut & Vernon Handley" INDEX 01 58:31:70

Вариант индексной карты (.CUE) с более точным разделением Вариаций на треки

REM GENRE ClassicalREM DATE 1989REM DISCID 100F4210REM COMMENT "ExactAudioCopy v1.0b3"PERFORMER "Margaret Fingerhut & Vernon Handley"TITLE "Stanford – Piano Concerto No. 2, Concert Variations – Margaret Fingerhut"FILE "Stanford – Piano Concerto No. 2, Concert Variations – Margaret Fingerhut.flac" WAVE TRACK 01 AUDIO TITLE "Piano Concerto No. 2 in C minor, Op. 126 - I. Allegro moderato" PERFORMER "Margaret Fingerhut & Vernon Handley" INDEX 01 00:00:00 TRACK 02 AUDIO TITLE "Piano Concerto No. 2 in C minor, Op. 126 - II. Adagio molto - Piu mosso (quasi andante)" PERFORMER "Margaret Fingerhut & Vernon Handley" INDEX 00 15:30:12 INDEX 01 15:34:15 TRACK 03 AUDIO TITLE "Piano Concerto No. 2 in C minor, Op. 126 - III. Allegro molto - Largamente e sostenuto" PERFORMER "Margaret Fingerhut & Vernon Handley" INDEX 00 28:11:20 INDEX 01 28:14:57 TRACK 04 AUDIO TITLE "Concert Variations, Op. 71 - Introduction. Lento - Allegro moderato - Lento - Allegro moderato" PERFORMER "Margaret Fingerhut & Vernon Handley" INDEX 00 38:55:42 INDEX 01 39:00:62 TRACK 05 AUDIO TITLE "Concert Variations, Op. 71 - Thema. Allegro vivace" PERFORMER "Margaret Fingerhut & Vernon Handley" INDEX 01 40:47:21 TRACK 06 AUDIO TITLE "Concert Variations, Op. 71 - I. Tranquillo" PERFORMER "Margaret Fingerhut & Vernon Handley" INDEX 01 41:24:63 TRACK 07 AUDIO TITLE "Concert Variations, Op. 71 - II. Poco piu mosso" PERFORMER "Margaret Fingerhut & Vernon Handley" INDEX 01 42:15:19 TRACK 08 AUDIO TITLE "Concert Variations, Op. 71 - III. Poco meno mosso" PERFORMER "Margaret Fingerhut & Vernon Handley" INDEX 01 43:14:67 TRACK 09 AUDIO TITLE "Concert Variations, Op. 71 - IV. Presto" PERFORMER "Margaret Fingerhut & Vernon Handley" INDEX 01 44:35:71 TRACK 10 AUDIO TITLE "Concert Variations, Op. 71 - V" PERFORMER "Margaret Fingerhut & Vernon Handley" INDEX 01 45:14:64 TRACK 11 AUDIO TITLE "Concert Variations, Op. 71 - VI. Poco a poco piu sostenuto" PERFORMER "Margaret Fingerhut & Vernon Handley" INDEX 01 46:08:44 TRACK 12 AUDIO TITLE "Concert Variations, Op. 71 - VII. Intermezzo" PERFORMER "Margaret Fingerhut & Vernon Handley" INDEX 01 47:37:51 TRACK 13 AUDIO TITLE "Concert Variations, Op. 71 - VIII. Andante tranquillo" PERFORMER "Margaret Fingerhut & Vernon Handley" INDEX 01 49:56:23 TRACK 14 AUDIO TITLE "Concert Variations, Op. 71 - IX" PERFORMER "Margaret Fingerhut & Vernon Handley" INDEX 01 52:06:43 TRACK 15 AUDIO TITLE "Concert Variations, Op. 71 - X" PERFORMER "Margaret Fingerhut & Vernon Handley" INDEX 01 54:01:44 TRACK 16 AUDIO TITLE "Concert Variations, Op. 71 - XI. Lento" PERFORMER "Margaret Fingerhut & Vernon Handley" INDEX 01 54:49:33 TRACK 17 AUDIO TITLE "Concert Variations, Op. 71 - XII. Finale. Allegro moderato e deciso" PERFORMER "Margaret Fingerhut & Vernon Handley" INDEX 01 58:31:70
[teatrix.ru].t10005.torrent 
Торрент: Зарегистрирован [ 2015-10-25 20:37 ] · 3C1B44E19C143CE2A1F21A975962419C01E30FD3

Скачать .torrent

Скачать

21 KB

Статус: проверено
Скачан: 0 раз
Размер: 251 MB
terms.php



Быстрый ответ

Имя:

      
Для отправки сообщений необходимо включить JavaScript
Показать сообщения:    

Текущее время: 04-Дек 11:14

Часовой пояс: UTC + 3


Вы можете начинать темы
Вы можете отвечать на сообщения
Вы не можете редактировать свои сообщения
Вы не можете удалять свои сообщения
Вы не можете голосовать в опросах
Вы не можете прикреплять файлы к сообщениям
Вы можете скачивать файлы