(Classical) Альфред Шнитке - Концерт №2 для виолончели с оркестром / Alfred Schnittke - Cello Concerto No. 2, (K)ein Sommernachtstraum (Александр Ивашкин, РГСО, Валерий Полянский) - 1999, FLAC (image+.cue) lossless


Статистика раздачи [Обновить пиров]
Размер:  227 MB   |    Зарегистрирован:  1 год 2 месяца   |    Скачан:  0 раз

Полного источника не было: Никогда

 
   
 
 
 

[Цитировать]

Альфред Шнитке - Концерт №2 для виолончели с оркестром, (K)ein Sommernachtstraum / Alfred Schnittke - Cello Concerto No. 2, (K)ein Sommernachtstraum (Александр Ивашкин, РГСО, Валерий Полянский)
Жанр: Classical
Страна-производитель диска: EU
Год издания диска: 1999
Издатель (лейбл): Chandos
Номер по каталогу: CHAN 9722
Дата записи: 16.01.1998
Аудиокодек: FLAC
Тип рипа: image+.cue
Битрейт аудио: lossless
Продолжительность: 52:50
Источник: собственный рип
Наличие сканов в содержимом раздачи: да
Треклист:
Альфред Шнитке (1934-1998)
Концерт №2 для виолончели с оркестром (1990) 42:00
[1] I Moderato - 3:20
[2] II Allegro 9:34
[3] III Lento - 8:26
[4] IV Allegretto vivo - 4:34
[5] V Grave 16:05
[6] (K)ein Sommernachtstraum (1985) 10:37
(Not) A Midsummer Night's Dream
"Не по Шекспиру"
Исполнители:
Александр Ивашкин, виолончель
Российский Государственный симфонический оркестр
Валерий Полянский

Лог создания рипа

Exact Audio Copy V1.0 beta 3 from 29. August 2011
Отчёт EAC об извлечении, выполненном 11. августа 2013, 6:09
Alexander Ivashkin, RSSO, Valeri Polyansky / Cello Concerto No. 2, (K)ein Sommernachtstraum
Дисковод: HL-DT-STDVDRAM GT33N Adapter: 1 ID: 0
Режим чтения : ДостоверностьИспользование точного потока : ДаОтключение кэша аудио : ДаИспользование указателей C2 : Нет
Коррекция смещения при чтении : 103Способность читать области Lead-in и Lead-out : НетЗаполнение пропущенных сэмплов тишиной : ДаУдаление блоков с тишиной в начале и конце : НетПри вычислениях CRC использовались нулевые сэмплы : ДаИнтерфейс : Встроенный Win32-интерфейс для Win NT/2000
Выходной формат : Пользовательский кодировщикВыбранный битрейт : 1024 kBit/sКачество : ВысокийДобавление ID3-тега : ДаУтилита сжатия : C:\Program Files (x86)\Exact Audio Copy\Flac\flac.exeДополнительные параметры : -8 -V -T "ALBUMARTIST=%albumartist%" -T "ALBUM=%albumtitle%" -T "DATE=%year%" -T "TRACKTOTAL=%numtracks%" -T "GENRE=%genre%" -T "COMMENT=%comment%" -T "PERFORMER=%albuminterpret%" -T "COMPOSER=%composer%" %source% -o %dest%
TOC извлечённого CD
Трек | Старт | Длительность | Начальный сектор | Конечный сектор --------------------------------------------------------------------- 1 | 0:00.00 | 3:20.42 | 0 | 15041 2 | 3:20.42 | 9:35.45 | 15042 | 58211 3 | 12:56.12 | 8:25.65 | 58212 | 96151 4 | 21:22.02 | 4:33.40 | 96152 | 116666 5 | 25:55.42 | 16:16.55 | 116667 | 189921 6 | 42:12.22 | 10:37.55 | 189922 | 237751
Характеристики диапазона извлечения и сообщения об ошибках
Выбранный диапазон
Имя файла O:\!Rips\Cello Concerto No. 2, (K)ein Sommernachtstraum.wav
Пиковый уровень 100.0 % Скорость извлечения 2.1 X Качество диапазона 100.0 % CRC теста 7C1BE624 CRC копии 7C1BE624 Копирование... OK
Ошибок не произошло
AccurateRip: сводка
Трек 1 отсутствует в базе данныхТрек 2 отсутствует в базе данныхТрек 3 отсутствует в базе данныхТрек 4 отсутствует в базе данныхТрек 5 отсутствует в базе данныхТрек 6 отсутствует в базе данных
Ни одного трека нет в базе AccurateRip
Конец отчёта
==== Контрольная сумма отчёта 47B1042EB13840388AA2FF43CB22007D69272C33D07FF271FE2F32A4D3D7F2EB ====

Содержание индексной карты (.CUE)

REM GENRE ClassicalREM DATE 1999REM DISCID 4B0C6206REM COMMENT "ExactAudioCopy v1.0b3"PERFORMER "Alexander Ivashkin, RSSO, Valeri Polyansky"TITLE "Cello Concerto No. 2, (K)ein Sommernachtstraum"FILE "Cello Concerto No. 2, (K)ein Sommernachtstraum.flac" WAVE TRACK 01 AUDIO TITLE "Cello Concerto No. 2 (1989-90) - I. Moderato" PERFORMER "Alexander Ivashkin, RSSO, Valeri Polyansky" INDEX 01 00:00:00 TRACK 02 AUDIO TITLE "Cello Concerto No. 2 (1989-90) - II. Allegro" PERFORMER "Alexander Ivashkin, RSSO, Valeri Polyansky" INDEX 01 03:20:42 TRACK 03 AUDIO TITLE "Cello Concerto No. 2 (1989-90) - III. Lento" PERFORMER "Alexander Ivashkin, RSSO, Valeri Polyansky" INDEX 00 12:54:65 INDEX 01 12:56:12 TRACK 04 AUDIO TITLE "Cello Concerto No. 2 (1989-90) - IV. Allegretto vivo" PERFORMER "Alexander Ivashkin, RSSO, Valeri Polyansky" INDEX 01 21:22:02 TRACK 05 AUDIO TITLE "Cello Concerto No. 2 (1989-90) - V. Grave" PERFORMER "Alexander Ivashkin, RSSO, Valeri Polyansky" INDEX 01 25:55:42 TRACK 06 AUDIO TITLE "(K)ein Sommernachtstraum (for large orchestra) (1985)" PERFORMER "RSSO, Valeri Polyansky" INDEX 00 42:00:55 INDEX 01 42:12:22
[teatrix.ru].t10006.torrent 
Торрент: Зарегистрирован [ 2015-10-25 20:37 ] · 5D1075E795977F9FFE9B7B07A3EAA1FEB5A5C900

Скачать .torrent

Скачать

37 KB

Статус: проверено
Скачан: 0 раз
Размер: 227 MB
terms.php



Быстрый ответ

Имя:

      
Для отправки сообщений необходимо включить JavaScript
Показать сообщения:    

Текущее время: 20-Янв 16:57

Часовой пояс: UTC + 3


Вы можете начинать темы
Вы можете отвечать на сообщения
Вы не можете редактировать свои сообщения
Вы не можете удалять свои сообщения
Вы не можете голосовать в опросах
Вы не можете прикреплять файлы к сообщениям
Вы можете скачивать файлы