(classical, violin) Feliks Janiewicz - Concertos for violin and orchestra (Zbigniew Pilch, Musicae Antiquae Collegium Varsoviense, Kai Bumann) - 2007, FLAC (image+.cue) lossless


Статистика раздачи [Обновить пиров]
Размер:  291 MB   |    Зарегистрирован:  1 год 1 месяц   |    Скачан:  0 раз

Полного источника не было: Никогда

 
   
 
 
 

[Цитировать]

Feliks Janiewicz - Concertos for violin and orchestra (Zbigniew Pilch, Musicae Antiquae Collegium Varsoviense, Kai Bumann)
Жанр: classical, violin
Страна-производитель диска: Poland
Год издания диска: 2007
Издатель (лейбл): Pro Musica Camerata
Номер по каталогу: PMC 057
Дата записи: 2006
Аудиокодек: FLAC
Тип рипа: image+.cue
Битрейт аудио: lossless
Продолжительность: 49:33
Источник: скачано с
сайт-источник/ник/другое: WEB
Наличие сканов в содержимом раздачи: да
Треклист:
Феликс Яневич ((1762-1848)
1-3. Violin Concerto No. 3 in A Major
I. Allegro 10:04
II. Adagio 05:53
III. Rondo 06:39
4-6. Violin Concerto No. 5 in E Minor
I. Largo. Allegro moderato 15:38
II. Adagio 04:35
III. Rondo. Allegretto 06:42
Исполнители:
Zbigniew Pilch, violin.
Musicae Antiquae Collegium Varsoviense.
Kai Bumann

Лог создания рипа

Exact Audio Copy V1.0 beta 3 from 29. August 2011
EAC extraction logfile from 11. March 2012, 12:02
Zbigniew Pilch / Janiewicz - Concertos for violin and orchestra - Zbigniew Pilch
Used drive : HL-DT-STDVDRAM GSA-H10A Adapter: 0 ID: 0
Read mode : SecureUtilize accurate stream : YesDefeat audio cache : YesMake use of C2 pointers : No
Read offset correction : 667Overread into Lead-In and Lead-Out : NoFill up missing offset samples with silence : YesDelete leading and trailing silent blocks : NoNull samples used in CRC calculations : YesUsed interface : Native Win32 interface for Win NT & 2000
Used output format : User Defined EncoderSelected bitrate : 1024 kBit/sQuality : HighAdd ID3 tag : NoCommand line compressor : C:\Program Files\Exact Audio Copy\Flac\flac.exeAdditional command line options : -8 -V -T "TITLE=%title%" -T "ARTIST=%artist%" -T "ALBUMARTIST=%albumartist%" -T "ALBUM=%albumtitle%" -T "DATE=%year%" -T "TRACKNUMBER=%tracknr%" -T "TRACKTOTAL=%numtracks%" -T "GENRE=%genre%" -T "COMMENT=%comment%" -T "PERFORMER=%albuminterpret%" -T "COMPOSER=%composer%" %source% -o %dest%
TOC of the extracted CD
Track | Start | Length | Start sector | End sector --------------------------------------------------------- 1 | 0:00.00 | 10:04.61 | 0 | 45360 2 | 10:04.61 | 5:53.18 | 45361 | 71853 3 | 15:58.04 | 6:39.34 | 71854 | 101812 4 | 22:37.38 | 15:38.11 | 101813 | 172173 5 | 38:15.49 | 4:35.50 | 172174 | 192848 6 | 42:51.24 | 6:42.25 | 192849 | 223023
Range status and errors
Selected range
Filename F:\Ripped general\[9935] Janiewicz - Concertos for violin and orchestra - Zbigniew Pilch\Janiewicz - Concertos for violin and orchestra - Zbigniew Pilch.wav
Peak level 99.7 % Extraction speed 7.2 X Range quality 100.0 % Test CRC 496C22D2 Copy CRC 496C22D2 Copy OK
No errors occurred
AccurateRip summary
Track 1 not present in databaseTrack 2 not present in databaseTrack 3 not present in databaseTrack 4 not present in databaseTrack 5 not present in databaseTrack 6 not present in database
None of the tracks are present in the AccurateRip database
End of status report
[teatrix.ru].t10007.torrent 
Торрент: Зарегистрирован [ 2015-10-25 20:37 ] · 59D2FFB334323640B97318E7CE98BA0B7EEB103D

Скачать .torrent

Скачать

13 KB

Статус: проверено
Скачан: 0 раз
Размер: 291 MB
terms.php



Быстрый ответ

Имя:

      
Для отправки сообщений необходимо включить JavaScript
Показать сообщения:    

Текущее время: 11-Дек 13:00

Часовой пояс: UTC + 3


Вы можете начинать темы
Вы можете отвечать на сообщения
Вы не можете редактировать свои сообщения
Вы не можете удалять свои сообщения
Вы не можете голосовать в опросах
Вы не можете прикреплять файлы к сообщениям
Вы можете скачивать файлы