(Classical, concerto) The Hyperion Romantic Piano Concerto – Vol. 15: Hahn (Рейнальдо Ан) & Massenet (Жюль Массне) (Coombs, Ossonce) - 1997, FLAC (image+.cue) lossless


Статистика раздачи [Обновить пиров]
Размер:  247 MB   |    Зарегистрирован:  1 год 1 месяц   |    Скачан:  0 раз

Полного источника не было: Никогда

 
   
 
 
 

[Цитировать]

The Hyperion Romantic Piano Concerto – Vol. 15: Hahn & Massenet (Coombs, Ossonce)
Жанр: Classical, concerto
Страна-производитель диска: Англия
Год издания диска: 1997
Издатель (лейбл): Hyperion
Номер по каталогу: CDA66897
Дата записи: 15 и 16 июня 1996 г.
Аудиокодек: FLAC
Тип рипа: image+.cue
Битрейт аудио: lossless
Продолжительность: 00:59:48
Источник: odeonmusic
Наличие сканов в содержимом раздачи: да
Треклист:
Жюль Массне (1842 — 1912).
Фортепианный концерт Es-dur (1860-е? — 1902).
01. I. Andante moderato. — Allegro non troppo [14:18].
02. II. Largo [09:39].
03. III. Словацкие мелодии (Airs Slovaques). Allegro [07:07].
Рейнальдо Ан (1874 — 1947).
Фортепианный концерт E-dur (1930).
04. I. Импровизация. Modéré, très librement [11:58].
05. II. Танец. Vif [02:45].
06. III. Греза, токката и финал. Lent. — Gai, fortement rythmé (pas trop vite). — Allegro [13:41].
Исполнители:
Stephen Coombs (фортепиано).
BBC Scottish Symphony Orchestra.
Дирижер Jean-Yves Ossonce.

Лог создания рипа

Exact Audio Copy V1.0 beta 3 from 29. August 2011
EAC extraction logfile from 26. November 2012, 19:51
Stephen Coombs / Massenet, Hahn - Piano Concertos - Coombs
Used drive : TSSTcorpCDDVDW TS-L633M Adapter: 1 ID: 0
Read mode : SecureUtilize accurate stream : YesDefeat audio cache : YesMake use of C2 pointers : No
Read offset correction : 6Overread into Lead-In and Lead-Out : NoFill up missing offset samples with silence : YesDelete leading and trailing silent blocks : NoNull samples used in CRC calculations : YesUsed interface : Native Win32 interface for Win NT & 2000
Used output format : User Defined EncoderSelected bitrate : 320 kBit/sQuality : HighAdd ID3 tag : NoCommand line compressor : C:\Program Files\Exact Audio Copy\Flac\flac.exeAdditional command line options : -8 -V -T "TITLE=%title%" -T "ARTIST=%artist%" -T "ALBUMARTIST=%albumartist%" -T "ALBUM=%albumtitle%" -T "DATE=%year%" -T "TRACKNUMBER=%tracknr%" -T "TRACKTOTAL=%numtracks%" -T "GENRE=%genre%" -T "COMMENT=%comment%" -T "PERFORMER=%albuminterpret%" -T "COMPOSER=%composer%" %source% -o %dest%
TOC of the extracted CD
Track | Start | Length | Start sector | End sector --------------------------------------------------------- 1 | 0:00.00 | 14:22.12 | 0 | 64661 2 | 14:22.12 | 9:40.25 | 64662 | 108186 3 | 24:02.37 | 7:14.25 | 108187 | 140761 4 | 31:16.62 | 12:00.38 | 140762 | 194799 5 | 43:17.25 | 2:47.00 | 194800 | 207324 6 | 46:04.25 | 13:43.50 | 207325 | 269099
Range status and errors
Selected range
Filename C:\Users\JS\Desktop\[2824] Massenet, Hahn - Piano Concertos - Coombs\Massenet, Hahn - Piano Concertos - Coombs.wav
Peak level 95.8 % Extraction speed 1.8 X Range quality 99.9 % Test CRC 5093FA8D Copy CRC 5093FA8D Copy OK
No errors occurred
AccurateRip summary
Track 1 accurately ripped (confidence 9) [C377F0FE] (AR v1)Track 2 accurately ripped (confidence 9) [8B3A7607] (AR v1)Track 3 accurately ripped (confidence 9) [57CA9C82] (AR v1)Track 4 accurately ripped (confidence 9) [447B29FF] (AR v1)Track 5 accurately ripped (confidence 8) [552E930A] (AR v1)Track 6 accurately ripped (confidence 9) [12BA0564] (AR v1)
All tracks accurately ripped
End of status report

Содержание индексной карты (.CUE)

REM GENRE ClassicalREM DATE 1997REM DISCID 670E0406REM COMMENT "ExactAudioCopy v1.0b3"PERFORMER "Stephen Coombs & Jean-Yves Ossonce"TITLE "Massenet, Hahn – Piano Concertos – Coombs"FILE "Massenet, Hahn – Piano Concertos – Coombs.flac" WAVE TRACK 01 AUDIO TITLE "Massenet - Piano Concerto in E flat major (1903) - I. Andante moderato - Allegro non troppo" PERFORMER "Stephen Coombs & Jean-Yves Ossonce" INDEX 01 00:00:00 TRACK 02 AUDIO TITLE "Massenet - Piano Concerto in E flat major (1903) - II. Largo" PERFORMER "Stephen Coombs & Jean-Yves Ossonce" INDEX 00 14:19:30 INDEX 01 14:22:12 TRACK 03 AUDIO TITLE "Massenet - Piano Concerto in E flat major (1903) - III. Airs Slovaques. Allegro" PERFORMER "Stephen Coombs & Jean-Yves Ossonce" INDEX 00 24:01:55 INDEX 01 24:02:37 TRACK 04 AUDIO TITLE "Hahn - Piano Concerto in E major (1931) - I. Improvisation. Modere tres librement" PERFORMER "Stephen Coombs & Jean-Yves Ossonce" INDEX 00 31:10:05 INDEX 01 31:16:62 TRACK 05 AUDIO TITLE "Hahn - Piano Concerto in E major (1931) - II. Danse. Vif" PERFORMER "Stephen Coombs & Jean-Yves Ossonce" INDEX 00 43:15:42 INDEX 01 43:17:25 TRACK 06 AUDIO TITLE "Hahn - Piano Concerto in E major (1931) - III. Reverie, toccata et finale. Lent - Gai, fortement rythme (pas trop vite) - Allegro" PERFORMER "Stephen Coombs & Jean-Yves Ossonce" INDEX 00 46:02:42 INDEX 01 46:04:25
[teatrix.ru].t10008.torrent 
Торрент: Зарегистрирован [ 2015-10-25 20:37 ] · 493B61C44132FF1D55DFE61D18B80007BC4F3B17

Скачать .torrent

Скачать

21 KB

Статус: проверено
Скачан: 0 раз
Размер: 247 MB
terms.php



Быстрый ответ

Имя:

      
Для отправки сообщений необходимо включить JavaScript
Показать сообщения:    

Текущее время: 06-Дек 22:50

Часовой пояс: UTC + 3


Вы можете начинать темы
Вы можете отвечать на сообщения
Вы не можете редактировать свои сообщения
Вы не можете удалять свои сообщения
Вы не можете голосовать в опросах
Вы не можете прикреплять файлы к сообщениям
Вы можете скачивать файлы