(Classical) Мориц Мошковский – Фортепианный концерт E-dur, «Со всего Божьего света» / Moszkowski – Piano Concerto in E, »Aus aller Herren Lander« / «From Foreign Lands» (Pawlik, Wit) - 1998, FLAC (image+.cue) lossless


Статистика раздачи [Обновить пиров]
Размер:  253 MB   |    Зарегистрирован:  1 год 1 месяц   |    Скачан:  0 раз

Полного источника не было: Никогда

 
   
 
 
 

[Цитировать]

Мошковский – Фортепианный концерт E-dur, «Со всего Божьего света» / Moszkowski – Piano Concerto in E, »Aus aller Herren Länder« / «From Foreign Lands» (Pawlik, Wit)
Жанр: Classical
Страна-производитель диска: ЕС
Год издания диска: 1998
Издатель (лейбл): Naxos
Номер по каталогу: 8.553989
Дата записи: 21 — 24 октября 1996 г., Катовице.
Аудиокодек: FLAC
Тип рипа: image+.cue
Битрейт аудио: lossless
Продолжительность: 01:01:01
Источник: odeonmusic
Наличие сканов в содержимом раздачи: да
Треклист:
Мориц Мошковский (1854 — 1925).
Фортепианный концерт (№ 2) E-dur, op. 59 (1898).
01. I. Moderato [12:54].
02. II. Andante. — [08:52].
03. III. Scherzo. Vivace [07:15].
04. IV. Allegro deciso [09:34].
«Со всего Божьего света» (»Aus aller Herren Länder«), шесть характерных пьес для оркестра, op. 23a (1884; оригинальное переложение одноименного сборника для фортепиано в четыре руки, op. 23, 1879).
05. I. Русский. Allegretto [02:56].
06. II. Итальянский. Presto [03:58].
07. III. Немецкий. Andante sostenuto. — Un pochissimo più agitato. — Tempo I [05:48].
08. IV. Испанский. Molto vivace [02:26].
09. V. Польский. Allegro con fuoco. — Un poco rubato [03:53].
10. VI. Венгерский. Molto allegro [03:14].
Исполнители:
Markus Pawlik (фортепиано).
Polish National Radio Symphony Orchestra (Katowice).
Дирижер Antoni Wit.

Лог создания рипа

Exact Audio Copy V1.0 beta 3 from 29. August 2011
EAC extraction logfile from 23. May 2013, 20:56
Markus Pawlik / Moszkovski - Works for Piano and Orchestra - Markus Pawlik
Used drive : TSSTcorpCDDVDW SH-222BB Adapter: 2 ID: 1
Read mode : SecureUtilize accurate stream : YesDefeat audio cache : YesMake use of C2 pointers : No
Read offset correction : 6Overread into Lead-In and Lead-Out : NoFill up missing offset samples with silence : YesDelete leading and trailing silent blocks : NoNull samples used in CRC calculations : YesUsed interface : Native Win32 interface for Win NT & 2000
Used output format : User Defined EncoderSelected bitrate : 1024 kBit/sQuality : HighAdd ID3 tag : NoCommand line compressor : C:\Program Files\Exact Audio Copy\Flac\flac.exeAdditional command line options : -8 -V -T "TITLE=%title%" -T "ARTIST=%artist%" -T "ALBUMARTIST=%albumartist%" -T "ALBUM=%albumtitle%" -T "DATE=%year%" -T "TRACKNUMBER=%tracknr%" -T "TRACKTOTAL=%numtracks%" -T "GENRE=%genre%" -T "COMMENT=%comment%" -T "PERFORMER=%albuminterpret%" -T "COMPOSER=%composer%" %source% -o %dest%
TOC of the extracted CD
Track | Start | Length | Start sector | End sector --------------------------------------------------------- 1 | 0:00.00 | 12:55.70 | 0 | 58194 2 | 12:55.70 | 8:51.70 | 58195 | 98089 3 | 21:47.65 | 7:17.00 | 98090 | 130864 4 | 29:04.65 | 9:36.72 | 130865 | 174136 5 | 38:41.62 | 2:56.10 | 174137 | 187346 6 | 41:37.72 | 3:59.70 | 187347 | 205341 7 | 45:37.67 | 5:48.08 | 205342 | 231449 8 | 51:26.00 | 2:25.72 | 231450 | 242396 9 | 53:51.72 | 3:53.05 | 242397 | 259876 10 | 57:45.02 | 3:14.03 | 259877 | 274429
Range status and errors
Selected range
Filename G:\Ripped general\[3073] Moszkovski – Works for Piano and Orchestra – Markus Pawlik\Moszkovski - Works for Piano and Orchestra - Markus Pawlik.wav
Peak level 99.9 % Extraction speed 7.6 X Range quality 100.0 % Test CRC D3160E56 Copy CRC D3160E56 Copy OK
No errors occurred
AccurateRip summary
Track 1 not present in databaseTrack 2 not present in databaseTrack 3 not present in databaseTrack 4 not present in databaseTrack 5 not present in databaseTrack 6 not present in databaseTrack 7 not present in databaseTrack 8 not present in databaseTrack 9 not present in databaseTrack 10 not present in database
None of the tracks are present in the AccurateRip database
End of status report

Содержание индексной карты (.CUE)

REM GENRE ClassicalREM DATE 1998REM DISCID 9F0E4B0AREM COMMENT "ExactAudioCopy v1.0b3"PERFORMER "Markus Pawlik & Antoni Wit"TITLE "Moszkowski – Works for Piano & Orchestra – Markus Pawlik"FILE "Moszkowski – Works for Piano & Orchestra – Markus Pawlik.flac" WAVE TRACK 01 AUDIO TITLE "Piano Concerto in E major, Op. 59 - I. Moderato" PERFORMER "Markus Pawlik & Antoni Wit" INDEX 01 00:00:00 TRACK 02 AUDIO TITLE "Piano Concerto in E major, Op. 59 - II. Andante" PERFORMER "Markus Pawlik & Antoni Wit" INDEX 00 12:54:12 INDEX 01 12:55:70 TRACK 03 AUDIO TITLE "Piano Concerto in E major, Op. 59 - III. Scherzo. Vivace" PERFORMER "Markus Pawlik & Antoni Wit" INDEX 01 21:47:65 TRACK 04 AUDIO TITLE "Piano Concerto in E major, Op. 59 - IV. Allegro deciso" PERFORMER "Markus Pawlik & Antoni Wit" INDEX 00 29:02:42 INDEX 01 29:04:65 TRACK 05 AUDIO TITLE "From Foreign Lands, Op. 23 - I. Russian. Allegretto" PERFORMER "Antoni Wit" INDEX 00 38:38:50 INDEX 01 38:41:62 TRACK 06 AUDIO TITLE "From Foreign Lands, Op. 23 - II. Italian. Presto" PERFORMER "Antoni Wit" INDEX 01 41:37:72 TRACK 07 AUDIO TITLE "From Foreign Lands, Op. 23 - III. German .Andante" PERFORMER "Antoni Wit" INDEX 00 45:35:67 INDEX 01 45:37:67 TRACK 08 AUDIO TITLE "From Foreign Lands, Op. 23 - IV. Spanish. Molto vivace" PERFORMER "Antoni Wit" INDEX 01 51:26:00 TRACK 09 AUDIO TITLE "From Foreign Lands, Op. 23 - V. Polish. Allegro con fuoco" PERFORMER "Antoni Wit" INDEX 01 53:51:72 TRACK 10 AUDIO TITLE "From Foreign Lands, Op. 23 - VI. Hungarian. Molto allegro" PERFORMER "Antoni Wit" INDEX 01 57:45:02
[teatrix.ru].t10009.torrent 
Торрент: Зарегистрирован [ 2015-10-25 20:37 ] · C14C03A1048B3AADA21DC1DCAF38320970B515DD

Скачать .torrent

Скачать

21 KB

Статус: проверено
Скачан: 0 раз
Размер: 253 MB
terms.php



Быстрый ответ

Имя:

      
Для отправки сообщений необходимо включить JavaScript
Показать сообщения:    

Текущее время: 10-Дек 11:54

Часовой пояс: UTC + 3


Вы можете начинать темы
Вы можете отвечать на сообщения
Вы не можете редактировать свои сообщения
Вы не можете удалять свои сообщения
Вы не можете голосовать в опросах
Вы не можете прикреплять файлы к сообщениям
Вы можете скачивать файлы