(Classical/Baroque/Violin) Johann Sebastian Bach - Violin concertos BWV 1041, 1042, 1053, 1060 - Viktoria Mullova / Виктория Муллова, Accademia Bizantina, Ottavio Dantone (Onyx) - 2013, FLAC (image+.cue) lossless


Статистика раздачи [Обновить пиров]
Размер:  314 MB   |    Зарегистрирован:  1 год 2 месяца   |    Скачан:  0 раз

Полного источника не было: Никогда

 
   
 
 
 

[Цитировать]

Johann Sebastian Bach - Violin concertos BWV 1041, 1042, 1053, 1060 - Viktoria Mullova / Виктория Муллова, Accademia Bizantina, Ottavio Dantone (Onyx) - 2013
Жанр: Classical/Baroque/Violin
Страна-производитель диска: EU
Год издания диска: 2013
Издатель (лейбл): Onyx
Номер по каталогу: 4114
Дата записи: 2012
Аудиокодек: FLAC
Тип рипа: image+.cue
Битрейт аудио: lossless
Продолжительность: 60'31
Источник: скачано с
сайт-источник/ник/другое: блог OdeonMusic
Наличие сканов в содержимом раздачи: да
Треклист:
Violin Concerto in E BWV 1042
01. I. Allegro [0:07:26.29]
02. II. Adagio [0:05:24.74]
03. III. Allegro assai [0:02:35.32]
Concerto for Harpsichord in E BWV 1053 (arr. for violin in D)
04. I. Allegro [0:08:22.09]
05. II. Siciliano [0:05:11.12]
06. III. Allegro [0:06:06.53]
Violin Concerto in A minor BWV 1041
07. I. Allegro [0:03:34.43]
08. II. Andante [0:05:14.28]
09. III. Allegro assai [0:03:29.49]
Concerto for two harpsichords in C minor BWV 1060 (arr. for violin and harpsichord)
10. I. Allegro [0:04:52.19]
11. II. Adagio [0:04:44.17]
12. III. Allegro [0:03:29.01]
Исполнители:
Viktoria Mullova / Виктория Муллова - violin
Accademia Bizantina
Ottavio Dantone - conductor

Лог создания рипа

Exact Audio Copy V1.0 beta 3 from 29. August 2011
EAC extraction logfile from 3. July 2013, 6:32
Viktoria Mullova / Bach - Violin Concertos - Viktoria Mullova
Used drive : TSSTcorpCDDVDW SH-222BB Adapter: 2 ID: 1
Read mode : SecureUtilize accurate stream : YesDefeat audio cache : YesMake use of C2 pointers : No
Read offset correction : 6Overread into Lead-In and Lead-Out : NoFill up missing offset samples with silence : YesDelete leading and trailing silent blocks : NoNull samples used in CRC calculations : YesUsed interface : Native Win32 interface for Win NT & 2000
Used output format : User Defined EncoderSelected bitrate : 1024 kBit/sQuality : HighAdd ID3 tag : NoCommand line compressor : C:\Program Files\Exact Audio Copy\Flac\flac.exeAdditional command line options : -8 -V -T "TITLE=%title%" -T "ARTIST=%artist%" -T "ALBUMARTIST=%albumartist%" -T "ALBUM=%albumtitle%" -T "DATE=%year%" -T "TRACKNUMBER=%tracknr%" -T "TRACKTOTAL=%numtracks%" -T "GENRE=%genre%" -T "COMMENT=%comment%" -T "PERFORMER=%albuminterpret%" -T "COMPOSER=%composer%" %source% -o %dest%
TOC of the extracted CD
Track | Start | Length | Start sector | End sector --------------------------------------------------------- 1 | 0:00.00 | 7:26.29 | 0 | 33478 2 | 7:26.29 | 5:24.74 | 33479 | 57852 3 | 12:51.28 | 2:35.32 | 57853 | 69509 4 | 15:26.60 | 8:22.09 | 69510 | 107168 5 | 23:48.69 | 5:11.12 | 107169 | 130505 6 | 29:00.06 | 6:06.53 | 130506 | 158008 7 | 35:06.59 | 3:34.43 | 158009 | 174101 8 | 38:41.27 | 5:14.28 | 174102 | 197679 9 | 43:55.55 | 3:29.49 | 197680 | 213403 10 | 47:25.29 | 4:52.19 | 213404 | 235322 11 | 52:17.48 | 4:44.17 | 235323 | 256639 12 | 57:01.65 | 3:29.01 | 256640 | 272315
Range status and errors
Selected range
Filename G:\Ripped general\[8768] Bach – Violin Concertos – Viktoria Mullova\Bach - Violin Concertos - Viktoria Mullova.wav
Peak level 88.5 % Extraction speed 7.1 X Range quality 100.0 % Test CRC 872E6749 Copy CRC 872E6749 Copy OK
No errors occurred
AccurateRip summary
Track 1 not present in databaseTrack 2 not present in databaseTrack 3 not present in databaseTrack 4 not present in databaseTrack 5 not present in databaseTrack 6 not present in databaseTrack 7 not present in databaseTrack 8 not present in databaseTrack 9 not present in databaseTrack 10 not present in databaseTrack 11 not present in databaseTrack 12 not present in database
None of the tracks are present in the AccurateRip database
End of status report

Содержание индексной карты (.CUE)

REM GENRE ClassicalREM DATE 2013REM DISCID A40E2E0CREM COMMENT "ExactAudioCopy v1.0b3"PERFORMER "Viktoria Mullova, Accademia Bizantina, Ottavio Dantone"TITLE "J.S.Bach - Violin Concertos"FILE "Bach - Violin Concertos - Viktoria Mullova.flac" WAVE TRACK 01 AUDIO TITLE "J.S. Bach - Violin Concerto in E BWV 1042 - I. Allegro" PERFORMER "Viktoria Mullova, Accademia Bizantina, Ottavio Dantone" INDEX 01 00:00:00 TRACK 02 AUDIO TITLE "J.S. Bach - Violin Concerto in E BWV 1042 - II. Adagio" PERFORMER "Viktoria Mullova, Accademia Bizantina, Ottavio Dantone" INDEX 01 07:26:29 TRACK 03 AUDIO TITLE "J.S. Bach - Violin Concerto in E BWV 1042 - III. Allegro assai" PERFORMER "Viktoria Mullova, Accademia Bizantina, Ottavio Dantone" INDEX 01 12:51:28 TRACK 04 AUDIO TITLE "J.S. Bach - Concerto for Harpsichord in E BWV 1053 (arr. for violin in D) - I. Allegro" PERFORMER "Viktoria Mullova, Accademia Bizantina, Ottavio Dantone" INDEX 01 15:26:60 TRACK 05 AUDIO TITLE "J.S. Bach - Concerto for Harpsichord in E BWV 1053 (arr. for violin in D) - II. Siciliano" PERFORMER "Viktoria Mullova, Accademia Bizantina, Ottavio Dantone" INDEX 01 23:48:69 TRACK 06 AUDIO TITLE "J.S. Bach - Concerto for Harpsichord in E BWV 1053 (arr. for violin in D) - III. Allegro" PERFORMER "Viktoria Mullova, Accademia Bizantina, Ottavio Dantone" INDEX 01 29:00:06 TRACK 07 AUDIO TITLE "J.S. Bach - Violin Concerto in A minor BWV 1041 - I. Allegro" PERFORMER "Viktoria Mullova, Accademia Bizantina, Ottavio Dantone" INDEX 01 35:06:59 TRACK 08 AUDIO TITLE "J.S. Bach - Violin Concerto in A minor BWV 1041 - II. Andante" PERFORMER "Viktoria Mullova, Accademia Bizantina, Ottavio Dantone" INDEX 01 38:41:27 TRACK 09 AUDIO TITLE "J.S. Bach - Violin Concerto in A minor BWV 1041 - III. Allegro assai" PERFORMER "Viktoria Mullova, Accademia Bizantina, Ottavio Dantone" INDEX 01 43:55:55 TRACK 10 AUDIO TITLE "J.S. Bach - Concerto for two harpsichords in C minor BWV 1060 (arr. for violin and harpsichord) - I. Allegro" PERFORMER "Viktoria Mullova, Accademia Bizantina, Ottavio Dantone" INDEX 01 47:25:29 TRACK 11 AUDIO TITLE "J.S. Bach - Concerto for two harpsichords in C minor BWV 1060 (arr. for violin and harpsichord) - II. Adagio" PERFORMER "Viktoria Mullova, Accademia Bizantina, Ottavio Dantone" INDEX 01 52:17:48 TRACK 12 AUDIO TITLE "J.S. Bach - Concerto for two harpsichords in C minor BWV 1060 (arr. for violin and harpsichord) - III. Allegro" PERFORMER "Viktoria Mullova, Accademia Bizantina, Ottavio Dantone" INDEX 01 57:01:65
[teatrix.ru].t10010.torrent 
Торрент: Зарегистрирован [ 2015-10-25 20:37 ] · 3CCC82DFF2C6145E1A17C7590288032C82B75B06

Скачать .torrent

Скачать

50 KB

Статус: проверено
Скачан: 0 раз
Размер: 314 MB
terms.php



Быстрый ответ

Имя:

      
Для отправки сообщений необходимо включить JavaScript
Показать сообщения:    

Текущее время: 18-Янв 02:33

Часовой пояс: UTC + 3


Вы можете начинать темы
Вы можете отвечать на сообщения
Вы не можете редактировать свои сообщения
Вы не можете удалять свои сообщения
Вы не можете голосовать в опросах
Вы не можете прикреплять файлы к сообщениям
Вы можете скачивать файлы