(Classical) Naxos 25th Anniversary. The Great Classics. Box #4 - Great Romantic Symphonies - 2012, FLAC (image+.cue) lossless


Статистика раздачи [Обновить пиров]
Размер:  3.19 GB   |    Зарегистрирован:  1 год 1 месяц   |    Скачан:  0 раз

Полного источника не было: Никогда

 
   
 
 
 

[Цитировать]

Naxos 25th Anniversary. The Great Classics. Box #4 - Great Romantic Symphonies
Жанр: Classical
Страна-производитель диска: Austria
Год издания диска: 2012
Издатель (лейбл): Naxos Records
Номер по каталогу: 8.501057
Аудиокодек: FLAC
Тип рипа: image+.cue
Битрейт аудио: lossless
Продолжительность: 12:05:21
Источник: скачано с
сайт-источник/ник/другое: lossless-galaxy.ru (ALLexxess)
Наличие сканов в содержимом раздачи: да
The word ‘symphony’ is used to describe an extended orchestral composition in Western classical music. By the eighteenth century the Italianate opera sinfonia—musical interludes between operas or concertos—had assumed the structure of three contrasting movements, and it is this form that is often considered as the direct forerunner of the orchestral symphony. With the rise of established professional orchestras, the symphony assumed a more prominent place in concert life between 1790 and 1820 until it eventually came to be regarded by many as the yardstick by which one would measure a composer’s achievement.
The nineteenth century brought various changes to the symphonic form. Although both inspired by Beethoven, Berlioz’s experiments with instrumental colour and orchestral size are a world away from the colossal symphonies of Brahms. Composers such as Mahler and Bruckner pushed the traditional symphonic landscapes to their limits, in sharp contrast to the uplifting Classically based symphonies of Mendelssohn and Schubert. The nationalistic flavours apparent in the programme symphonies of Schumann, Strauss and Dvořák exemplify the way in which the symphonic form flourished in the Romantic era, whilst the visceral impact of the Gallic panache is typified by the symphonies of Franck and Saint-Saëns.

Amazon / CD Description

The Great Classics series from Naxos is the perfect introduction to myriad genres of classical music. Comprising both complete and compiled selections from the greatest works in the repertoire, the boxes are bursting with wonderful pieces of music, both recognizable and unfamiliar. The boxes take the listener on a thrilling tour of some of the worlds most dramatic musical media, encompassing music from six centuries and featuring sensational performers. All boxes come with a fascinating booklet with detailed information on the genre itself, chronological placement of each work, and a comprehensive study of the music. A fitting celebration of 25 years of superb music from Naxos, the worlds favourite classical label.

-
BOX SET:

CD01 Schubert: Symphonies Nos. 8 & 9

Franz Schubert (1797–1828)Symphony No 8 in B minor 'Unfinished' D 759Symphony No 9 in C major 'Great' D 944
Исполнители:Slovak Philharmonic Orchestra / Conductor Michael HalaszBudapest Failoni Chamber Orchestra / Conductor Michael Halasz
Треклист:1. I. Allegro moderato 00:14:502. II. Andante con moto 00:11:133. I. Andante - Allegro ma non troppo 00:16:204. II. Andante con moto 00:14:225. III. Scherzo: Allegro vivace 00:13:246. IV. Finale: Allegro vivace 00:12:07

ЕАС Log

Exact Audio Copy V1.0 beta 3 from 29. August 2011
EAC extraction logfile from 11. June 2012, 12:04
Schubert Symphonies 8 & 9 / Great Romantic Symphonies CD1
Used drive : HL-DT-STDVDRAM GSA-H60N Adapter: 2 ID: 0
Read mode : Secure
Utilize accurate stream : Yes
Defeat audio cache : Yes
Make use of C2 pointers : No
Read offset correction : 667
Overread into Lead-In and Lead-Out : No
Fill up missing offset samples with silence : Yes
Delete leading and trailing silent blocks : No
Null samples used in CRC calculations : Yes
Used interface : Native Win32 interface for Win NT & 2000
Used output format : Internal WAV Routines
Sample format : 44.100 Hz; 16 Bit; Stereo
TOC of the extracted CD
Track | Start | Length | Start sector | End sector
---------------------------------------------------------
1 | 0:00.00 | 14:51.34 | 0 | 66858
2 | 14:51.34 | 11:12.09 | 66859 | 117267
3 | 26:03.43 | 13:24.21 | 117268 | 177588
4 | 39:27.64 | 14:21.45 | 177589 | 242208
5 | 53:49.34 | 10:25.25 | 242209 | 289108
6 | 64:14.59 | 12:11.16 | 289109 | 343949
Range status and errors
Selected range
Filename C:\Documents and Settings\Admin\Рабочий стол\Lossless Galaxy Rip by ALLexxess\Naxos Records 25 Years\2012 Great Romantic Symphonies (10CD Box Set Naxos Records)\CD01 Schubert Symphonies 8 & 9\Romantic Symphonies CD1 (Schubert Symphonies 8 & 9)
Peak level 95.8 %
Extraction speed 6.4 X
Range quality 100.0 %
Test CRC 0CE3ECD2
Copy CRC 0CE3ECD2
Copy OK
No errors occurred
AccurateRip summary
Track 1 not present in database
Track 2 not present in database
Track 3 not present in database
Track 4 not present in database
Track 5 not present in database
Track 6 not present in database
None of the tracks are present in the AccurateRip database
End of status report
==== Log checksum 98C770A32FC91663A84FCF811452118E491EA80D3A73F62DA9AFBE29C2836838 ====

CD02 Brahms: Symphony No. 1 / Schumann: Symphony No. 1

Johannes Brahms (1833-1897)Symphony No 1 in C minor, Op 68Robert Schumann (1810-1856)Symphony No 1 in B flat major, Op 38 'Spring'
Исполнители:Belgian Radio and Television Philharmonic Orchestra / Conductor Alexander RahbariPolish National Radio Symphony Orchestra / Conductor Antoni Wit
Треклист:1. I. Un poco sostenuto - Allegro 00:13:172. II. Andante sostenuto 00:10:093. III. Un poco allegretto e grazioso 00:05:044. IV. Adagio - Allegro non troppo ma con brio 00:18:305. I. Andante un poco maestro - Allegro molto vivace 00:11:496. II. Larghetto 00:06:567. III. Scherzo: Molto vivace 00:05:338. IV. Allegro animato e grazioso 00:08:21

ЕАС Log

Exact Audio Copy V1.0 beta 3 from 29. August 2011
EAC extraction logfile from 11. June 2012, 12:57
Brahms Symphony No. 1 / Schumann Symphony No. 1 'Spring' / Great Romantic Symphonies CD2
Used drive : HL-DT-STDVDRAM GSA-H60N Adapter: 2 ID: 0
Read mode : Secure
Utilize accurate stream : Yes
Defeat audio cache : Yes
Make use of C2 pointers : No
Read offset correction : 667
Overread into Lead-In and Lead-Out : No
Fill up missing offset samples with silence : Yes
Delete leading and trailing silent blocks : No
Null samples used in CRC calculations : Yes
Used interface : Native Win32 interface for Win NT & 2000
Used output format : Internal WAV Routines
Sample format : 44.100 Hz; 16 Bit; Stereo
TOC of the extracted CD
Track | Start | Length | Start sector | End sector
---------------------------------------------------------
1 | 0:00.00 | 13:18.36 | 0 | 59885
2 | 13:18.36 | 10:08.37 | 59886 | 105522
3 | 23:26.73 | 5:04.02 | 105523 | 128324
4 | 28:31.00 | 18:26.42 | 128325 | 211316
5 | 46:57.42 | 11:49.36 | 211317 | 264527
6 | 58:47.03 | 6:56.17 | 264528 | 295744
7 | 65:43.20 | 5:32.65 | 295745 | 320709
8 | 71:16.10 | 8:11.65 | 320710 | 357599
Range status and errors
Selected range
Filename C:\Documents and Settings\Admin\Рабочий стол\Lossless Galaxy Rip by ALLexxess\Naxos Records 25 Years\2012 Great Romantic Symphonies (10CD Box Set Naxos Records)\CD02 Brahms & Schumann Symphonies 1\Romantic Symphonies CD2 (Brahms & Schumann).wa
Peak level 99.8 %
Extraction speed 6.2 X
Range quality 100.0 %
Test CRC 904B0AF6
Copy CRC 904B0AF6
Copy OK
No errors occurred
AccurateRip summary
Track 1 not present in database
Track 2 not present in database
Track 3 not present in database
Track 4 not present in database
Track 5 not present in database
Track 6 not present in database
Track 7 not present in database
Track 8 not present in database
None of the tracks are present in the AccurateRip database
End of status report
==== Log checksum D0E4F6D0AF7CA85DCA4A3C1BD62AE538E2DD035ED9C62226F3F67ED60F9267A4 ====

CD03 Brahms: Symphony No. 4 / Schumann: Symphony No. 4

Johannes Brahms (1833-1897)Symphony No 4 in E minor, Op 98Robert Schumann (1810-1856)Symphony No 4 in D minor, Op 120
Исполнители:Belgian Radio and Television Philharmonic Orchestra / Conductor Alexander RahbariPolish National Radio Symphony Orchestra / Conductor Antoni Wit
Треклист:1. I. Allegro non troppo 00:14:312. II. Andante Moderato 00:12:273. III. Allegro Giocoso - Poco meno Presto 00:06:304. IV. Allegro Energico e Passionato - Piu Allegro 00:12:575. I. Ziemlich langsam - Lebhaft 00:11:126. II. Romanze: Ziemlich langsam 00:04:527. III. Scherzo: Lebhaft 00:05:558. IV. Langsam - Lebhaft 00:08:38

ЕАС Log

Exact Audio Copy V1.0 beta 3 from 29. August 2011
EAC extraction logfile from 11. June 2012, 14:09
Brahms Symphony No. 4 / Schumann Symphony No. 4 / Great Romantic Symphonies CD3
Used drive : HL-DT-STDVDRAM GSA-H60N Adapter: 2 ID: 0
Read mode : Secure
Utilize accurate stream : Yes
Defeat audio cache : Yes
Make use of C2 pointers : No
Read offset correction : 667
Overread into Lead-In and Lead-Out : No
Fill up missing offset samples with silence : Yes
Delete leading and trailing silent blocks : No
Null samples used in CRC calculations : Yes
Used interface : Native Win32 interface for Win NT & 2000
Used output format : Internal WAV Routines
Sample format : 44.100 Hz; 16 Bit; Stereo
TOC of the extracted CD
Track | Start | Length | Start sector | End sector
---------------------------------------------------------
1 | 0:00.00 | 14:32.09 | 0 | 65408
2 | 14:32.09 | 12:27.02 | 65409 | 121435
3 | 26:59.11 | 6:29.74 | 121436 | 150684
4 | 33:29.10 | 12:57.39 | 150685 | 208998
5 | 46:26.49 | 11:12.10 | 208999 | 259408
6 | 57:38.59 | 4:52.29 | 259409 | 281337
7 | 62:31.13 | 5:55.19 | 281338 | 307981
8 | 68:26.32 | 8:41.43 | 307982 | 347099
Range status and errors
Selected range
Filename C:\Documents and Settings\Admin\Рабочий стол\Lossless Galaxy Rip by ALLexxess\Naxos Records 25 Years\2012 Great Romantic Symphonies (10CD Box Set Naxos Records)\CD03 Brahms & Schumann Symphonies 4\Romantic Symphonies CD3 (Brahms & Schumann).wa
Peak level 100.0 %
Extraction speed 6.1 X
Range quality 99.9 %
Test CRC 1B9C15DB
Copy CRC 1B9C15DB
Copy OK
No errors occurred
AccurateRip summary
Track 1 not present in database
Track 2 not present in database
Track 3 not present in database
Track 4 not present in database
Track 5 not present in database
Track 6 not present in database
Track 7 not present in database
Track 8 not present in database
None of the tracks are present in the AccurateRip database
End of status report
==== Log checksum 3F8A77256AC8B7726B3C20DA70425EF7BF1A5BAD435DFCC436C5DBB1303C5B66 ====

CD04 Mendelssohn: Symphonies Nos. 3 & 4

Felix Mendelssohn (1809-1847)Symphony No 3 in A minor, Op 56 'Scottish' • Symphony No 4 in A major, Op 90 'Italian'
Исполнители:Ireland National Symphony Orchestra / Conductor Reinhard Seifried
Треклист:1. I. Andante con moto - Allegro un poco agitato - Andante come prima 00:13:002. II. Vivace non troppo 00:04:213. III. Adagio 00:10:154. IV. Allegro vivacissimo - Allegro maestoso assai 00:09:545. I. Allegro vivace 00:10:516. II. Andante con moto 00:06:357. III. Con moto moderato 00:07:088. IV. Saltarello: Presto 00:05:36

ЕАС Log

Exact Audio Copy V1.0 beta 3 from 29. August 2011
EAC extraction logfile from 11. June 2012, 20:37
Mendelssohn: Symphony No. 3 Scottish' / Symphony No. 4 'Italian' / Great Romantic Symphonies CD4
Used drive : HL-DT-STDVDRAM GSA-H60N Adapter: 2 ID: 0
Read mode : Secure
Utilize accurate stream : Yes
Defeat audio cache : Yes
Make use of C2 pointers : No
Read offset correction : 667
Overread into Lead-In and Lead-Out : No
Fill up missing offset samples with silence : Yes
Delete leading and trailing silent blocks : No
Null samples used in CRC calculations : Yes
Used interface : Native Win32 interface for Win NT & 2000
Used output format : Internal WAV Routines
Sample format : 44.100 Hz; 16 Bit; Stereo
TOC of the extracted CD
Track | Start | Length | Start sector | End sector
---------------------------------------------------------
1 | 0:00.00 | 13:00.30 | 0 | 58529
2 | 13:00.30 | 4:21.00 | 58530 | 78104
3 | 17:21.30 | 10:15.02 | 78105 | 124231
4 | 27:36.32 | 9:54.25 | 124232 | 168806
5 | 37:30.57 | 10:50.18 | 168807 | 217574
6 | 48:21.00 | 6:35.02 | 217575 | 247201
7 | 54:56.02 | 7:08.25 | 247202 | 279326
8 | 62:04.27 | 5:36.33 | 279327 | 304559
Range status and errors
Selected range
Filename C:\Documents and Settings\Admin\Рабочий стол\Lossless Galaxy Rip by ALLexxess\Naxos Records 25 Years\2012 Great Romantic Symphonies (10CD Box Set Naxos Records)\CD04 Mendelssohn Symphonies 3 & 4\Romantic Symphonies CD4 (Mendelssohn).wav
Peak level 56.5 %
Extraction speed 5.2 X
Range quality 100.0 %
Test CRC 0C63CA47
Copy CRC 0C63CA47
Copy OK
No errors occurred
AccurateRip summary
Track 1 cannot be verified as accurate (confidence 3) [E1DAEB1A], AccurateRip returned [21694C0E] (AR v2)
Track 2 cannot be verified as accurate (confidence 3) [756B7273], AccurateRip returned [2E007766] (AR v2)
Track 3 cannot be verified as accurate (confidence 3) [6E5C2A8D], AccurateRip returned [9D7BA2B3] (AR v2)
Track 4 cannot be verified as accurate (confidence 3) [96456622], AccurateRip returned [201255D9] (AR v2)
Track 5 cannot be verified as accurate (confidence 3) [5768DC50], AccurateRip returned [32412534] (AR v2)
Track 6 cannot be verified as accurate (confidence 3) [2ED58EB4], AccurateRip returned [55AC0677] (AR v2)
Track 7 cannot be verified as accurate (confidence 3) [576CF096], AccurateRip returned [00E45800] (AR v2)
Track 8 cannot be verified as accurate (confidence 3) [1F249445], AccurateRip returned [FA1F4365] (AR v2)
No tracks could be verified as accurate
You may have a different pressing from the one(s) in the database
End of status report
==== Log checksum 3969783DF2D4B165BFEF1C1D7A4E022250054AC37C639C812A8F92B28D68F71D ====

CD05 Berlioz: Symphonie Fantastique / Benvenuto Cellini / Roman Carnival

Hector Berlioz (1803-1869)Symphonie Fantastique, Op 14 • Overtures: Benvenuto Celini & Roman Carnival
Исполнители:San Diego Symphony Orchestra / Conductor Yoav Talmi
Треклист:1. I. Reveries: Largo - Passions: Allegro agitato e appassionato assai 00:13:142. II. Un Bal (Valse): Allegro non troppo 00:06:153. III. Scene aux Champs: Adagio 00:15:344. IV. Marche au Supplice: Allegretto non troppo 00:04:475. V. Songe d'une Nuit du Sabbat: Larghetto - Allegro 00:10:046. Benvenuto Cellini, Op. 23 00:10:467. Le carnaval romain, Op. 9 00:09:02

ЕАС Log

Exact Audio Copy V1.0 beta 3 from 29. August 2011
EAC extraction logfile from 11. June 2012, 22:28
Berlioz: Symphonie Fantastique / Benvenuto Cellini Overture / Le Carnaval Romain Overture / Great Romantic Symphonies CD5
Used drive : HL-DT-STDVDRAM GSA-H60N Adapter: 2 ID: 0
Read mode : Secure
Utilize accurate stream : Yes
Defeat audio cache : Yes
Make use of C2 pointers : No
Read offset correction : 667
Overread into Lead-In and Lead-Out : No
Fill up missing offset samples with silence : Yes
Delete leading and trailing silent blocks : No
Null samples used in CRC calculations : Yes
Used interface : Native Win32 interface for Win NT & 2000
Used output format : Internal WAV Routines
Sample format : 44.100 Hz; 16 Bit; Stereo
TOC of the extracted CD
Track | Start | Length | Start sector | End sector
---------------------------------------------------------
1 | 0:00.00 | 13:13.46 | 0 | 59520
2 | 13:13.46 | 6:15.30 | 59521 | 87675
3 | 19:29.01 | 15:34.23 | 87676 | 157748
4 | 35:03.24 | 4:46.50 | 157749 | 179248
5 | 39:49.74 | 10:04.09 | 179249 | 224557
6 | 49:54.08 | 10:46.37 | 224558 | 273044
7 | 60:40.45 | 9:02.09 | 273045 | 313703
Range status and errors
Selected range
Filename C:\Documents and Settings\Admin\Рабочий стол\Lossless Galaxy Rip by ALLexxess\Naxos Records 25 Years\2012 Great Romantic Symphonies (10CD Box Set Naxos Records)\CD05 Berlioz (Symphonie & Overtures)\Romantic Symphonies CD5 (Berlioz).wav
Peak level 99.0 %
Extraction speed 6.2 X
Range quality 100.0 %
Test CRC 6FB0C94C
Copy CRC 6FB0C94C
Copy OK
No errors occurred
AccurateRip summary
Track 1 not present in database
Track 2 not present in database
Track 3 not present in database
Track 4 not present in database
Track 5 not present in database
Track 6 not present in database
Track 7 not present in database
None of the tracks are present in the AccurateRip database
End of status report
==== Log checksum FEFB5256AF7E8CC1A086193383CB853613FAC9323200199769DA12D30D6C2FFA ====

CD06 Mahler Symphony No. 1

Gustav Mahler (1860-1911)Symphony No 1 in D major 'Titan'
Исполнители:Polish National Radio Symphony Orchestra / Conductor Michael Halasz
Треклист:1. I. Langsam, schleppend 00:16:192. II. Kraftig bewegt, doch nicht zu schnell 00:07:323. III. Feierlich und gemessen, ohne zu schleppen 00:10:024. IV. Sturmisch bewegt 00:19:305. Blumine (original second movement) 00:07:16

ЕАС Log

Exact Audio Copy V1.0 beta 3 from 29. August 2011
EAC extraction logfile from 12. June 2012, 9:22
Mahler: Symphony No. 1, 'Titan' / Great Romantic Symphonies CD6
Used drive : HL-DT-STDVDRAM GSA-H60N Adapter: 2 ID: 0
Read mode : Secure
Utilize accurate stream : Yes
Defeat audio cache : Yes
Make use of C2 pointers : No
Read offset correction : 667
Overread into Lead-In and Lead-Out : No
Fill up missing offset samples with silence : Yes
Delete leading and trailing silent blocks : No
Null samples used in CRC calculations : Yes
Used interface : Native Win32 interface for Win NT & 2000
Used output format : Internal WAV Routines
Sample format : 44.100 Hz; 16 Bit; Stereo
TOC of the extracted CD
Track | Start | Length | Start sector | End sector
---------------------------------------------------------
1 | 0:00.00 | 16:19.35 | 0 | 73459
2 | 16:19.35 | 7:32.00 | 73460 | 107359
3 | 23:51.35 | 10:02.32 | 107360 | 152541
4 | 33:53.67 | 19:29.33 | 152542 | 240249
5 | 53:23.25 | 7:15.55 | 240250 | 272929
Range status and errors
Selected range
Filename C:\Documents and Settings\Admin\Рабочий стол\Lossless Galaxy Rip by ALLexxess\Naxos Records 25 Years\2012 Great Romantic Symphonies (10CD Box Set Naxos Records)\CD06 Mahler Symphony 1\Romantic Symphonies CD6 (Mahler Symphony 1).wav
Peak level 97.7 %
Extraction speed 6.2 X
Range quality 99.9 %
Test CRC 8BE7EBD4
Copy CRC 8BE7EBD4
Copy OK
No errors occurred
AccurateRip summary
Track 1 cannot be verified as accurate (confidence 4) [1A6A6E73], AccurateRip returned [D469575B] (AR v2)
Track 2 cannot be verified as accurate (confidence 4) [B2B35356], AccurateRip returned [3895FFA1] (AR v2)
Track 3 cannot be verified as accurate (confidence 4) [4D37265A], AccurateRip returned [3DCBB3A1] (AR v2)
Track 4 cannot be verified as accurate (confidence 4) [0C145591], AccurateRip returned [C45FED48] (AR v2)
Track 5 cannot be verified as accurate (confidence 3) [E42BC918], AccurateRip returned [47B97572] (AR v2)
No tracks could be verified as accurate
You may have a different pressing from the one(s) in the database
End of status report
==== Log checksum 91D7B3FF736593FBB20E1DE4B5BC2F3FA05732CCCE0D8B2A7E11F3518EF7D02E ====

CD07 Bruckner: Symphony No. 4

Anton Bruckner (1824-1896)Symphony No 4 in E flat major 'Romantic'
Исполнители:Royal Scottish National Orchestra / Conductor Georg Tintner
Треклист:1. I. Bewegt, nicht zu schnell 00:21:332. II. Andante quasi allegretto 00:16:193. III. Scherzo: Bewegt 00:12:054. IV. Finale: Bewegt, doch nicht zu schnell 00:23:10

ЕАС Log

Exact Audio Copy V1.0 beta 3 from 29. August 2011
EAC extraction logfile from 12. June 2012, 10:11
Bruckner: Symphony No. 4, 'Romantic' (1881 version, ed. R. Haas) / Great Romantic Symphonies CD7
Used drive : HL-DT-STDVDRAM GSA-H60N Adapter: 2 ID: 0
Read mode : Secure
Utilize accurate stream : Yes
Defeat audio cache : Yes
Make use of C2 pointers : No
Read offset correction : 667
Overread into Lead-In and Lead-Out : No
Fill up missing offset samples with silence : Yes
Delete leading and trailing silent blocks : No
Null samples used in CRC calculations : Yes
Used interface : Native Win32 interface for Win NT & 2000
Used output format : Internal WAV Routines
Sample format : 44.100 Hz; 16 Bit; Stereo
TOC of the extracted CD
Track | Start | Length | Start sector | End sector
---------------------------------------------------------
1 | 0:00.00 | 21:33.20 | 0 | 96994
2 | 21:33.20 | 16:19.42 | 96995 | 170461
3 | 37:52.62 | 12:04.60 | 170462 | 224821
4 | 49:57.47 | 23:09.40 | 224822 | 329036
Range status and errors
Selected range
Filename C:\Documents and Settings\Admin\Рабочий стол\Lossless Galaxy Rip by ALLexxess\Naxos Records 25 Years\2012 Great Romantic Symphonies (10CD Box Set Naxos Records)\CD07 Bruckner Symphony 4\Romantic Symphonies CD7 (Bruckner Symphony 4).wav
Peak level 90.6 %
Extraction speed 6.1 X
Range quality 99.9 %
Test CRC 7541D2BF
Copy CRC 7541D2BF
Copy OK
No errors occurred
AccurateRip summary
Track 1 cannot be verified as accurate (confidence 13) [929E383F], AccurateRip returned [DA8181EC] (AR v2)
Track 2 cannot be verified as accurate (confidence 13) [58EB059A], AccurateRip returned [5F15D7E0] (AR v2)
Track 3 cannot be verified as accurate (confidence 13) [95DFE889], AccurateRip returned [B26A3236] (AR v2)
Track 4 cannot be verified as accurate (confidence 12) [A3E762B3], AccurateRip returned [3DDDF24C] (AR v2)
No tracks could be verified as accurate
You may have a different pressing from the one(s) in the database
End of status report
==== Log checksum 469F2F156A6E6D67D894DB0C26E366540DDA750291945B6C2FEBAEB94DC8E158 ====

CD08 Saint-Saëns: Symphony No. 3 / Franck: Symphony in D Minor

Camille Saint-Saëns (1835-1921)Symphony No 3 in C minor, Op 78 'Organ Symphony'César Franck (1822-1890)Symphony in D minor
Исполнители:Imrich Szabo - organ • Slovak Radio Symphony Orchestra / Conductor Stephen GunzenhauserArnhem Philharmonic Orchestra / Conductor Roberto Benzi
Треклист:1. I. Adagio - Allegro moderato - 00:10:232. I. Poco adagio 00:11:063. II. Allegro moderato - Presto - Allegro moderato - Presto - Allegro moderato - 00:07:504. II. Maestoso - Allegro - Piu allegro - Molto allegro - Pesante 00:07:575. I. Lento: Allegro non troppo 00:18:426. II. Allegretto 00:11:177. III. Finale: Allegro non troppo 00:10:46

ЕАС Log

Exact Audio Copy V1.0 beta 3 from 29. August 2011
EAC extraction logfile from 12. June 2012, 13:14
Saint-Saens: Symphony No. 3, 'Organ' / Franck: Symphony in D minor / Great Romantic Symphonies CD8
Used drive : HL-DT-STDVDRAM GSA-H60N Adapter: 2 ID: 0
Read mode : Secure
Utilize accurate stream : Yes
Defeat audio cache : Yes
Make use of C2 pointers : No
Read offset correction : 667
Overread into Lead-In and Lead-Out : No
Fill up missing offset samples with silence : Yes
Delete leading and trailing silent blocks : No
Null samples used in CRC calculations : Yes
Used interface : Native Win32 interface for Win NT & 2000
Used output format : Internal WAV Routines
Sample format : 44.100 Hz; 16 Bit; Stereo
TOC of the extracted CD
Track | Start | Length | Start sector | End sector
---------------------------------------------------------
1 | 0:00.00 | 10:23.04 | 0 | 46728
2 | 10:23.04 | 11:05.70 | 46729 | 96673
3 | 21:28.74 | 7:49.74 | 96674 | 131922
4 | 29:18.73 | 7:57.06 | 131923 | 167703
5 | 37:16.04 | 18:42.22 | 167704 | 251875
6 | 55:58.26 | 11:16.61 | 251876 | 302636
7 | 67:15.12 | 10:45.63 | 302637 | 351074
Range status and errors
Selected range
Filename C:\Documents and Settings\Admin\Рабочий стол\Lossless Galaxy Rip by ALLexxess\Naxos Records 25 Years\2012 Great Romantic Symphonies (10CD Box Set Naxos Records)\CD08 Saint-Saens & Franck\Romantic Symphonies CD8 (Saint-Saens & Franck).wav
Peak level 100.0 %
Extraction speed 5.2 X
Range quality 100.0 %
Test CRC 53AF5EEB
Copy CRC 53AF5EEB
Copy OK
No errors occurred
AccurateRip summary
Track 1 not present in database
Track 2 not present in database
Track 3 not present in database
Track 4 not present in database
Track 5 not present in database
Track 6 not present in database
Track 7 not present in database
None of the tracks are present in the AccurateRip database
End of status report
==== Log checksum 32D71D3C46AC135BECD68724C1107AA87EFC0917D6454181DBBA88909C0ACE71 ====

D09 Dvořák: Symphony No. 9 / Symphonic Variations

Antonín Dvořák (1841-1904)Symphony No 9 in E minor, Op 95 'From the New World' • Symphonic Variations, Op 78
Исполнители:Slovak Philharmonic Orchestra / Conductor Stephen Gunzenhauser
Треклист:1. I. Adagio 00:11:402. II. Largo 00:12:013. III. Molto vivace 00:08:084. IV. Allegro con fuoco 00:11:115. Symphonic Variations, Op. 78, B. 70 00:22:06

ЕАС Log

Exact Audio Copy V1.0 beta 3 from 29. August 2011
EAC extraction logfile from 12. June 2012, 19:23
Dvorak: Symphony No. 9, 'From The New World' / Symphonic Variations / Great Romantic Symphonies CD9
Used drive : HL-DT-STDVDRAM GSA-H60N Adapter: 2 ID: 0
Read mode : Secure
Utilize accurate stream : Yes
Defeat audio cache : Yes
Make use of C2 pointers : No
Read offset correction : 667
Overread into Lead-In and Lead-Out : No
Fill up missing offset samples with silence : Yes
Delete leading and trailing silent blocks : No
Null samples used in CRC calculations : Yes
Used interface : Native Win32 interface for Win NT & 2000
Used output format : Internal WAV Routines
Sample format : 44.100 Hz; 16 Bit; Stereo
TOC of the extracted CD
Track | Start | Length | Start sector | End sector
---------------------------------------------------------
1 | 0:00.00 | 11:40.00 | 0 | 52499
2 | 11:40.00 | 12:01.00 | 52500 | 106574
3 | 23:41.00 | 8:08.00 | 106575 | 143174
4 | 31:49.00 | 11:11.00 | 143175 | 193499
5 | 43:00.00 | 22:06.00 | 193500 | 292949
Range status and errors
Selected range
Filename C:\Documents and Settings\Admin\Рабочий стол\Lossless Galaxy Rip by ALLexxess\Naxos Records 25 Years\2012 Great Romantic Symphonies (10CD Box Set Naxos Records)\CD09 Dvorak Symphony 9 & Variations\Romantic Symphonies CD9 (Dvorak).wav
Peak level 92.5 %
Extraction speed 6.0 X
Range quality 99.9 %
Test CRC AB59C673
Copy CRC AB59C673
Copy OK
No errors occurred
AccurateRip summary
Track 1 cannot be verified as accurate (confidence 8) [77828744], AccurateRip returned [82D67D81] (AR v2)
Track 2 cannot be verified as accurate (confidence 8) [7B84A101], AccurateRip returned [8E38C3C4] (AR v2)
Track 3 cannot be verified as accurate (confidence 8) [B1919409], AccurateRip returned [62D35195] (AR v2)
Track 4 cannot be verified as accurate (confidence 8) [135F076E], AccurateRip returned [21094C9F] (AR v2)
Track 5 cannot be verified as accurate (confidence 7) [262013CB], AccurateRip returned [5BAADB39] (AR v2)
No tracks could be verified as accurate
You may have a different pressing from the one(s) in the database
End of status report
==== Log checksum 80401BEFA8C4852FD6DD2ABB0BC643010ECA6CCDD132FB865C56E67D1F0E8A78 ====

CD10 Strauss: Alpine Symphony / Don Juan

Richard Strauss (1864-1949)Eine Alpensinfonie (An Alpine Symphony), Op. 64, TrV 233Don Juan, Op. 20, TrV 156
Исполнители:Weimar Staatskapelle / Conductor Antoni WitSlovak Philharmonic Orchestra / Conductor Zdenek Kosler
Треклист:1. Nacht (Night) - 00:03:572. Sonnenaufgang (Sunrise) - 00:01:283. Der Anstieg (The Ascent) - 00:02:174. Eintritt in den Wald (Entry into the Wood) - 00:06:085. Wanderung neben dem Bache (Wandering by the Stream) - 00:00:486. Am Wasserfall (At the Waterfall) - 00:00:157. Erscheinung (Apparition) - 00:00:468. Auf blumigen Wiesen (On Flowering Meadows) - 00:00:569. Auf der Alm (On the Alpine Pasture) - 00:02:3710. Durch Dickicht und Gestrupp auf Irrwegen (Straying through Thicket and Undergrowth) - 00:01:3111. Auf dem Gletscher (On the Glacier) - 00:01:0412. Gefahrvolle Augenblicke (Dangerous Moments) - 00:01:2913. Auf dem Gipfel (On the Summit) - 00:05:1914. Vision - 00:03:5815. Nebel steigen auf (Mists rise) - 00:00:2016. Die Sonne verdustert sich allmahlich (The Sun gradually darkens) - 00:00:5617. Elegie - 00:02:1218. Stille vor der Sturm (Calm before the Storm) - 00:03:0719. Gewitter und Sturm, Abstieg (Thunder and Storm, Descent) - 00:03:5420. Sonnenuntergang (Sunset) - 00:02:1521. Ausklang (Final Sounds) - 00:06:3522. Nacht (Night) 00:02:2323. Don Juan, Op. 20, TrV 156 00:17:54

ЕАС Log

Exact Audio Copy V1.0 beta 3 from 29. August 2011
EAC extraction logfile from 12. June 2012, 20:34
R.Strauss: An Alpine Symphony / Don Juan / Great Romantic Symphonies CD10
Used drive : HL-DT-STDVDRAM GSA-H60N Adapter: 2 ID: 0
Read mode : Secure
Utilize accurate stream : Yes
Defeat audio cache : Yes
Make use of C2 pointers : No
Read offset correction : 667
Overread into Lead-In and Lead-Out : No
Fill up missing offset samples with silence : Yes
Delete leading and trailing silent blocks : No
Null samples used in CRC calculations : Yes
Used interface : Native Win32 interface for Win NT & 2000
Used output format : Internal WAV Routines
Sample format : 44.100 Hz; 16 Bit; Stereo
TOC of the extracted CD
Track | Start | Length | Start sector | End sector
---------------------------------------------------------
1 | 0:00.00 | 3:56.45 | 0 | 17744
2 | 3:56.45 | 1:28.06 | 17745 | 24350
3 | 5:24.51 | 2:16.53 | 24351 | 34603
4 | 7:41.29 | 6:07.70 | 34604 | 62198
5 | 13:49.24 | 0:48.32 | 62199 | 65830
6 | 14:37.56 | 0:14.67 | 65831 | 66947
7 | 14:52.48 | 0:45.57 | 66948 | 70379
8 | 15:38.30 | 0:56.05 | 70380 | 74584
9 | 16:34.35 | 2:36.66 | 74585 | 86350
10 | 19:11.26 | 1:31.36 | 86351 | 93211
11 | 20:42.62 | 1:04.02 | 93212 | 98013
12 | 21:46.64 | 1:28.71 | 98014 | 104684
13 | 23:15.60 | 5:19.33 | 104685 | 128642
14 | 28:35.18 | 3:58.34 | 128643 | 146526
15 | 32:33.52 | 0:20.36 | 146527 | 148062
16 | 32:54.13 | 0:56.04 | 148063 | 152266
17 | 33:50.17 | 2:11.60 | 152267 | 162151
18 | 36:02.02 | 3:07.26 | 162152 | 176202
19 | 39:09.28 | 3:54.17 | 176203 | 193769
20 | 43:03.45 | 2:14.66 | 193770 | 203885
21 | 45:18.36 | 6:34.73 | 203886 | 233508
22 | 51:53.34 | 2:23.04 | 233509 | 244237
23 | 54:16.38 | 17:54.37 | 244238 | 324824
Range status and errors
Selected range
Filename C:\Documents and Settings\Admin\Рабочий стол\Lossless Galaxy Rip by ALLexxess\Naxos Records 25 Years\2012 Great Romantic Symphonies (10CD Box Set Naxos Records)\CD10 Strauss Alpine & Don Juan\Romantic Symphonies CD10 (R.Strauss).wav
Peak level 99.2 %
Extraction speed 5.8 X
Range quality 99.9 %
Test CRC CBF822F6
Copy CRC CBF822F6
Copy OK
No errors occurred
AccurateRip summary
Track 1 not present in database
Track 2 not present in database
Track 3 not present in database
Track 4 not present in database
Track 5 not present in database
Track 6 not present in database
Track 7 not present in database
Track 8 not present in database
Track 9 not present in database
Track 10 not present in database
Track 11 not present in database
Track 12 not present in database
Track 13 not present in database
Track 14 not present in database
Track 15 not present in database
Track 16 not present in database
Track 17 not present in database
Track 18 not present in database
Track 19 not present in database
Track 20 not present in database
Track 21 not present in database
Track 22 not present in database
Track 23 not present in database
None of the tracks are present in the AccurateRip database
End of status report
==== Log checksum 2C89F755AADA65FCE8EF1E59DFEA62A2AEFC2E6BDD0B600106803848DC4F154B ====

-

Доп.информацияЛог проверки качества

для каждого диска в папке Technical

Скриншот спектра частот

для каждого диска в папке Technical
Ссылки на другие раздачи данного издания
[teatrix.ru].t10011.torrent 
Торрент: Зарегистрирован [ 2015-10-25 20:37 ] · 778B70480496FA7BD09A291F6B746EFB165988A7

Скачать .torrent

Скачать

280 KB

Статус: проверено
Скачан: 0 раз
Размер: 3.19 GB
terms.php



Быстрый ответ

Имя:

      
Для отправки сообщений необходимо включить JavaScript
Показать сообщения:    

Текущее время: 09-Дек 08:54

Часовой пояс: UTC + 3


Вы можете начинать темы
Вы можете отвечать на сообщения
Вы не можете редактировать свои сообщения
Вы не можете удалять свои сообщения
Вы не можете голосовать в опросах
Вы не можете прикреплять файлы к сообщениям
Вы можете скачивать файлы