(Classical) Naxos 25th Anniversary. The Great Classics. Box #5 - Great Violin Concertos - 2012, FLAC (image+.cue) lossless


Статистика раздачи [Обновить пиров]
Размер:  3.42 GB   |    Зарегистрирован:  1 год 1 месяц   |    Скачан:  1 раз

Полного источника не было: 10 дней

 
   
 
 
 

[Цитировать]

Naxos 25th Anniversary. The Great Classics. Box #5 - Great Violin Concertos
Жанр: Classical
Страна-производитель диска: Austria
Год издания диска: 2012
Издатель (лейбл): Naxos Records
Номер по каталогу: 8.501058
Аудиокодек: FLAC
Тип рипа: image+.cue
Битрейт аудио: lossless
Продолжительность: 11:26:50
Источник: скачано с
сайт-источник/ник/другое: lossless-galaxy.ru (ALLexxess)
Наличие сканов в содержимом раздачи: да
The essence of a concerto is the contrast and combination of a solo instrument with a larger instrumental ensemble. Having developed out of the Baroque concept of concerto grosso, the concerto genre was fully established in the eighteenth century, and many works dating from this period are still a key part of the repertoire today. The opportunity for virtuosic display from the soloist has resulted in the concerto becoming a vital musical force on the concert platform.
The violin concerto owes a great deal of its development to the technical achievement of performers, and to this day many works are renowned for their fierce technical demands. Indeed, many composers who have written for the instrument were superlative players themselves—Wieniawski and Paganini among them. The fascinating history and capabilities of the instrument can be traced through the compositions contained herein; from the gossamer threads of Vivaldi to the exhilarating fireworks of Prokofiev, via the lilting swagger of Lalo and Saint-Saens and nationalistic panache of Sibelius and Glazunov.

Amazon / CD Description

The Great Classics series from Naxos is the perfect introduction to myriad genres of classical music. Comprising both complete and compiled selections from the greatest works in the repertoire, the boxes are bursting with wonderful pieces of music, both recognizable and unfamiliar. The boxes take the listener on a thrilling tour of some of the worlds most dramatic musical media, encompassing music from six centuries and featuring sensational performers. All boxes come with a fascinating booklet with detailed information on the genre itself, chronological placement of each work, and a comprehensive study of the music. A fitting celebration of 25 years of superb music from Naxos, the worlds favourite classical label.

-
BOX SET:

CD01 Vivaldi: Four Seasons / J. S. Bach: Violin Concertos in A Minor & E Major

Antonio Vivaldi (1678-1741)The Four SeasonsViolin Concerto in E major, Op 8, No 1, RV 269, 'La primavera' (Spring)Violin Concerto in G minor, Op 8, No 2, RV 315, 'L'estate' (Summer)Violin Concerto in F major, Op 8, No 3, RV 293, 'L'autunno' (Autumn)Violin Concerto in F minor, Op 8, No 4, RV 297, 'L'inverno' (Winter)Johann Sebastian Bach (1685-1750)Violin Concerto in A minor, BWV 1041 • Violin Concerto in E major, BWV 1042
Исполнители:Takako Nishizaki - violin • Capella Istropolitana / Conductor Stephen GunzenhauserTakako Nishizaki - violin • Capella Istropolitana / Conductor Oliver Dohnanyi
Треклист:1. I. Allegro 00:03:292. II. Largo e pianissimo sempre 00:02:363. III. Danza Pastorale (Allegro) 00:04:154. I. Allegro non molto 00:05:205. II. Adagio - Presto 00:02:336. III. Presto 00:03:017. I. Allegro 00:04:448. II. Adagio molto 00:02:459. III. Allegro 00:03:1310. I. Allegro non molto 00:03:2511. II. Largo 00:02:2012. III. Allegro 00:03:0613. I. Allegro 00:03:5214. II. Andante 00:06:5515. III. Allegro assai 00:03:4516. I. Allegro 00:08:1517. II. Adagio 00:07:2318. III. Allegro assai 00:2:59

ЕАС Log

Exact Audio Copy V1.0 beta 3 from 29. August 2011
EAC extraction logfile from 21. June 2012, 20:47
Vivaldi: The 4 Seasons / Bach: 2 Violin Concertos / Great Violin Concertos CD1
Used drive : HL-DT-STDVDRAM GSA-H60N Adapter: 2 ID: 0
Read mode : Secure
Utilize accurate stream : Yes
Defeat audio cache : Yes
Make use of C2 pointers : No
Read offset correction : 667
Overread into Lead-In and Lead-Out : No
Fill up missing offset samples with silence : Yes
Delete leading and trailing silent blocks : No
Null samples used in CRC calculations : Yes
Used interface : Native Win32 interface for Win NT & 2000
Used output format : Internal WAV Routines
Sample format : 44.100 Hz; 16 Bit; Stereo
TOC of the extracted CD
Track | Start | Length | Start sector | End sector
---------------------------------------------------------
1 | 0:00.00 | 3:34.03 | 0 | 16052
2 | 3:34.03 | 2:38.74 | 16053 | 27976
3 | 6:13.02 | 4:21.74 | 27977 | 47625
4 | 10:35.01 | 5:23.73 | 47626 | 71923
5 | 15:58.74 | 2:33.03 | 71924 | 83401
6 | 18:32.02 | 3:08.00 | 83402 | 97501
7 | 21:40.02 | 4:48.00 | 97502 | 119101
8 | 26:28.02 | 2:45.36 | 119102 | 131512
9 | 29:13.38 | 3:20.40 | 131513 | 146552
10 | 32:34.03 | 3:29.73 | 146553 | 162300
11 | 36:04.01 | 2:20.41 | 162301 | 172841
12 | 38:24.42 | 3:14.50 | 172842 | 187441
13 | 41:39.17 | 3:54.73 | 187442 | 205064
14 | 45:34.15 | 6:56.40 | 205065 | 236304
15 | 52:30.55 | 3:51.38 | 236305 | 253667
16 | 56:22.18 | 8:15.00 | 253668 | 290792
17 | 64:37.18 | 7:23.00 | 290793 | 324017
18 | 72:00.18 | 2:57.57 | 324018 | 337349
Range status and errors
Selected range
Filename C:\Documents and Settings\Admin\Рабочий стол\Lossless Galaxy Rip by ALLexxess\Naxos Records 25 Years\2012 Great Violin Concertos (10CD Box Set Naxos Records)\CD01 Vivaldi & Bach\Violin Concertos CD1.wav
Peak level 95.6 %
Extraction speed 6.3 X
Range quality 100.0 %
Test CRC 30E9636B
Copy CRC 30E9636B
Copy OK
No errors occurred
AccurateRip summary
Track 1 not present in database
Track 2 not present in database
Track 3 not present in database
Track 4 not present in database
Track 5 not present in database
Track 6 not present in database
Track 7 not present in database
Track 8 not present in database
Track 9 not present in database
Track 10 not present in database
Track 11 not present in database
Track 12 not present in database
Track 13 not present in database
Track 14 not present in database
Track 15 not present in database
Track 16 not present in database
Track 17 not present in database
Track 18 not present in database
None of the tracks are present in the AccurateRip database
End of status report
==== Log checksum 41E445020850CCCFFB6C34D24D9D909B65382937D7939E89A3B3ED8F9838E4D5 ====

CD02 Mozart: Violin Concertos Nos. 4 & 5 / Spohr: Concerto No. 8

Wolfgang Amadeus Mozart (1756-1791)Concerto No 4 in D major, K 218 • Concerto No 5 in A major, K 219Louis Spohr (1784-1859)Violin Concerto No 8 in A minor, Op 47, “in modo di scena cantante”
Исполнители:Takako Nishizaki - violin • Capella Istropolitana / Conductor Stephen GunzenhauserSimone Lamsma - violin • Sinfonia Finlandia Jyvaskyla / Conductor Patrick Gallois
Треклист:1. I. Allegro 00:10:092. II. Andante cantabile 00:07:513. III. Rondeau: Andante grazioso - Allegro ma non troppo 00:07:524. I. Allegro aperto 00:10:365. II. Adagio 00:10:566. III. Tempo di menuetto 00:09:227. I. Recitative: Allegro molto - 00:03:598. II. Adagio - Recitative: Andante - 00:07:089. III. Allegro moderato 00:08:09

ЕАС Log

Exact Audio Copy V1.0 beta 3 from 29. August 2011
EAC extraction logfile from 21. June 2012, 21:44
Mozart / Spohr: Violin Concertos / Great Violin Concertos CD2
Used drive : HL-DT-STDVDRAM GSA-H60N Adapter: 2 ID: 0
Read mode : Secure
Utilize accurate stream : Yes
Defeat audio cache : Yes
Make use of C2 pointers : No
Read offset correction : 667
Overread into Lead-In and Lead-Out : No
Fill up missing offset samples with silence : Yes
Delete leading and trailing silent blocks : No
Null samples used in CRC calculations : Yes
Used interface : Native Win32 interface for Win NT & 2000
Used output format : Internal WAV Routines
Sample format : 44.100 Hz; 16 Bit; Stereo
TOC of the extracted CD
Track | Start | Length | Start sector | End sector
---------------------------------------------------------
1 | 0:00.00 | 10:10.29 | 0 | 45778
2 | 10:10.29 | 7:51.02 | 45779 | 81105
3 | 18:01.31 | 7:51.28 | 81106 | 116458
4 | 25:52.59 | 10:36.04 | 116459 | 164162
5 | 36:28.63 | 10:55.68 | 164163 | 213355
6 | 47:24.56 | 9:22.49 | 213356 | 255554
7 | 56:47.30 | 3:54.55 | 255555 | 273159
8 | 60:42.10 | 7:07.69 | 273160 | 305253
9 | 67:50.04 | 8:16.71 | 305254 | 342524
Range status and errors
Selected range
Filename C:\Documents and Settings\Admin\Рабочий стол\Lossless Galaxy Rip by ALLexxess\Naxos Records 25 Years\2012 Great Violin Concertos (10CD Box Set Naxos Records)\CD02 Mozart & Spohr\Violin Concertos CD2.wav
Peak level 97.9 %
Extraction speed 6.0 X
Range quality 99.9 %
Test CRC B438EC43
Copy CRC B438EC43
Copy OK
No errors occurred
AccurateRip summary
Track 1 not present in database
Track 2 not present in database
Track 3 not present in database
Track 4 not present in database
Track 5 not present in database
Track 6 not present in database
Track 7 not present in database
Track 8 not present in database
Track 9 not present in database
None of the tracks are present in the AccurateRip database
End of status report
==== Log checksum 700B54648A21F4D90F62CF4EBFE1014F5EBB84BFFD67AE723F08445718834BAD ====

CD03 Beethoven: Violin Concerto in D Major / Mozart: Violin Concerto No. 3

Ludwig van Beethoven (1770-1827) • Violin Concerto in D major, Op 61Wolfgang Amadeus Mozart (1756-1791) • Concerto No 3 in G major, K 216
Исполнители:Takako Nishizaki - violin • Slovak Philharmonic Orchestra / Conductor Kenneth JeanTakako Nishizaki - violin • Capella Istropolitana / Conductor Stephen Gunzenhauser
Треклист:1. I. Allegro ma non troppo 00:25:112. II. Larghetto 00:10:133. III. Rondo: Allegro 00:11:214. I. Allegro 00:09:465. II. Adagio 00:08:276. III. Rondeau: Allegro 00:06:50

ЕАС Log

Exact Audio Copy V1.0 beta 3 from 29. August 2011
EAC extraction logfile from 22. June 2012, 13:47
Beethoven / Mozart: Violin Concertos / Great Violin Concertos CD3
Used drive : HL-DT-STDVDRAM GSA-H60N Adapter: 2 ID: 0
Read mode : Secure
Utilize accurate stream : Yes
Defeat audio cache : Yes
Make use of C2 pointers : No
Read offset correction : 667
Overread into Lead-In and Lead-Out : No
Fill up missing offset samples with silence : Yes
Delete leading and trailing silent blocks : No
Null samples used in CRC calculations : Yes
Used interface : Native Win32 interface for Win NT & 2000
Used output format : Internal WAV Routines
Sample format : 44.100 Hz; 16 Bit; Stereo
TOC of the extracted CD
Track | Start | Length | Start sector | End sector
---------------------------------------------------------
1 | 0:00.00 | 25:12.41 | 0 | 113440
2 | 25:12.41 | 10:12.63 | 113441 | 159403
3 | 35:25.29 | 11:20.14 | 159404 | 210417
4 | 46:45.43 | 9:46.01 | 210418 | 254368
5 | 56:31.44 | 8:26.72 | 254369 | 292390
6 | 64:58.41 | 6:46.34 | 292391 | 322874
Range status and errors
Selected range
Filename C:\Documents and Settings\Admin\Рабочий стол\Lossless Galaxy Rip by ALLexxess\Naxos Records 25 Years\2012 Great Violin Concertos (10CD Box Set Naxos Records)\CD03 Beethoven & Mozart\Violin Concertos CD3.wav
Peak level 97.7 %
Extraction speed 6.2 X
Range quality 100.0 %
Test CRC 0762BE65
Copy CRC 0762BE65
Copy OK
No errors occurred
AccurateRip summary
Track 1 not present in database
Track 2 not present in database
Track 3 not present in database
Track 4 not present in database
Track 5 not present in database
Track 6 not present in database
None of the tracks are present in the AccurateRip database
End of status report
==== Log checksum 9F36D16FD5FA6310E36E69BC71DB9563E31309A2940A679852299035608E6423 ====

CD04 Mendelssohn: Violin Concerto in E Minor / Bruch: Violin Concerto No. 1 Vieuxtemps: Violin Concerto No. 5

Felix Mendelssohn (1809-1847) • Violin Concerto in E minor, Op 64Max Bruch (1838-1920) • Violin Concerto No 1 in G minor, Op 26Henri Vieuxtemps (1820-1881) • Violin Concerto No 5 in A minor, Op 37
Исполнители:Takako Nishizaki - violin • Slovak Philharmonic Orchestra / Conductor Kenneth JeanTakako Nishizaki - violin • Slovak Philharmonic Orchestra / Conductor Stephen GunzenhauserMisha Keylin - violin • Slovak Radio Symphony Orchestra / Conductor Andrew Mogrelia
Треклист:1. I. Allegro molto appassionato 00:13:412. II. Andante - Allegro non troppo 00:09:273. III. Allegro molto vivace 00:06:394. I. Prelude: Allegro moderato 00:08:065. II. Adagio 00:8:096. III. Finale: Allegro energico 00:7:437. I. Allegro non troppo - Moderato 00:15:348. II. Adagio 00:04:089. III. Allegro con fuoco 00:01:20

ЕАС Log

Exact Audio Copy V1.0 beta 3 from 29. August 2011
EAC extraction logfile from 22. June 2012, 14:33
Mendelssohn / Bruch / Vieuxtemps / Great Violin Concertos CD4
Used drive : HL-DT-STDVDRAM GSA-H60N Adapter: 2 ID: 0
Read mode : Secure
Utilize accurate stream : Yes
Defeat audio cache : Yes
Make use of C2 pointers : No
Read offset correction : 667
Overread into Lead-In and Lead-Out : No
Fill up missing offset samples with silence : Yes
Delete leading and trailing silent blocks : No
Null samples used in CRC calculations : Yes
Used interface : Native Win32 interface for Win NT & 2000
Used output format : Internal WAV Routines
Sample format : 44.100 Hz; 16 Bit; Stereo
TOC of the extracted CD
Track | Start | Length | Start sector | End sector
---------------------------------------------------------
1 | 0:00.00 | 13:42.40 | 0 | 61689
2 | 13:42.40 | 9:26.26 | 61690 | 104165
3 | 23:08.66 | 6:36.69 | 104166 | 133934
4 | 29:45.60 | 8:06.22 | 133935 | 170406
5 | 37:52.07 | 8:08.52 | 170407 | 207058
6 | 46:00.59 | 7:41.14 | 207059 | 241647
7 | 53:41.73 | 15:34.25 | 241648 | 311722
8 | 69:16.23 | 4:07.31 | 311723 | 330278
9 | 73:23.54 | 1:28.31 | 330279 | 336909
Range status and errors
Selected range
Filename C:\Documents and Settings\Admin\Рабочий стол\Lossless Galaxy Rip by ALLexxess\Naxos Records 25 Years\2012 Great Violin Concertos (10CD Box Set Naxos Records)\CD04 Mendelssohn & Bruch & Vieuxtemps\Violin Concertos CD4.wav
Peak level 100.0 %
Extraction speed 6.0 X
Range quality 99.9 %
Test CRC 6B20D695
Copy CRC 6B20D695
Copy OK
No errors occurred
AccurateRip summary
Track 1 not present in database
Track 2 not present in database
Track 3 not present in database
Track 4 not present in database
Track 5 not present in database
Track 6 not present in database
Track 7 not present in database
Track 8 not present in database
Track 9 not present in database
None of the tracks are present in the AccurateRip database
End of status report
==== Log checksum B5BFE8FD09C7CD36DC915D5399479ED0565B61C4C4B9FDACB44781B1A47F6226 ====

CD05 Brahms: Violin Concerto in D Major / Paganini: Violin Concerto No. 1

Johannes Brahms (1833-1897) • Violin Concerto in D major, Op 77Niccolò Paganini (1782-1840) • Violin Concerto No 1 in D Major, Op 6
Исполнители:Takako Nishizaki - violin • Slovak Philharmonic Orchestra / Conductor Stephen GunzenhauserIlya Kaler - violin • Polish National Radio Symphony Orchestra / Conductor Stephen Gunzenhauser
Треклист:1. I. Allegro non troppo 00:24:102. II. Adagio 00:08:543. III. Allegro giocoso, ma non troppo vivace 00:08:304. I. Allegro maestoso 00:22:345. II. Adagio espressivo 00:04:456. III. Rondo: Allegro spiritoso 00:09:51

ЕАС Log

Exact Audio Copy V1.0 beta 3 from 29. August 2011
EAC extraction logfile from 22. June 2012, 21:56
Brahms / Paganini / Great Violin Concertos CD5
Used drive : HL-DT-STDVDRAM GSA-H60N Adapter: 2 ID: 0
Read mode : Secure
Utilize accurate stream : Yes
Defeat audio cache : Yes
Make use of C2 pointers : No
Read offset correction : 667
Overread into Lead-In and Lead-Out : No
Fill up missing offset samples with silence : Yes
Delete leading and trailing silent blocks : No
Null samples used in CRC calculations : Yes
Used interface : Native Win32 interface for Win NT & 2000
Used output format : Internal WAV Routines
Sample format : 44.100 Hz; 16 Bit; Stereo
TOC of the extracted CD
Track | Start | Length | Start sector | End sector
---------------------------------------------------------
1 | 0:00.00 | 24:10.71 | 0 | 108820
2 | 24:10.71 | 8:55.05 | 108821 | 148950
3 | 33:06.01 | 8:38.19 | 148951 | 187819
4 | 41:44.20 | 22:34.00 | 187820 | 289369
5 | 64:18.20 | 4:44.74 | 289370 | 310743
6 | 69:03.19 | 9:47.56 | 310744 | 354824
Range status and errors
Selected range
Filename C:\Documents and Settings\Admin\Рабочий стол\Lossless Galaxy Rip by ALLexxess\Naxos Records 25 Years\2012 Great Violin Concertos (10CD Box Set Naxos Records)\CD05 Brahms & Paganini\Violin Concertos CD5.wav
Peak level 95.3 %
Extraction speed 6.3 X
Range quality 99.9 %
Test CRC 2EB2C8AE
Copy CRC 2EB2C8AE
Copy OK
No errors occurred
AccurateRip summary
Track 1 not present in database
Track 2 not present in database
Track 3 not present in database
Track 4 not present in database
Track 5 not present in database
Track 6 not present in database
None of the tracks are present in the AccurateRip database
End of status report
==== Log checksum A72B9D659187DDA00FF448402834D4F746A8D40610A876DB394537AC6363E4A4 ====

CD06 Saint-Saens: Violin Concerto No. 3 / Lalo; Symphonie Espagnole

Camille Saint-Saens (1835-1921) • Violin Concerto No 3 in B minor, Op 61Édouard Lalo (1823-1892) • Symphonie Espagnole, Op 21
Исполнители:Dong-Suk Kang - violin • Polish National Radio Symphony Orchestra / Conductor Antoni WitMarat Bisengaliev - violin • Polish National Radio Symphony Orchestra / Conductor Johannes Wildner
Треклист:1. I. Allegro non troppo 00:8:492. II. Andantino quasi allegretto 00:7:373. III. Molto moderato e maestoso - Allegro non troppo 00:11:074. I. Allegro non troppo 00:07:315. II. Scherzando: Allegro molto 00:04:176. III. Intermezzo: Allegretto non troppo 00:06:317. IV. Andante 00:06:398. V. Rondo: Allegro 00:08:36

ЕАС Log

Exact Audio Copy V1.0 beta 3 from 29. August 2011
EAC extraction logfile from 22. June 2012, 22:41
Saint-Saens: Violin Concerto No. 3 / Lalo: Symphonie Espagnole / Great Violin Concertos CD6
Used drive : HL-DT-STDVDRAM GSA-H60N Adapter: 2 ID: 0
Read mode : Secure
Utilize accurate stream : Yes
Defeat audio cache : Yes
Make use of C2 pointers : No
Read offset correction : 667
Overread into Lead-In and Lead-Out : No
Fill up missing offset samples with silence : Yes
Delete leading and trailing silent blocks : No
Null samples used in CRC calculations : Yes
Used interface : Native Win32 interface for Win NT & 2000
Used output format : Internal WAV Routines
Sample format : 44.100 Hz; 16 Bit; Stereo
TOC of the extracted CD
Track | Start | Length | Start sector | End sector
---------------------------------------------------------
1 | 0:00.00 | 8:50.17 | 0 | 39766
2 | 8:50.17 | 7:37.16 | 39767 | 74057
3 | 16:27.33 | 11:15.37 | 74058 | 124719
4 | 27:42.70 | 7:31.66 | 124720 | 158610
5 | 35:14.61 | 4:16.57 | 158611 | 177867
6 | 39:31.43 | 6:30.43 | 177868 | 207160
7 | 46:02.11 | 6:39.11 | 207161 | 237096
8 | 52:41.22 | 8:35.53 | 237097 | 275774
Range status and errors
Selected range
Filename C:\Documents and Settings\Admin\Рабочий стол\Lossless Galaxy Rip by ALLexxess\Naxos Records 25 Years\2012 Great Violin Concertos (10CD Box Set Naxos Records)\CD06 Saint-Saens & Lalo\Violin Concertos CD6.wav
Peak level 97.4 %
Extraction speed 6.2 X
Range quality 100.0 %
Test CRC F7B7BCC4
Copy CRC F7B7BCC4
Copy OK
No errors occurred
AccurateRip summary
Track 1 not present in database
Track 2 not present in database
Track 3 not present in database
Track 4 not present in database
Track 5 not present in database
Track 6 not present in database
Track 7 not present in database
Track 8 not present in database
None of the tracks are present in the AccurateRip database
End of status report
==== Log checksum BF495CC60F86BC18186777DBFFA1B0F1CE01FCFD8BC4BA552457E4234BA17BB3 ====

CD07 Tchaikovsky: Violin Concerto in D Major / Glazunov: Violin Concerto in A Minor

Pyotr Tchaikovsky (1840-1893) • Violin Concerto in D major, Op 35Alexander Glazunov (1865-1936) • Violin Concerto in A minor, Op 82
Исполнители:Takako Nishizaki - violin • Slovak Philharmonic Orchestra / Conductor Kenneth JeanIlya Kaler - violin • Polish National Radio Symphony Orchestra / Conductor Camilla Kolchinsky
Треклист:1. I. Allegro moderato 00:19:242. II. Canzonetta: Andante 00:06:573. III. Finale: Allegro vivacissimo 00:11:254. Violin Concerto in A minor, Op. 82 00:20:20

ЕАС Log

Exact Audio Copy V1.0 beta 3 from 29. August 2011
EAC extraction logfile from 23. June 2012, 12:33
Tchaikovsky / Glazunov / Great Violin Concertos CD7
Used drive : HL-DT-STDVDRAM GSA-H60N Adapter: 2 ID: 0
Read mode : Secure
Utilize accurate stream : Yes
Defeat audio cache : Yes
Make use of C2 pointers : No
Read offset correction : 667
Overread into Lead-In and Lead-Out : No
Fill up missing offset samples with silence : Yes
Delete leading and trailing silent blocks : No
Null samples used in CRC calculations : Yes
Used interface : Native Win32 interface for Win NT & 2000
Used output format : Internal WAV Routines
Sample format : 44.100 Hz; 16 Bit; Stereo
TOC of the extracted CD
Track | Start | Length | Start sector | End sector
---------------------------------------------------------
1 | 0:00.00 | 19:24.64 | 0 | 87363
2 | 19:24.64 | 6:57.02 | 87364 | 118640
3 | 26:21.66 | 11:31.39 | 118641 | 170504
4 | 37:53.30 | 20:22.54 | 170505 | 262208
Range status and errors
Selected range
Filename C:\Documents and Settings\Admin\Рабочий стол\Lossless Galaxy Rip by ALLexxess\Naxos Records 25 Years\2012 Great Violin Concertos (10CD Box Set Naxos Records)\CD07 Tchaikovsky & Glazunov\Violin Concertos CD7.wav
Peak level 97.7 %
Extraction speed 6.1 X
Range quality 100.0 %
Test CRC 3D333C43
Copy CRC 3D333C43
Copy OK
No errors occurred
AccurateRip summary
Track 1 not present in database
Track 2 not present in database
Track 3 not present in database
Track 4 not present in database
None of the tracks are present in the AccurateRip database
End of status report
==== Log checksum B1EC359A7AF316A1A5F30D1C0CB32032238F3CA79CF112CD73CF8EEBEEBF90F6 ====

CD08 Elgar: Violin Concerto in B Minor / Wieniawski: Violin Concerto No. 2

Edward Elgar (1857-1934) • Violin Concerto in B minor, Op 61Henryk Wieniawski (1835-1880) • Violin Concerto No 2 in D minor, Op 22
Исполнители:Dong-Suk Kang - violin • Polish National Radio Symphony Orchestra / Conductor Adrian LeaperMarat Bisengaliev - violin • Polish National Radio Symphony Orchestra / Conductor Antoni Wit
Треклист:1. I. Allegro 00:16:362. II. Andante 00:11:073. III. Allegro molto 00:18:074. I. Allegro moderato 00:12:015. II. Romance: Andante non troppo 00:04:446. III. Allegro con fuoco: Allegro moderato 00:06:15

ЕАС Log

Exact Audio Copy V1.0 beta 3 from 29. August 2011
EAC extraction logfile from 23. June 2012, 13:14
Elgar / Wieniawski / Great Violin Concertos CD8
Used drive : HL-DT-STDVDRAM GSA-H60N Adapter: 2 ID: 0
Read mode : Secure
Utilize accurate stream : Yes
Defeat audio cache : Yes
Make use of C2 pointers : No
Read offset correction : 667
Overread into Lead-In and Lead-Out : No
Fill up missing offset samples with silence : Yes
Delete leading and trailing silent blocks : No
Null samples used in CRC calculations : Yes
Used interface : Native Win32 interface for Win NT & 2000
Used output format : Internal WAV Routines
Sample format : 44.100 Hz; 16 Bit; Stereo
TOC of the extracted CD
Track | Start | Length | Start sector | End sector
---------------------------------------------------------
1 | 0:00.00 | 16:37.52 | 0 | 74826
2 | 16:37.52 | 11:06.58 | 74827 | 124834
3 | 27:44.35 | 18:15.65 | 124835 | 207024
4 | 46:00.25 | 12:01.39 | 207025 | 261138
5 | 58:01.64 | 4:43.63 | 261139 | 282426
6 | 62:45.52 | 6:16.23 | 282427 | 310649
Range status and errors
Selected range
Filename C:\Documents and Settings\Admin\Рабочий стол\Lossless Galaxy Rip by ALLexxess\Naxos Records 25 Years\2012 Great Violin Concertos (10CD Box Set Naxos Records)\CD08 Elgar & Wieniawski\Violin Concertos CD8.wav
Peak level 100.0 %
Extraction speed 6.3 X
Range quality 100.0 %
Test CRC 302D3CFE
Copy CRC 302D3CFE
Copy OK
No errors occurred
AccurateRip summary
Track 1 not present in database
Track 2 not present in database
Track 3 not present in database
Track 4 not present in database
Track 5 not present in database
Track 6 not present in database
None of the tracks are present in the AccurateRip database
End of status report
==== Log checksum C0FD9565D76202C4706CE68DE7F435BB7A314EFCE0D44177C5A017B529F6F082 ====

CD09 Dvorak: Violin Concerto in A Minor / Sibelius: Violin Concerto in D Minor

Jean Sibelius (1865-1957) • Violin Concerto in D minor, Op 47Antonín Dvorak (1841-1904) • Violin Concerto in A minor, Op 53
Исполнители:Henning Kraggerud - violin • Bournemouth Symphony Orchestra / Conductor Bjarte EngesetIlya Kaler - violin • Polish National Radio Symphony Orchestra / Conductor Camilla Kolchinsky
Треклист:1. I. Allegro moderato 00:16:152. II. Adagio di molto 00:08:363. III. Allegro, ma non tanto 00:06:544. I. Allegro ma non troppo 00:10:325. II. Adagio ma non troppo 00:10:116. III. Finale: Allegro giocoso, ma non troppo 00:09:16

ЕАС Log

Exact Audio Copy V1.0 beta 3 from 29. August 2011
EAC extraction logfile from 23. June 2012, 13:58
Sibelius / Dvorak / Great Violin Concertos CD9
Used drive : HL-DT-STDVDRAM GSA-H60N Adapter: 2 ID: 0
Read mode : Secure
Utilize accurate stream : Yes
Defeat audio cache : Yes
Make use of C2 pointers : No
Read offset correction : 667
Overread into Lead-In and Lead-Out : No
Fill up missing offset samples with silence : Yes
Delete leading and trailing silent blocks : No
Null samples used in CRC calculations : Yes
Used interface : Native Win32 interface for Win NT & 2000
Used output format : Internal WAV Routines
Sample format : 44.100 Hz; 16 Bit; Stereo
TOC of the extracted CD
Track | Start | Length | Start sector | End sector
---------------------------------------------------------
1 | 0:00.00 | 16:18.30 | 0 | 73379
2 | 16:18.30 | 8:36.63 | 73380 | 112142
3 | 24:55.18 | 6:58.05 | 112143 | 143497
4 | 31:53.23 | 10:32.43 | 143498 | 190940
5 | 42:25.66 | 10:10.34 | 190941 | 236724
6 | 52:36.25 | 9:11.50 | 236725 | 278099
Range status and errors
Selected range
Filename C:\Documents and Settings\Admin\Рабочий стол\Lossless Galaxy Rip by ALLexxess\Naxos Records 25 Years\2012 Great Violin Concertos (10CD Box Set Naxos Records)\CD09 Dvorak & Sibelius\Violin Concertos CD9.wav
Peak level 88.4 %
Extraction speed 6.3 X
Range quality 100.0 %
Test CRC 46D28FD3
Copy CRC 46D28FD3
Copy OK
No errors occurred
AccurateRip summary
Track 1 not present in database
Track 2 not present in database
Track 3 not present in database
Track 4 not present in database
Track 5 not present in database
Track 6 not present in database
None of the tracks are present in the AccurateRip database
End of status report
==== Log checksum 70840D24831FD34610F7E79140CD97241B6EA4A13958EDDCF4FE122A33AE35D0 ====

CD10 Shostakovich: Violin Concerto No. 1 / Prokofiev: Violin Concerto No. 1

Дмитрий Шостакович (1906-1975) • Violin Concerto No 1 in A minor, Op 99Sergey Prokofiev (1891-1953) • Violin Concerto No 1 in D major, Op 19
Исполнители:Ilya Kaler - violin • Polish National Radio Symphony Orchestra / Conductor Antoni WitTedi Papavrami - violin • Polish National Radio Symphony Orchestra / Conductor Antoni Wit
Треклист:1. I. Nocturne 00:12:392. II. Scherzo 00:06:483. III. Passacaglia 00:14:444. IV. Burlesque 00:05:105. I. Andantino: Andante assai 00:09:326. II. Scherzo: Vivacissimo 00:03:557. III. Moderato - Allegro moderato - Moderato - Piu tranquillo 00:08:58

ЕАС Log

Exact Audio Copy V1.0 beta 3 from 29. August 2011
EAC extraction logfile from 23. June 2012, 19:38
Shostakovich / Prokofiev / Great Violin Concertos CD10
Used drive : HL-DT-STDVDRAM GSA-H60N Adapter: 2 ID: 0
Read mode : Secure
Utilize accurate stream : Yes
Defeat audio cache : Yes
Make use of C2 pointers : No
Read offset correction : 667
Overread into Lead-In and Lead-Out : No
Fill up missing offset samples with silence : Yes
Delete leading and trailing silent blocks : No
Null samples used in CRC calculations : Yes
Used interface : Native Win32 interface for Win NT & 2000
Used output format : Internal WAV Routines
Sample format : 44.100 Hz; 16 Bit; Stereo
TOC of the extracted CD
Track | Start | Length | Start sector | End sector
---------------------------------------------------------
1 | 0:00.00 | 12:39.17 | 0 | 56941
2 | 12:39.17 | 6:48.46 | 56942 | 87587
3 | 19:27.63 | 14:43.68 | 87588 | 153880
4 | 34:11.56 | 5:10.22 | 153881 | 177152
5 | 39:22.03 | 9:32.28 | 177153 | 220080
6 | 48:54.31 | 3:54.34 | 220081 | 237664
7 | 52:48.65 | 8:58.10 | 237665 | 278024
Range status and errors
Selected range
Filename C:\Documents and Settings\Admin\Рабочий стол\Lossless Galaxy Rip by ALLexxess\Naxos Records 25 Years\2012 Great Violin Concertos (10CD Box Set Naxos Records)\CD10 Shostakovich & Prokofiev\Violin Concertos CD10.wav
Peak level 99.9 %
Extraction speed 6.2 X
Range quality 100.0 %
Test CRC 35F2EBF8
Copy CRC 35F2EBF8
Copy OK
No errors occurred
AccurateRip summary
Track 1 not present in database
Track 2 not present in database
Track 3 not present in database
Track 4 not present in database
Track 5 not present in database
Track 6 not present in database
Track 7 not present in database
None of the tracks are present in the AccurateRip database
End of status report
==== Log checksum 09F0B1A608B04773B3D6C2D7FB9CA8E9F9702AAA3904C40F5BBAB15414CAE023 ====

-

Доп.информацияЛог проверки качества

для каждого диска в папке Technical

Скриншот спектра частот

для каждого диска в папке Technical
Ссылки на другие раздачи данного издания:
http://teatrix.ru/tracker.php?nm=Naxos%2025th%20Anniversary
[teatrix.ru].t10012.torrent 
Торрент: Зарегистрирован [ 2015-10-25 20:37 ] · E5831E98EDED4669FF6C755C38B32726523ED640

Скачать .torrent

Скачать

295 KB

Статус: проверено
Скачан: 1 раз
Размер: 3.42 GB
terms.php



Быстрый ответ

Имя:

      
Для отправки сообщений необходимо включить JavaScript
Показать сообщения:    

Текущее время: 07-Дек 11:39

Часовой пояс: UTC + 3


Вы можете начинать темы
Вы можете отвечать на сообщения
Вы не можете редактировать свои сообщения
Вы не можете удалять свои сообщения
Вы не можете голосовать в опросах
Вы не можете прикреплять файлы к сообщениям
Вы можете скачивать файлы