(Classical) Ciccolini Complete EMI Recordings 1950 - 1991 [56 CDs]: Bach, Mozart, Scarlatti, Chopin, Liszt, d'Indy, Franck, Albeniz, Falla, Debussy, Ravel, Satie, Чайковский, Рахманинов, Бородин, etc. — 2010, EMI, APE (image+.cue) lossless


Статистика раздачи [Обновить пиров]
Размер:  14.51 GB   |    Зарегистрирован:  1 год 1 месяц   |    Скачан:  1 раз

Полного источника не было: 1 месяц 5 дней

 
   
 
 
 

[Цитировать]

Ciccolini Complete EMI Recordings 1950 - 1991 [56 CDs]: — Bach, Mozart, Scarlatti, Chopin, Liszt, Vincent d'Indy, Franck, Albeniz, Falla, Debussy, Ravel, Satie, Чайковский, Рахманинов, Бородин, etc. — 2010, EMI
Жанр: Classical
Год издания дисков: 2010
Издатель (лейбл): EMI
Номер по каталогу: 68582
Дата записи: 1950 - 1991
Аудиокодек: APE
Тип рипа: image+.cue
Битрейт аудио: lossless
Продолжительность: 12:54:45
Источник: bayreuth's classical music resources
Наличие сканов в содержимом раздачи: сканы буклета
-
-
-
-
-
-
-
-
-
-

Трэклист & Исполнители (CD 1 — CD 30)CD 01 Mozart, Scarlatti

Mozart — Piano Sonata No.2,K280
[04:20] 01. I.Allegro assai
[06:24] 02. II.Adagio
[04:07] 03. III.Presto
Mozart — Piano Sonata No.9,K311
[04:23] 04. I.Allegro con spirito
[06:04] 05. II.Andante con espressione
[05:38] 06. III.Rondo.Allegro
Mozart — Piano Sonata No.11,K331
[08:57] 07. I.Theme & variations:andante grazioso
[03:11] 08. II.Minuetto-trio
[02:31] 09. III.Rondo.Alla Turca
Mozart — Piano Sonata No.12,K332
[04:33] 10. I.Allegro
[04:28] 11. II.Adagio
[04:42] 12. III.Allegro assai
[04:25] 13. Scarlatti — Sonata em sol majeur,Kk.259
[01:56] 14. Scarlatti — Sonata em re mineur,Kk.64
[01:56] 15. Scarlatti — Sonata em re mineur,Kk.1
[03:30] 16. Scarlatti — Sonata em re majeur,Kk.492
[04:30] 17. Scarlatti — Sonata em la majeur,Kk.268

CD 02 Mozart, Scarlatti

Mozart — Piano Sonata No.4,K282
[03:59] 01. I.Adagio
[04:24] 02. II.Minuetto
[03:08] 03. III.Allegro
Mozart — Piano Sonata No.7,K309
[04:00] 04. I.Allegro con spirito
[06:03] 05. II.Andante un poco adagio
[06:26] 06. III.Rondo.Allegro gracioso
Mozart — Piano Sonata No.13,K333
[05:26] 07. I.Allegro
[05:15] 08. II.Andante cantabile
[06:35] 09. III.Allegretto grazioso
Mozart — Piano Sonata No.15,K533
[04:37] 10. I.Allegro
[06:57] 11. II.Andante
[06:42] 12. III.Rondo.Allegretto
[04:00] 13. Scarlatti — Sonata Kk.259
[01:57] 14. Scarlatti — Sonata Kk.64
[04:07] 15. Scarlatti — Sonata Kk.268
[03:25] 16. Scarlatti — Sonata Kk.492

CD 03 Tchaikovsky, Franck, Vincent d'Indy, Prokofiev

Tchaikovsky — Piano Concerto No.1
[18:44] 01. I.Allegro non troppo e molto espressione-Alle...
[06:36] 02. II.Andante simplice-Prestissimo-Tempo I
[06:20] 03. III.Allegro con fuoco
[16:36] 04. Franck — Viariations symphoniques pour piano et orchestre
Vincent d'Indy — Piano Concerto,Op.25
[11:38] 05. I.Assez lent
[07:16] 06. II.Assez modere
[07:34] 07. III.Anime
Orchestre de la Société des Concerts du Conservatoire
André Cluytens

[01:37] 08. Prokofiev — Marche,op.12 no.1
[02:23] 09. Prokofiev — Conte de la vieile grand-mere,op.31 no.1

CD 04 Tchaikovsky, Rachmaninov, Stravinsky

Tchaikovsky — Piano Concerto No.1
[19:41] 01. I.Allegro non troppo e molto espressione-Alle...
[06:35] 02. II.Andante simplice-Prestissimo-Tempo I
[06:08] 03. III.Allegro con fuoco
Rachmaninov — Piano Concerto No.2
[10:34] 04. I.Allegro moderato
[12:42] 05. II.Adagio sostenuto
[11:41] 06. III.Allegro scherzando
Orchestre National de la Radiodiffusion Française
Constantin Silvestri

[08:05] 07. Tchaikovsky — Doumka
[02:42] 08. Stravinsky — Tango

CD 05 Borodin, Arenski, Kabalevski, Satie

Borodin — Pette Suite
[04:51] 01. I.Au couvent
[03:13] 02. II.Intermezzo
[02:46] 03. III.Mazurka en ut majeur
[03:36] 04. IV.Mazurke en re bemol majeur
[01:59] 05. VII.Reverie
[01:33] 06. V.Serenade
[02:58] 07. VI.Nocturne
[02:20] 08. Arenski — Scherzo en la majeur,op.8
Kabalevski — Sonatine n1 en ut majeur,op.13
[02:00] 09. I.Allegro
[02:12] 10. II,Andantino
[01:29] 11. III.Presto
[03:55] 12. Rachmaninov — Preludes en ut diese mineur,op.3 n2
[03:05] 13. Rachmaninov — Preludes en sol majeur,op.32 n5
Satie — Trios Morceaux en forme de poire
[02:37] 14. Manirer de commencement
[00:44] 15. Prolorngation du meme
[01:09] 16. I.Lentement
[02:30] 17. II.Enleve
[02:01] 18. III.Brutal
[01:34] 19. En plus
[01:30] 20. Redite
Satie — Heures seculaires et instantanees
[01:42] 21. I.Obstacles venimeux
[00:49] 22. II.Crepuscule matinal
[00:37] 23. III.Affolements granitiques
Satie — Trios Nocturnes
[02:33] 24. I.Doux et caime
[01:38] 25. II.Simplement
[02:34] 26. III.Un peu mouvemente
Satie — Trios Gymnopedies
[03:01] 27. I.Lent et douloureux
[02:34] 28. II.Lent et triste
[02:18] 29. III.Lent et grave
Satie — Les trios valses du precleux degoute
[00:54] 30. I.Sa taille
[01:02] 31. II.Son binocle
[00:38] 32. III.Ses jambes
Satie — Avant-dernieres pensees
[01:00] 33. I.Idylle
[01:10] 34. II.Aubade
[00:52] 35. III.Meditation
Satie — Trio Gnossiennes
[03:21] 36. I.Lent
[01:47] 37. II.Avec etonnement
[02:32] 38. III.Lent

CD 06 Chopin, Liszt

[04:31] 01. Chopin — Trios valses,op.34 — No1 en la bemol majeur
[06:23] 02. Chopin — Trios valses,op.34 — No2 en la mineur
[02:09] 03. Chopin — Trios valses,op.34 — No3 en fa majeur
[04:44] 04. Chopin — Nocturne — en mi bemol majuer,op.9 n2
[04:17] 05. Chopin — Etude — en mi majeur,op.10 n3
[01:40] 06. Chopin — Polonaise — ecorite a I'age de 8 ans
[05:16] 07. Chopin — Berceuse — en re bemol majeur,op.57
[04:59] 08. Chopin — Nocturne — en ut diese mineur,op.27 n1
[10:38] 09. Liszt — Funerailles
[14:12] 10. Liszt — Ballade n2
[10:56] 11. Liszt — Mephisto Valse n1
[04:23] 12. Liszt — Liebestraume n3

CD 07 Liszt

Liszt — Les Annees de pelerinage — Premiere Annee:La Suisse
[06:04] 01. La chapelle de Guillaume
[02:46] 02. Au lac Wallenstadt
[01:44] 03. Pastorale
[03:07] 04. Au bord d'une source
[04:13] 05. Orage
[12:55] 06. Vallee d'Obermann
[03:52] 07. Eglogue
[04:59] 08. Le mal du pays
[06:30] 09. Les cloches de Geneve
Liszt — Les Annees de pelerinage — Deuxieme Annee: L'Italie
[07:21] 10. Sposalizio
[03:24] 11. II penseroso
[03:02] 12. Canzonetta del Salvat...
[05:48] 13. Sonetto 47 del Petrarca
[06:10] 14. Sonetto 104 del Petrarca
[06:30] 15. Sonetto 123 del Petrarca

CD 08 Liszt

Liszt — Les Annees de pelerinage — Deuxieme Annee:L'Italie
[14:58] 01. Apres une lecture du D...
[06:14] 02. Angelus
[05:55] 03. Aux cypres de la Villa...
[09:35] 04. Aux cypres de la Villa...
[08:48] 05. Les jeux d'eau a la Vi...
[06:05] 06. Sunt lacrymae rerum
[07:22] 07. Marche funebre
[02:47] 08. Sursum corda
Liszt — Consolations
[01:06] 09. I.Andante con moto
[02:45] 10. II.Un poco piu mosso
[03:57] 11. III.Lento,piacido
[02:40] 12. IV.Quasi adagio
[01:55] 13. V.Andantino
[02:24] 14. VI.Allegretto,sempre cantabile

CD 09 Albeniz, Mompou, Falla

Albeniz — Espana,6 feuilles d'album,op.165
[01:53] 01. I.Prelude
[02:52] 02. II.Tango
[03:40] 03. III.Malaguena
[03:05] 04. IV.Serenata
[02:46] 05. V.Capricho catalan
[02:31] 06. VI.Zortzico
[07:11] 07. Granados — Allegro de concierto
Mompou — Canciones Danzas
[03:27] 08. N1
[02:20] 09. N2
[03:46] 10. N3
[03:51] 11. N4
[03:45] 12. N5
[03:02] 13. N6
[02:27] 14. N7
[02:59] 15. N8
Falla — Noches en los jardines de Espana
[11:54] 16. I.En et Generalife
[05:27] 17. II.Danza lejana
[10:07] 18. III.En los jardines de la Sierra de Co...

CD 10 Bach

Bach — Inventions et Sinfonias — Inventions a 2 voix
[01:18] 01. N1
[01:38] 02. N2
[01:04] 03. N3
[00:49] 04. N4
[02:00] 05. N5
[03:04] 06. N6
[02:19] 07. N7
[00:53] 08. N8
[01:45] 09. N9
[00:59] 10. N10
[01:00] 11. N11
[01:16] 12. N12
[00:55] 13. N13
[01:35] 14. N14
[01:34] 15. N15
Bach — Inventions et Sinfonias — Inventions a 3 voix
[01:25] 16. N1
[01:49] 17. N2
[01:23] 18. N3
[02:17] 19. N4
[02:32] 20. N5
[01:30] 21. N6
[02:36] 22. N7
[01:15] 23. N8
[03:28] 24. N9
[01:00] 25. N10
[01:55] 26. N11
[01:31] 27. N12
[01:59] 28. N13
[02:02] 29. N14
[01:52] 30. N15
[04:16] 31. Couperin — Sceur Monique
[05:14] 32. Rameau — La Poule
[02:42] 33. Scarlatti — Sonate Kk.406
[04:16] 34. Scarlatti — Sonate Kk.9
[05:09] 35. Scarlatti — Sonate Kk.380
[06:16] 36. Scarlatti — Sonate Kk.87

CD 11 Scarlatti, Rossini

[03:23] 01. Scarlatti — Sonate,Kk.492
[04:08] 02. Scarlatti — Sonate,Kk.268
[01:57] 03. Scarlatti — Sonate,Kk.64
[03:57] 04. Scarlatti — Sonate,Kk.259
[02:03] 05. Scarlatti — Sonate,Kk.159
[02:40] 06. Scarlatti — Sonate,Kk.377
[02:49] 07. Scarlatti — Sonate,Kk.239
[01:51] 08. Scarlatti — Sonate,Kk.432
[01:56] 09. Scarlatti — Sonate,Kk.1
Rossini — Peches de vieillesse
[02:45] 10. Petit caprice
[08:52] 11. Prelude inoffensif
[06:35] 12. L'innocence italienne
[03:19] 13. Ouf!Les petits pois
[03:45] 14. Une caresse a ma femme
[10:20] 15. Un petit train de plaisir
[18:39] 16. Specimen de I'ancien regime

CD 12 Chopin. Grieg

Chopin — 18 valses
[04:51] 01. N1,op.18 Valse brilliante
[04:24] 02. N2,op.34 n1 Grande valse brilliante
[05:27] 03. N3,op.34 n2
[02:03] 04. N4,op.34 n3 Grande valse brilliante
[03:38] 05. N5,op.42
[01:40] 06. N6,op.64 n1
[03:14] 07. N7,op.64 n2
[02:17] 08. N8,op.64 n3
[03:23] 09. N9,op.69 n1
[03:48] 10. N10,op.69 n2
[01:51] 11. N11,op.70 n1
[03:02] 12. N12,op.70 n2
[03:02] 13. N13,op.70 n3
[01:11] 14. N14 en la bemol majeur,op.posthume
[01:51] 15. N15 en mi majeur,op.posthume
[02:17] 16. N16 en mi mineur,op.posthume
[02:03] 17. N17 en la mineur,op.posthume
[01:58] 18. N18 en mi bemol majeur,op.posthume
Grieg — Sonate,Op.7
[04:00] 19. I.Allegro moderato
[04:07] 20. II.Andante molto
[02:49] 21. III.Menuetto ma poco piu lento
[06:04] 22. IV.Molto allegro
[03:32] 23. Au printemps,op.43 n6
[04:02] 24. Notturno,op.54 n4

CD 13 Grieg, Mussorgsky

Grieg — Pieces lyriques
[01:42] 02. Valse,op.12 n2
[00:43] 03. Dance des Sylphes,op.12 n4
[01:15] 04. Papillon,op.43 n1
[03:12] 05. Au Printemps,op.43 n6
[01:39] 06. Oisillon,op.43 n4
[02:59] 07. Feuillet d'album,op.47 n2
[01:27] 08. Russeau,op.62 n4
[03:11] 09. Marche nuptiaie norvegienne,op.19 n2
Moussorgsky — Tableaux d'une exposition
[01:36] 10. Promenade
[02:00] 11. I.Gnomus
[01:00] 12. Promenade
[05:11] 13. II. II vecchio castello
[00:31] 14. Promenade
[01:10] 15. III.Tuileries
[03:00] 16. IV.Bydlo
[00:52] 17. Promenade
[01:08] 18. V.Ballet des poussins dans leur coque
[02:12] 19. VI.Samuei Goldenberg und Schmuyle
[01:28] 20. Promenade
[01:24] 21. VII.Le marche de Limoges
[01:57] 22. VII.Cat acombe
[01:56] 23. Cum mortuis in lingua mortua
[03:06] 24. IX.Baba Yaga.La cabane sur des pattes d...
[04:52] 25. X.La grande porte de Kiev

CD 14 Liszt

Liszt - Années de pèlerinage - Première année - LA SUISSE
[06:34] 01. No 1 La chapelle de Guillaume Tell
[02:39] 02. No 2 Au lac de Wallenstadt
[01:36] 03. No 3 Pastorale
[03:11] 04. No 4 Au bord d'une source
[03:55] 05. No 5 Orage
[12:42] 06. No 6 Vallйe d'Obermann
[03:32] 07. No 7 Eglogue
[05:42] 08. No 8 Le mal du pays
[05:20] 09. No 9 Les cloches de Geneve, nocturne
Liszt - Années de pèlerinage - Deuxième année - L' ITALIE
[07:10] 10. No 1 Sposalizio
[03:30] 11. No 2 Il penseroso
[03:08] 12. No 3 Canzonetta del Salvator Rosa
[05:40] 13. No 4 Sonetto 47 del Petrarca
[06:08] 14. No 5 Sonetto 104 del Petrarca
[06:11] 15. No 6 Sonetto 123 del Petrarca

CD 15 Liszt

Liszt - Années de pèlerinage - Deuxième année - L' ITALIE
[13:47] 01. No 7 Apres une lecture de Dante
[05:07] 02. No 8 Gondoliera
[03:46] 03. No 9 Canzone
[08:20] 04. No 10 Tarentella
Liszt - Années de pèlerinage - Troisième année
[06:02] 05. No 1 Angelus
[05:52] 06. No 2 Aux cyprиs de la Villa d' Este
[08:40] 07. No 3 Aux cyprиs de la Villa d' Este 2
[07:28] 08. No 4 Les Jeux d'eau а la Villa d' Este
[05:09] 09. No 5 Sunt lacrimae rerum
[06:15] 10. No 6 Marche funйbre
[03:01] 11. No 7 Sursum corda

CD 16 Liszt

[07:51] 01. Franz Liszt - Invocation
[06:20] 02. Franz Liszt - Ave Maria
[15:49] 03. Franz Liszt - Benediction de Dieu dans la solitude
[12:30] 04. Franz Liszt - Pensee des morts
[02:47] 05. Franz Liszt - Pater Noster
[06:15] 06. Franz Liszt - Hymm de l'enfant a son reveil
[10:03] 07. Franz Liszt - Funerailles
[03:46] 08. Franz Liszt - Miserere d'apres Palestrina
[06:15] 09. Franz Liszt - Andante lagrimoso
[07:07] 10. Franz Liszt - Cantique d'amour

CD 17 Liszt

Liszt — Consolations
[01:06] 01. I.Andante con moto
[02:46] 02. II.Un poco piu mosso
[04:10] 03. III.Lento piacido
[02:22] 04. IV.Quasi adagio
[01:58] 05. V.Andantino
[02:30] 06. VI.Allegretto cantabile
Liszt — Legendes
[08:40] 07. N1 Saint Francois d'Assise
[08:44] 08. N2 Saint Francois de Paule marchant dur les flots
Liszt — Liebestraume
[06:30] 09. N1 en la bemol majeur
[04:38] 10. N2 en mi majeur
[04:18] 11. N3 en la bemol majeur
Liszt — Ballades
[07:17] 12. N1 en re bemol majeur
[13:36] 13. N2 en si mineur
[02:57] 14. Schumann — Reverie
[02:15] 15. Mendelssohn — Chant du Printemps

CD 18 Granados

[07:14] 01. Enrique Granados - Los requiebros (Goyescas)
[11:20] 02. Enrique Granados - Coloquio en la reja (Goyescas)
[06:30] 03. Enrique Granados - El fandango de Candil (Goyescas)
[05:57] 04. Enrique Granados - Quejas o la maja y el ruiseсor (Goyescas)
[11:41] 05. Enrique Granados - El amor y la muerte (Goyescas)
[06:28] 06. Enrique Granados - Epilogo (Goyescas)
[05:03] 07. Enrique Granados - Evocation (Iberia - 1st Book)
[03:47] 08. Enrique Granados - El Puerto (Iberia - 1st Book)
[07:54] 09. Enrique Granados - Fкte-Dieu а Sйville (Iberia - 1st Book)

CD 19 Albeniz

Albeniz — Iberia — Deuxieme cahler
[06:41] 01. Rondena
[08:27] 02. Almeria
[05:21] 03. Triana
Albeniz — Iberia — Troisieme cahler
[07:18] 04. El Albaicin
[07:10] 05. El Polo
[07:26] 06. Lavapies
Albeniz — Iberia — Quatrieme cahler
[05:09] 07. Malaga
[11:11] 08. Jerez
[05:52] 09. Eritana
[06:20] 10. Granados — Quejas o la maja el ruisenor
[03:21] 11. Falla — Danse rituelle du feu
[03:47] 12. Falla — Danse de la meuniere

CD 20 Chabrier

Chabrier — Pieces pittoresques
[06:02] 01. I.Paysage
[02:01] 02. II.Melancolie
[01:15] 03. III.Tourbillon
[04:07] 04. IV.Sous-bois
[01:57] 05. V.Mauresque
[02:58] 06. VI.Idylle
[03:15] 07. VII.Danse villageoise
[03:57] 08. VIII.Improvisation
[05:27] 09. IX.Menuet pompeux
[04:13] 10. X.Scherzo-Valse
[01:52] 11. Chabrier — Feuillet d'album
[06:39] 12. Chabrier — Espana
[05:27] 13. Chabrier — Bourree fantasque
[04:59] 14. Debussy — Clair de lune
[04:42] 15. Debussy — La plus que lente
[02:49] 16. Debussy — Serenade for the Doll
[03:17] 17. Chabrier — Idylle
[12:04] 18. Franck — Les Djinns

CD 21 Debussy, Saint-Saens

Debussy — Suite bergamasque
[03:48] 01. I.Prelude
[04:19] 02. II.Menuet
[04:38] 03. III.Clair de lune
[03:41] 04. IV.Passepied
[04:50] 05. Debussy — Danse
[04:11] 06. Debussy — Reverie
Debussy — Pour le piano
[04:01] 07. I.Prelude
[05:43] 08. II.Sarabande
[03:50] 09. III.Toccata
[03:41] 10. Debussy — 1 Arabesque
[03:07] 11. Debussy — 2 Arabesque
[06:49] 12. Debussy — Ballade
[06:08] 13. Saint-Saens — Etude en forme de valse en re bemol majeur,op.52 n6
Saint-Saens — Six etudes pour la main gauche seuie,op.135
[02:23] 14. n1 Prelude
[02:09] 15. n2 Alla fuga
[02:35] 16. n3 Moto perpetuo
[04:18] 17. n4 Bourree
[05:47] 18. n5 Elegie
[01:57] 19. n6 Gigue

CD 22 Satie

Satie — Trios Gymnopedies
[03:02] 01. I.Lent et douloureux
[02:23] 02. II.Lent et triste
[02:09] 03. III.Lent et grave
Satie — Heures seculaires et instantanees
[01:42] 04. I.Obstacles venimeux
[00:47] 05. II.Crepuscule matinal
[00:38] 06. III.Affolements granitiques
Satie — Les trois valses distinguees du precieux degoutie
[00:55] 07. Satie — I.Sa taille
[00:56] 08. Satie — II.Son binocie
[00:35] 09. Satie — III.Ses jambes
Satie — Avant-demieres pensees
[01:11] 10. I.Idylle
[01:06] 11. II.Aubade
[00:46] 12. III.Meditation
Satie — Trois Gnossiennes
[02:43] 13. I.Lent
[01:31] 14. II.Avec etonnement
[02:21] 15. III.Lent
Satie — Trois Morceaux en forme de poire
[02:17] 16. Maniere de commencement
[00:52] 17. Prolongation du meme
[01:20] 18. I.Lentment
[02:23] 19. II.Enleve
[01:58] 20. II.Brutal
[01:40] 21. En plus
[01:22] 22. Redite
Satie — Croquis et agaceries d'un gros bonhomme en bois
[01:07] 23. I.Tyrolienne turque
[01:20] 24. II.Danse maigre
[01:04] 25. III.Espanana
Satie — Trois Nocturnes
[02:58] 26. I.Doux et caime
[01:49] 27. II.Simplement
[02:37] 28. III.Un peu mouvemente
Satie — La Belle Excentrique
[01:36] 29. I.Grande ritournelle
[01:20] 30. II.Marche franco-lunaire
[01:38] 31. Valse du mysterieux baiser dans I'ceil
[01:36] 32. Cancan
Satie — Descriptions automatiques
[01:54] 33. I.Sur un vaisseau
[01:35] 34. II.Sur une lanterne
[00:57] 35. III.Sur un casque
Satie — Veritables prelude flasques
[00:47] 36. I.Severe reprimande
[01:13] 37. II.Seul a la maison
[00:40] 38. III.On joue
Satie — Vieux sequins et viellies culrasses
[01:34] 39. I.Chez le marchand d'or
[00:51] 40. II.Danse cuirassee
[00:51] 41. III.La defaite des Cimbres
Satie — En habit de cheval
[00:52] 42. I.Choral
[02:38] 43. II.Fugue Iitanique
[00:41] 44. III.Autre choral
[02:14] 45. IV.Fugue de papier
Satie — Chapitres tournes en tous sens
[00:46] 46. I.Celle qui parie trop
[01:58] 47. II.Le porteur de grosses pierres
[02:07] 48. III.Regrets des enfermes
Satie — Apercus desagreables
[01:13] 49. I.Pastorale
[01:02] 50. II.Choral
[01:48] 51. III.Fugue

CD 23 Satie

Satie — Sports et divertissements
01. Choral inappétissant
02. La balançoire
03. La chasse
04. La Comédie italienne (à la napolitaine)
05. Le réveil de la mariée
06. Colin-Maillard
07. La pêche
08. Le yachting
09. Le bain de mer
10. Le carnaval
11. Le golf
12. La pieuvre
13. Les courses
14. Les quatre coins
15. Le pique-nique
16. Le water-chute
17. Le tango
18. Le traineau
19. Le flirt
20. Le feu d'artifice
21. Le tennis
Satie — Embryons desséchés
22. I. D'Holothurie
23. II. D'Edriophtalma
24. III. De Podophtalma
Satie — Trois Sarabandes
25. N°1
26. N°2
27. N°3
Satie — Préludes flasques (pour un chien)
28. I. Voix d'intérieur
29. II. Idylle cynique
30. III. Chanson canine
31. IV. Avec camaraderie
32. Satie — Rêverie de l'enfance de Pantagruel
33. Satie — Les pantins dansent
34. Satie — Passacaille (Œuvre posthume)
35. Satie — Le Piège de Méduse (Œuvre posthume)
Quadrille - Valse - Pas vite - Mazurka - Un peu vif - Polka - Quadrille
Satie — Menus propos enfantins
36. I. Le chant guerrier du roi des haricots
37. II. Ce que dit la petite princesse des tulipes
38. III. Valse du chocolat aux amandes
Satie — Enfantillages pittoresques
39. I. Petit prélude à (ajournée
40. II. Berceuse
41. III. Marche du grand escalier
Satie — Peccadilles importunes
42. I. Etre jaloux de son camarade qui a une grosse tête
43. II. Lui manger sa tartine
44. III. Profiter de ce qu'il a des cors aux pieds pour lui prendre son cerceau
Satie — Pièces froides (N°1 - Trois airs à faire fuir)
45. I. D'une manière particulière
46. II. Modestement
47. III. S'inviter
Satie — Pièces froides (N°2 - Danses de travers)
48. I. En y regardant à deux fois
49. II. Passer
50. III. Encore
51. Satie — Prélude en tapisserie
Satie — Trois Gnossîennes
52. IV. Lent
53. V. Modéré
54. VI. Avec conviction et avec une tristesse rigoureuse
Satie — Nouvelles pièces froides
55. I. Sur un mur
56. II. Sur un arbre
57. III. Sur un pont
Satie — Deux rêveries nocturnes (révision Robert Caby)
58. I. Pas vite (rêvez doucement)
59. II. Très modérément
Satie — Musiques intimes et secrètes (révision Robert Caby)
60. Nostalgie
61. Froide songerie
62. Fâcheux exemple

CD 24 Satie

01. Satie — Première pensée de la Rose+Croix
Satie — Sonneries de la Rose+Croix
02. I. Air de l'Ordre
03. II. Air du Grand Maître
04. III. Air du Grand Prieur
05. Satie — Petite ouverture à danser (révision Robert Caby)
Satie — Quatre Préludes
06. I. Fête donnée par des chevaliers normands en l'honneur
d'une jeune demoiselle (xie siècle)
07. II. Prélude d'Eginhard
08. III. 1er Prélude du Nazaréen
09. IV. 2e Prélude du Nazaréen
Satie — Le Fils des Etoiles, Wagnérie kaldéenne du Sar Péladan
10. Prélude du 1er acte : La Vocation
11. Prélude du 2e acte : L'Initiation
12. Prélude du 3e acte : L'Incantation
Satie — Jack in thé box
13. I. Prélude
14. II. Entracte
15. III. Final
Satie — Six Pièces de la période 1906-1913 (révision Robert Caby)
16. Désespoir agréable
17. Effronterie
18. Poésie
19. Prélude canin
20. Profondeur
21. Songe creux
22. Satie — Prélude de la porte héroïque du ciel
23. Satie — Carnet d'esquisses et de croquis (1897-1914, révision Robert Caby)
Air - Essais - * - Notes - Notes - Le prisonnier maussade - Esquisses « le grand singe »
- Exercices - Notes - Harmonies - Songerie « vers Jack » (près des Airs à faire fuir) -
Bribes - Choral - Exercices 1 - Exercices 2 - Exercices 3 - Exercices 4 -
Esquisses et sketch montmartrois, I : petit prélude de la « Mort de monsieur Mouche » -
Esquisses & sketch montmartrois II : un peu vif- Essais (arrière-propos) - Petite danse
24. Satie — Premier Menuet
Satie — Deux Nocturnes
25. N°4
26. N°5
Satie — Trois petites pièces montées pour piano à quatre mains
27. De l'enfance de Pantagruel (rêverie)
28. Marche de Cocagne (démarche)
29. Jeux de Gargantua (colin de polka)

CD 25 Satie

Satie — Ogives
01. Première ogive
02. Deuxième ogive
03. Troisième ogive
04. Quatrième ogive
Satie — Danses gothiques (Neuvaine pour le plus grand calme et la forte tranquillité de mon âme.
Cultifiement et coadunation choristiques)
05. N°1 A l'occasion d'une grande peine
06. N°2 Dans laquelle les Pères de la très véritable et très Sainte Eglise sont invoqués
07. N°3 En faveur d'un malheureux
08. N°4 A propos de Saint-Bernard et Sainte-Lucie
09. N°5 Pour les pauvres trépassés
10. N°6 Où il est question du pardon des injures reçues
11. N°7 Par pitié pour les ivrognes, honteux débauchés, imparfaits, désagréables,
et faussaires en tous genres
12. N°8 En le haut honneur du vénéré Saint-Michel, le gracieux archange
13. N°9 Après avoir obtenu la remise de ses fautes
14. Satie — Sonatine bureaucratique
15. Satie — Poudre d'or, valse
Satie — Pages mystiques
16. I. Prière
17. II. Vexations
18. III. Harmonies
19. Satie — Douze petits chorals (révision Robert Caby)
20. Satie — Les pantins dansent Presque lent
Orchestre des Concerts Lamoureux dirigé par Aldo Ciccolini
21. Satie — Le piège de Méduse Comédie lyrique en un acte avec 7 petites danses 2
pour 8 instruments
Pierre Bertin Baron Méduse, riche rentier- Hubert Deschamps Polycarpe, domestique -
Joseph-Marie Falcucci Astolpho, fiancé de Frisette - Marie Laurence Frisette, fille de
Méduse
Solistes de l'Orchestre des Concerts Lamoureux dirigés par Aldo Ciccolini

22. Satie — Choses vues à droite et à gauche (sans lunettes)
Choral hypocrite - Fugue à tâtons - Fantaisie musculaire
Yan-Pascal Tortelier violon
23. Déodat de Séverac — Stances à Madame de Pompadour

CD 26 Severac

Severac — En Languedoc
[07:25] 01. I.Vers le mas en fete
[05:14] 02. II.Sur I'etang,le soir
[03:41] 03. III.A cheval dans la prairie
[07:32] 04. IV.Coin de cimetiere,au printemps
[05:49] 05. V.Le jour de la fiore au mas
Severac — Premier recuell:Au chateau et dans le parc
[02:39] 06. Invocation a Schumann
[02:48] 07. I
[01:18] 08. II
[02:00] 09. III
[02:45] 10. IV
[01:42] 11. V
[01:19] 12. VI
[03:29] 13. VII
Severac — Deuxieme recueil
[05:41] 14. I.La fontaine de Chopin
[04:40] 15. II.La vasque aux colombes
[01:44] 16. III.Les deux mousquetaires
Severac — Le Soldat de plomb
[02:56] 17. I.Serenade Interrompue
[05:31] 18. II.Quat'jous de boite
[04:06] 19. III.Defile nuptial
[05:52] 20. Severac — Baigneuses au soleil

CD 27 Severac

Severac — Cerdana
[06:30] 01. I.En Tartane
[07:16] 02. III.Les fetes
[05:13] 03. III.Menetriers et glaneuses
[07:15] 04. VI.Les muletiers devant le Christ de Llivia
[04:48] 05. V.Le retour des muletiers
Severac — La chant de la terre
[06:29] 06. I.Prologue
[04:04] 07. II.Les semailles
[03:21] 08. III.Intermezzo
[04:15] 09. IV.La frele
[01:40] 10. V.Les moissons
[02:08] 11. VI.Epilogue
[06:32] 12. Severac — Les Naiades et le faune indiscret
[04:10] 13. Severac — Pipperment-get
[15:02] 14. Severac — Sous les lauriers roses

CD 28 Schumann, Brahms

Schumann — Kinderszenen, Op. 15
[01:39] 01. 1
[01:01] 02. 2
[00:29] 03. 3
[00:43] 04. 4
[00:36] 05. 5
[00:50] 06. 6
[02:29] 07. 7
[00:55] 08. 8
[00:38] 09. 9
[01:38] 10. 10
[01:51] 11. 11
[01:52] 12. 12
[02:12] 13. 13
Schumann — Waldszenen, Op. 82
[01:57] 14. 1
[01:22] 15. 2
[01:51] 16. 3
[02:40] 17. 4
[00:50] 18. 5
[01:57] 19. 6
[02:39] 20. 7
[02:22] 21. 8
[04:00] 22. 9
Schumann — 6 Intermezzi, Op. 4
[03:19] 23. 1
[03:31] 24. 2
[03:05] 25. 3
[01:22] 26. 4
[04:04] 27. 5
[02:18] 28. 6
Brahms — Klavierstucke, Op. 76
[03:27] 29. 1
[03:17] 30. 2
[02:29] 31. 3
[02:03] 32. 4
[03:08] 33. 5
[02:41] 34. 6
[02:54] 35. 7
[02:59] 36. 8

CD 29 Brahms

Brahms — Fantasien, Op. 116
[01:56] 01. No. 1: Capriccio in D minor
[03:54] 02. No. 2: Intermezzo in A minor
[02:49] 03. No. 3: Capriccio in G minor
[04:26] 04. No. 4: Intermezzo in E major
[02:59] 05. No. 5: Intermezzo in E minor
[02:54] 06. No. 6: Intermezzo in E major
[01:54] 07. No. 7: Capriccio in D minor
Brahms — Intermezzi, Op. 117
[04:20] 08. No. 1 in E flat major
[04:27] 09. No. 2 in B flat minor
[05:19] 10. No. 3 in C sharp minor
Brahms — Klavierstucke, Op. 118
[01:34] 11. No. 1: Intermezzo in A minor
[05:33] 12. No. 2: Intermezzo in A major
[03:12] 13. No. 3: Ballade in G minor
[02:30] 14. No. 4: Intermezzo in F minor
[04:02] 15. No. 5: Romanze in F major
[04:49] 16. No. 6: Intermezzo in E flat major
Brahms — Klavierstucke, Op. 119
[03:14] 17. No. 1: Intermezzo in B minor
[04:48] 18. No. 2: Intermezzo in E minor
[01:23] 19. No. 3: Intermezzo in C major
[05:04] 20. No. 4: Rhapsodie in E flat major

CD 30 Brahms, Schubert, Chopin

Brahms — Rhapsodies,op.79
[07:26] 01. N1 en si mineur
[05:15] 02. N2 en soi mineur
Schubert — Sonate No.21,D960
[14:31] 03. I.Molto moderato
[09:28] 04. II.Andante sostenuto
[03:46] 05. III.Scherzo:Allegro vivace con delicatezza
[07:34] 06. IV.Allegro ma non troppo
[01:58] 07. Schubert — Moment musical en fa mineur,D780 N3
[03:42] 08. Chopin — Prelude en la bemol majeur,op.28 n17
[13:11] 09. Chopin — Fantaisie en fa mineur,op.49

Лог создания рипа (CD 1 — CD 30)

CD 01

Exact Audio Copy V0.99 prebeta 5 from 4. May 2009
EAC 抓取日志文件从17. 二月 2010, 23:43
Ciccolini / Ciccolini-Complete EMI Recording CD01
使用驱动器 :PLEXTOR DVDR PX-716A Adapter: 0 ID: 0
读取模式 : 保护
使用精确流 : 是
废除音频缓冲 : 是
使用 C2 指针 : 否
读取偏移校正 : 30
读取 Lead-In 和 Lead-Out : 是
用静音填充抓取中丢失偏移的采样 : 是
去除首尾静音块 : 否
在 CRC 计算中使用了空样本 : 否
已用接口 : Win NT 及 2000 本地 Win32 接口
所用输出格式 : Monkey's Audio Lossless Encoder v3.99 DLL
样本格式 : Normal Lossless Compression
被抓轨 CD 的 TOC
音轨 | 开始 | 长度 | 起始扇区 | 结尾扇区
--------------------------------------------------
1 | 0:00.00 | 4:22.67 | 0 | 19716
2 | 4:22.67 | 6:26.37 | 19717 | 48703
3 | 10:49.29 | 4:12.69 | 48704 | 67672
4 | 15:02.23 | 4:25.44 | 67673 | 87591
5 | 19:27.67 | 6:06.04 | 87592 | 115045
6 | 25:33.71 | 5:42.53 | 115046 | 140748
7 | 31:16.49 | 9:00.11 | 140749 | 181259
8 | 40:16.60 | 3:14.17 | 181260 | 195826
9 | 43:31.02 | 2:36.69 | 195827 | 207595
10 | 46:07.71 | 4:36.10 | 207596 | 228305
11 | 50:44.06 | 4:32.14 | 228306 | 248719
12 | 55:16.20 | 4:48.51 | 248720 | 270370
13 | 60:04.71 | 4:27.65 | 270371 | 290460
14 | 64:32.61 | 1:57.23 | 290461 | 299258
15 | 66:30.09 | 1:57.38 | 299259 | 308071
16 | 68:27.47 | 3:32.22 | 308072 | 323993
17 | 71:59.69 | 4:30.14 | 323994 | 344257
范围状态及错误
已选择范围
文件名 F:\music\Ciccolini_Complete EMI Recordings(EMI 56CDs)\CD01\CDImage.ape
峰值电平 83.8 %
范围质量 99.9 %
复制 CRC EE342810
复制成功
没有错误发生
状态报告结尾

CD 02

Exact Audio Copy V0.99 prebeta 5 from 4. May 2009
EAC 抓取日志文件从18. 二月 2010, 0:05
Ciccolini / Ciccolini-Complete EMI Recording CD02
使用驱动器 :PLEXTOR DVDR PX-716A Adapter: 0 ID: 0
读取模式 : 保护
使用精确流 : 是
废除音频缓冲 : 是
使用 C2 指针 : 否
读取偏移校正 : 30
读取 Lead-In 和 Lead-Out : 是
用静音填充抓取中丢失偏移的采样 : 是
去除首尾静音块 : 否
在 CRC 计算中使用了空样本 : 否
已用接口 : Win NT 及 2000 本地 Win32 接口
所用输出格式 : Monkey's Audio Lossless Encoder v3.99 DLL
样本格式 : Normal Lossless Compression
被抓轨 CD 的 TOC
音轨 | 开始 | 长度 | 起始扇区 | 结尾扇区
--------------------------------------------------
1 | 0:00.00 | 4:01.48 | 0 | 18122
2 | 4:01.48 | 4:26.25 | 18123 | 38097
3 | 8:27.73 | 3:13.29 | 38098 | 52601
4 | 11:41.27 | 4:02.37 | 52602 | 70788
5 | 15:43.64 | 6:05.64 | 70789 | 98227
6 | 21:49.53 | 6:31.67 | 98228 | 127619
7 | 28:21.45 | 5:28.01 | 127620 | 152220
8 | 33:49.46 | 5:17.23 | 152221 | 176018
9 | 39:06.69 | 6:40.67 | 176019 | 206085
10 | 45:47.61 | 4:40.18 | 206086 | 227103
11 | 50:28.04 | 7:00.40 | 227104 | 258643
12 | 57:28.44 | 6:48.11 | 258644 | 289254
13 | 64:16.55 | 4:03.10 | 289255 | 307489
14 | 68:19.65 | 2:00.23 | 307490 | 316512
15 | 70:20.13 | 4:10.02 | 316513 | 335264
16 | 74:30.15 | 3:25.48 | 335265 | 350687
范围状态及错误
已选择范围
文件名 F:\music\Ciccolini_Complete EMI Recordings(EMI 56CDs)\CD02\CDImage.ape
峰值电平 89.6 %
范围质量 100.0 %
复制 CRC 5F0F03FE
复制成功
没有错误发生
状态报告结尾

CD 03

Exact Audio Copy V0.99 prebeta 5 from 4. May 2009
EAC 抓取日志文件从18. 二月 2010, 0:47
Ciccolini / Ciccolini-Complete EMI Recording CD03
使用驱动器 :PLEXTOR DVDR PX-716A Adapter: 0 ID: 0
读取模式 : 保护
使用精确流 : 是
废除音频缓冲 : 是
使用 C2 指针 : 否
读取偏移校正 : 30
读取 Lead-In 和 Lead-Out : 是
用静音填充抓取中丢失偏移的采样 : 是
去除首尾静音块 : 否
在 CRC 计算中使用了空样本 : 否
已用接口 : Win NT 及 2000 本地 Win32 接口
所用输出格式 : Monkey's Audio Lossless Encoder v3.99 DLL
样本格式 : Normal Lossless Compression
被抓轨 CD 的 TOC
音轨 | 开始 | 长度 | 起始扇区 | 结尾扇区
--------------------------------------------------
1 | 0:00.00 | 18:47.49 | 0 | 84573
2 | 18:47.49 | 6:38.17 | 84574 | 114440
3 | 25:25.66 | 6:26.11 | 114441 | 143401
4 | 31:52.02 | 16:41.32 | 143402 | 218508
5 | 48:33.34 | 11:41.48 | 218509 | 271131
6 | 60:15.07 | 7:19.31 | 271132 | 304087
7 | 67:34.38 | 7:39.71 | 304088 | 338583
8 | 75:14.34 | 1:40.19 | 338584 | 346102
9 | 76:54.53 | 2:23.44 | 346103 | 356871
范围状态及错误
已选择范围
文件名 F:\music\Ciccolini_Complete EMI Recordings(EMI 56CDs)\CD03\CDImage.ape
峰值电平 88.6 %
范围质量 100.0 %
复制 CRC 72A7F2F7
复制成功
没有错误发生
状态报告结尾

CD 04

Exact Audio Copy V0.99 prebeta 5 from 4. May 2009
EAC 抓取日志文件从18. 二月 2010, 1:04
Ciccolini / Ciccolini-Complete EMI Recording CD04
使用驱动器 :PLEXTOR DVDR PX-716A Adapter: 0 ID: 0
读取模式 : 保护
使用精确流 : 是
废除音频缓冲 : 是
使用 C2 指针 : 否
读取偏移校正 : 30
读取 Lead-In 和 Lead-Out : 是
用静音填充抓取中丢失偏移的采样 : 是
去除首尾静音块 : 否
在 CRC 计算中使用了空样本 : 否
已用接口 : Win NT 及 2000 本地 Win32 接口
所用输出格式 : Monkey's Audio Lossless Encoder v3.99 DLL
样本格式 : Normal Lossless Compression
被抓轨 CD 的 TOC
音轨 | 开始 | 长度 | 起始扇区 | 结尾扇区
--------------------------------------------------
1 | 0:00.00 | 19:46.30 | 0 | 88979
2 | 19:46.30 | 6:38.37 | 88980 | 118866
3 | 26:24.67 | 6:14.28 | 118867 | 146944
4 | 32:39.20 | 10:39.55 | 146945 | 194924
5 | 43:19.00 | 12:45.37 | 194925 | 252336
6 | 56:04.37 | 11:46.04 | 252337 | 305290
7 | 67:50.41 | 8:08.41 | 305291 | 341931
8 | 75:59.07 | 2:42.62 | 341932 | 354143
范围状态及错误
已选择范围
文件名 F:\music\Ciccolini_Complete EMI Recordings(EMI 56CDs)\CD04\CDImage.ape
峰值电平 92.4 %
范围质量 99.9 %
复制 CRC 22C58260
复制成功
没有错误发生
状态报告结尾

CD 05

Exact Audio Copy V0.99 prebeta 5 from 4. May 2009
EAC 抓取日志文件从18. 二月 2010, 8:18
Ciccolini / Ciccolini-Complete EMI Recording CD05
使用驱动器 :PLEXTOR DVDR PX-716A Adapter: 0 ID: 0
读取模式 : 保护
使用精确流 : 是
废除音频缓冲 : 是
使用 C2 指针 : 否
读取偏移校正 : 30
读取 Lead-In 和 Lead-Out : 是
用静音填充抓取中丢失偏移的采样 : 是
去除首尾静音块 : 否
在 CRC 计算中使用了空样本 : 否
已用接口 : Win NT 及 2000 本地 Win32 接口
所用输出格式 : Monkey's Audio Lossless Encoder v3.99 DLL
样本格式 : Normal Lossless Compression
被抓轨 CD 的 TOC
音轨 | 开始 | 长度 | 起始扇区 | 结尾扇区
--------------------------------------------------
1 | 0:00.00 | 4:53.12 | 0 | 21986
2 | 4:53.12 | 3:14.30 | 21987 | 36566
3 | 8:07.42 | 2:47.32 | 36567 | 49123
4 | 10:54.74 | 3:38.19 | 49124 | 65492
5 | 14:33.18 | 2:01.04 | 65493 | 74571
6 | 16:34.22 | 1:35.41 | 74572 | 81737
7 | 18:09.63 | 3:00.18 | 81738 | 95255
8 | 21:10.06 | 2:22.00 | 95256 | 105905
9 | 23:32.06 | 2:01.59 | 105906 | 115039
10 | 25:33.65 | 2:15.24 | 115040 | 125188
11 | 27:49.14 | 1:32.26 | 125189 | 132114
12 | 29:21.40 | 3:57.55 | 132115 | 149944
13 | 33:19.20 | 3:07.31 | 149945 | 164000
14 | 36:26.51 | 2:37.28 | 164001 | 175803
15 | 39:04.04 | 0:44.46 | 175804 | 179149
16 | 39:48.50 | 1:09.05 | 179150 | 184329
17 | 40:57.55 | 2:30.32 | 184330 | 195611
18 | 43:28.12 | 2:01.07 | 195612 | 204693
19 | 45:29.19 | 1:34.22 | 204694 | 211765
20 | 47:03.41 | 1:31.58 | 211766 | 218648
21 | 48:35.24 | 1:42.14 | 218649 | 226312
22 | 50:17.38 | 0:49.02 | 226313 | 229989
23 | 51:06.40 | 0:39.46 | 229990 | 232960
24 | 51:46.11 | 2:33.65 | 232961 | 244500
25 | 54:20.01 | 1:38.73 | 244501 | 251923
26 | 55:58.74 | 2:35.60 | 251924 | 263608
27 | 58:34.59 | 3:01.43 | 263609 | 277226
28 | 61:36.27 | 2:34.44 | 277227 | 288820
29 | 64:10.71 | 2:20.34 | 288821 | 299354
30 | 66:31.30 | 0:54.20 | 299355 | 303424
31 | 67:25.50 | 1:02.71 | 303425 | 308145
32 | 68:28.46 | 0:40.15 | 308146 | 311160
33 | 69:08.61 | 1:00.62 | 311161 | 315722
34 | 70:09.48 | 1:10.63 | 315723 | 321035
35 | 71:20.36 | 0:53.47 | 321036 | 325057
36 | 72:14.08 | 3:21.39 | 325058 | 340171
37 | 75:35.47 | 1:47.64 | 340172 | 348260
38 | 77:23.36 | 2:32.45 | 348261 | 359705
范围状态及错误
已选择范围
文件名 F:\music\Ciccolini_Complete EMI Recordings(EMI 56CDs)\CD05\CDImage.ape
峰值电平 90.3 %
范围质量 100.0 %
复制 CRC B59E1408
复制成功
没有错误发生
状态报告结尾

CD 06

Exact Audio Copy V0.99 prebeta 5 from 4. May 2009
EAC 抓取日志文件从18. 二月 2010, 12:47
Ciccolini / Ciccolini-Complete EMI Recording CD06
使用驱动器 :PLEXTOR DVDR PX-716A Adapter: 0 ID: 0
读取模式 : 保护
使用精确流 : 是
废除音频缓冲 : 是
使用 C2 指针 : 否
读取偏移校正 : 30
读取 Lead-In 和 Lead-Out : 是
用静音填充抓取中丢失偏移的采样 : 是
去除首尾静音块 : 否
在 CRC 计算中使用了空样本 : 否
已用接口 : Win NT 及 2000 本地 Win32 接口
所用输出格式 : Monkey's Audio Lossless Encoder v3.99 DLL
样本格式 : Normal Lossless Compression
被抓轨 CD 的 TOC
音轨 | 开始 | 长度 | 起始扇区 | 结尾扇区
--------------------------------------------------
1 | 0:00.00 | 4:34.24 | 0 | 20573
2 | 4:34.24 | 6:26.07 | 20574 | 49530
3 | 11:00.31 | 2:14.29 | 49531 | 59609
4 | 13:14.60 | 4:49.14 | 59610 | 81298
5 | 18:03.74 | 4:21.42 | 81299 | 100915
6 | 22:25.41 | 1:44.60 | 100916 | 108775
7 | 24:10.26 | 5:20.56 | 108776 | 132831
8 | 29:31.07 | 5:04.33 | 132832 | 155664
9 | 34:35.40 | 10:42.55 | 155665 | 203869
10 | 45:18.20 | 14:16.53 | 203870 | 268122
11 | 59:34.73 | 11:00.73 | 268123 | 317695
12 | 70:35.71 | 4:23.62 | 317696 | 337482
范围状态及错误
已选择范围
文件名 F:\music\Ciccolini_Complete EMI Recordings(EMI 56CDs)\CD06\CDImage.ape
峰值电平 96.6 %
范围质量 99.9 %
复制 CRC 899EECE0
复制成功
没有错误发生
状态报告结尾

CD 07

Exact Audio Copy V0.99 prebeta 5 from 4. May 2009
EAC 抓取日志文件从18. 二月 2010, 13:21
Ciccolini / Ciccolini-Complete EMI Recording CD07
使用驱动器 :PLEXTOR DVDR PX-716A Adapter: 0 ID: 0
读取模式 : 保护
使用精确流 : 是
废除音频缓冲 : 是
使用 C2 指针 : 否
读取偏移校正 : 30
读取 Lead-In 和 Lead-Out : 是
用静音填充抓取中丢失偏移的采样 : 是
去除首尾静音块 : 否
在 CRC 计算中使用了空样本 : 否
已用接口 : Win NT 及 2000 本地 Win32 接口
所用输出格式 : Monkey's Audio Lossless Encoder v3.99 DLL
样本格式 : Normal Lossless Compression
被抓轨 CD 的 TOC
音轨 | 开始 | 长度 | 起始扇区 | 结尾扇区
--------------------------------------------------
1 | 0:00.00 | 6:07.41 | 0 | 27565
2 | 6:07.41 | 2:48.08 | 27566 | 40173
3 | 8:55.49 | 1:46.70 | 40174 | 48193
4 | 10:42.44 | 3:10.19 | 48194 | 62462
5 | 13:52.63 | 4:15.61 | 62463 | 81648
6 | 18:08.49 | 12:57.72 | 81649 | 139995
7 | 31:06.46 | 3:54.44 | 139996 | 157589
8 | 35:01.15 | 5:01.21 | 157590 | 180185
9 | 40:02.36 | 6:34.36 | 180186 | 209771
10 | 46:36.72 | 7:23.72 | 209772 | 243068
11 | 54:00.69 | 3:27.41 | 243069 | 258634
12 | 57:28.35 | 3:05.14 | 258635 | 272523
13 | 60:33.49 | 5:52.01 | 272524 | 298924
14 | 66:25.50 | 6:13.55 | 298925 | 326954
15 | 72:39.30 | 6:30.27 | 326955 | 356231
范围状态及错误
已选择范围
文件名 F:\music\Ciccolini_Complete EMI Recordings(EMI 56CDs)\CD07\CDImage.ape
峰值电平 92.9 %
范围质量 100.0 %
复制 CRC 2BA9958A
复制成功
没有错误发生
状态报告结尾

CD 08

AUDIOCHECKER v2.0 beta (build 457) - by Dester - opdester@freemail.hu
~~~~~~~~~~~~~~~~~~~~~~~~~~~~~~~~~~
-=== DO NOT EDIT THIS FILE! ===-
Path: ...\CD08
1 -=- CDImage.ape -=- CDDA (100%)
2629300

CD 09

Exact Audio Copy V0.99 prebeta 5 from 4. May 2009
EAC 抓取日志文件从18. 二月 2010, 14:57
Ciccolini / Ciccolini-Complete EMI Recording CD09
使用驱动器 :PLEXTOR DVDR PX-716A Adapter: 0 ID: 0
读取模式 : 保护
使用精确流 : 是
废除音频缓冲 : 是
使用 C2 指针 : 否
读取偏移校正 : 30
读取 Lead-In 和 Lead-Out : 是
用静音填充抓取中丢失偏移的采样 : 是
去除首尾静音块 : 否
在 CRC 计算中使用了空样本 : 否
已用接口 : Win NT 及 2000 本地 Win32 接口
所用输出格式 : Monkey's Audio Lossless Encoder v3.99 DLL
样本格式 : Normal Lossless Compression
被抓轨 CD 的 TOC
音轨 | 开始 | 长度 | 起始扇区 | 结尾扇区
--------------------------------------------------
1 | 0:00.00 | 1:56.47 | 0 | 8746
2 | 1:56.47 | 2:56.62 | 8747 | 22008
3 | 4:53.34 | 3:43.41 | 22009 | 38774
4 | 8:37.00 | 3:08.28 | 38775 | 52902
5 | 11:45.28 | 2:48.57 | 52903 | 65559
6 | 14:34.10 | 2:37.44 | 65560 | 77378
7 | 17:11.54 | 7:16.23 | 77379 | 110101
8 | 24:28.02 | 3:29.34 | 110102 | 125810
9 | 27:57.36 | 2:22.74 | 125811 | 136534
10 | 30:20.35 | 3:49.26 | 136535 | 153735
11 | 34:09.61 | 3:53.30 | 153736 | 171240
12 | 38:03.16 | 3:47.27 | 171241 | 188292
13 | 41:50.43 | 3:04.39 | 188293 | 202131
14 | 44:55.07 | 2:30.68 | 202132 | 213449
15 | 47:26.00 | 3:06.24 | 213450 | 227423
16 | 50:32.24 | 11:56.43 | 227424 | 281166
17 | 62:28.67 | 5:27.31 | 281167 | 305722
18 | 67:56.23 | 10:07.37 | 305723 | 351284
范围状态及错误
已选择范围
文件名 F:\music\Ciccolini_Complete EMI Recordings(EMI 56CDs)\CD09\CDImage.ape
峰值电平 91.7 %
范围质量 100.0 %
复制 CRC 8A6EC0A0
复制成功
没有错误发生
状态报告结尾

CD 10

Exact Audio Copy V0.99 prebeta 5 from 4. May 2009
EAC 抓取日志文件从18. 二月 2010, 15:29
Ciccolini / Ciccolini-Complete EMI Recording CD10
使用驱动器 :PLEXTOR DVDR PX-716A Adapter: 0 ID: 0
读取模式 : 保护
使用精确流 : 是
废除音频缓冲 : 是
使用 C2 指针 : 否
读取偏移校正 : 30
读取 Lead-In 和 Lead-Out : 是
用静音填充抓取中丢失偏移的采样 : 是
去除首尾静音块 : 否
在 CRC 计算中使用了空样本 : 否
已用接口 : Win NT 及 2000 本地 Win32 接口
所用输出格式 : Monkey's Audio Lossless Encoder v3.99 DLL
样本格式 : Normal Lossless Compression
被抓轨 CD 的 TOC
音轨 | 开始 | 长度 | 起始扇区 | 结尾扇区
--------------------------------------------------
1 | 0:00.00 | 1:18.73 | 0 | 5922
2 | 1:18.73 | 1:40.39 | 5923 | 13461
3 | 2:59.37 | 1:06.04 | 13462 | 18415
4 | 4:05.41 | 0:51.05 | 18416 | 22245
5 | 4:56.46 | 2:01.46 | 22246 | 31366
6 | 6:58.17 | 3:06.25 | 31367 | 45341
7 | 10:04.42 | 2:21.24 | 45342 | 55940
8 | 12:25.66 | 0:55.19 | 55941 | 60084
9 | 13:21.10 | 1:48.05 | 60085 | 68189
10 | 15:09.15 | 1:01.69 | 68190 | 72833
11 | 16:11.09 | 1:02.43 | 72834 | 77526
12 | 17:13.52 | 1:19.25 | 77527 | 83476
13 | 18:33.02 | 0:57.21 | 83477 | 87772
14 | 19:30.23 | 1:37.07 | 87773 | 95054
15 | 21:07.30 | 1:37.18 | 95055 | 102347
16 | 22:44.48 | 1:27.40 | 102348 | 108912
17 | 24:12.13 | 1:50.41 | 108913 | 117203
18 | 26:02.54 | 1:25.31 | 117204 | 123609
19 | 27:28.10 | 2:19.39 | 123610 | 134073
20 | 29:47.49 | 2:35.15 | 134074 | 145713
21 | 32:22.64 | 1:32.49 | 145714 | 152662
22 | 33:55.38 | 2:37.52 | 152663 | 164489
23 | 36:33.15 | 1:17.00 | 164490 | 170264
24 | 37:50.15 | 3:28.18 | 170265 | 185882
25 | 41:18.33 | 1:00.23 | 185883 | 190405
26 | 42:18.56 | 1:57.26 | 190406 | 199206
27 | 44:16.07 | 1:33.30 | 199207 | 206211
28 | 45:49.37 | 2:00.42 | 206212 | 215253
29 | 47:50.04 | 2:03.66 | 215254 | 224544
30 | 49:53.70 | 1:57.01 | 224545 | 233320
31 | 51:50.71 | 4:18.29 | 233321 | 252699
32 | 56:09.25 | 5:18.68 | 252700 | 276617
33 | 61:28.18 | 2:44.07 | 276618 | 288924
34 | 64:12.25 | 4:16.37 | 288925 | 308161
35 | 68:28.62 | 5:09.61 | 308162 | 331397
36 | 73:38.48 | 6:16.25 | 331398 | 359622
范围状态及错误
已选择范围
文件名 F:\music\Ciccolini_Complete EMI Recordings(EMI 56CDs)\CD10\CDImage.ape
峰值电平 86.3 %
范围质量 99.9 %
复制 CRC 8FE9D1E5
复制成功
没有错误发生
状态报告结尾

CD 11

Exact Audio Copy V0.99 prebeta 5 from 4. May 2009
EAC 抓取日志文件从18. 二月 2010, 17:22
Ciccolini / Ciccolini-Complete EMI Recording CD11
使用驱动器 :PLEXTOR DVDR PX-716A Adapter: 0 ID: 0
读取模式 : 保护
使用精确流 : 是
废除音频缓冲 : 是
使用 C2 指针 : 否
读取偏移校正 : 30
读取 Lead-In 和 Lead-Out : 是
用静音填充抓取中丢失偏移的采样 : 是
去除首尾静音块 : 否
在 CRC 计算中使用了空样本 : 否
已用接口 : Win NT 及 2000 本地 Win32 接口
所用输出格式 : Monkey's Audio Lossless Encoder v3.99 DLL
样本格式 : Normal Lossless Compression
被抓轨 CD 的 TOC
音轨 | 开始 | 长度 | 起始扇区 | 结尾扇区
--------------------------------------------------
1 | 0:00.00 | 3:25.48 | 0 | 15422
2 | 3:25.48 | 4:11.22 | 15423 | 34269
3 | 7:36.70 | 1:57.38 | 34270 | 43082
4 | 9:34.33 | 4:00.40 | 43083 | 61122
5 | 13:34.73 | 2:05.58 | 61123 | 70555
6 | 15:40.56 | 2:42.08 | 70556 | 82713
7 | 18:22.64 | 2:51.55 | 82714 | 95593
8 | 21:14.44 | 1:52.57 | 95594 | 104050
9 | 23:07.26 | 2:02.50 | 104051 | 113250
10 | 25:10.01 | 2:48.04 | 113251 | 125854
11 | 27:58.05 | 8:56.08 | 125855 | 166062
12 | 36:54.13 | 6:38.06 | 166063 | 195918
13 | 43:32.19 | 3:22.41 | 195919 | 211109
14 | 46:54.60 | 3:48.49 | 211110 | 228258
15 | 50:43.34 | 10:23.46 | 228259 | 275029
16 | 61:07.05 | 18:39.49 | 275030 | 359003
范围状态及错误
已选择范围
文件名 F:\music\Ciccolini_Complete EMI Recordings(EMI 56CDs)\CD11\CDImage.ape
峰值电平 89.9 %
范围质量 100.0 %
复制 CRC 4244D6F5
复制成功
没有错误发生
状态报告结尾

CD 12

Exact Audio Copy V0.99 prebeta 5 from 4. May 2009
EAC 抓取日志文件从18. 二月 2010, 17:57
Ciccolini / Ciccolini-Complete EMI Recording CD12
使用驱动器 :PLEXTOR DVDR PX-716A Adapter: 0 ID: 0
读取模式 : 保护
使用精确流 : 是
废除音频缓冲 : 是
使用 C2 指针 : 否
读取偏移校正 : 30
读取 Lead-In 和 Lead-Out : 是
用静音填充抓取中丢失偏移的采样 : 是
去除首尾静音块 : 否
在 CRC 计算中使用了空样本 : 否
已用接口 : Win NT 及 2000 本地 Win32 接口
所用输出格式 : Monkey's Audio Lossless Encoder v3.99 DLL
样本格式 : Normal Lossless Compression
被抓轨 CD 的 TOC
音轨 | 开始 | 长度 | 起始扇区 | 结尾扇区
--------------------------------------------------
1 | 0:00.00 | 4:54.15 | 0 | 22064
2 | 4:54.15 | 4:26.55 | 22065 | 42069
3 | 9:20.70 | 5:30.72 | 42070 | 66891
4 | 14:51.67 | 2:05.68 | 66892 | 76334
5 | 16:57.60 | 3:41.26 | 76335 | 92935
6 | 20:39.11 | 1:42.02 | 92936 | 100587
7 | 22:21.13 | 3:17.71 | 100588 | 115433
8 | 25:39.09 | 2:20.60 | 115434 | 125993
9 | 27:59.69 | 3:26.64 | 125994 | 141507
10 | 31:26.58 | 3:52.30 | 141508 | 158937
11 | 35:19.13 | 1:53.62 | 158938 | 167474
12 | 37:13.00 | 3:06.69 | 167475 | 181493
13 | 40:19.69 | 3:07.35 | 181494 | 195553
14 | 43:27.29 | 1:13.11 | 195554 | 201039
15 | 44:40.40 | 1:53.66 | 201040 | 209580
16 | 46:34.31 | 2:20.01 | 209581 | 220081
17 | 48:54.32 | 2:06.53 | 220082 | 229584
18 | 51:01.10 | 2:04.41 | 229585 | 238925
19 | 53:05.51 | 4:01.50 | 238926 | 257050
20 | 57:07.26 | 4:09.31 | 257051 | 275756
21 | 61:16.57 | 2:49.64 | 275757 | 288495
22 | 64:06.46 | 6:06.71 | 288496 | 316016
23 | 70:13.42 | 3:35.10 | 316017 | 332151
24 | 73:48.52 | 4:02.51 | 332152 | 350352
范围状态及错误
已选择范围
文件名 F:\music\Ciccolini_Complete EMI Recordings(EMI 56CDs)\CD12\CDImage.ape
峰值电平 97.7 %
范围质量 100.0 %
复制 CRC 546717C3
复制成功
没有错误发生
状态报告结尾

CD 13

Exact Audio Copy V0.99 prebeta 5 from 4. May 2009
EAC 抓取日志文件从18. 二月 2010, 18:25
Ciccolini / Ciccolini-Complete EMI Recording CD13
使用驱动器 :PLEXTOR DVDR PX-716A Adapter: 0 ID: 0
读取模式 : 保护
使用精确流 : 是
废除音频缓冲 : 是
使用 C2 指针 : 否
读取偏移校正 : 30
读取 Lead-In 和 Lead-Out : 是
用静音填充抓取中丢失偏移的采样 : 是
去除首尾静音块 : 否
在 CRC 计算中使用了空样本 : 否
已用接口 : Win NT 及 2000 本地 Win32 接口
所用输出格式 : Monkey's Audio Lossless Encoder v3.99 DLL
样本格式 : Normal Lossless Compression
被抓轨 CD 的 TOC
音轨 | 开始 | 长度 | 起始扇区 | 结尾扇区
--------------------------------------------------
1 | 0:00.00 | 16:08.59 | 0 | 72658
2 | 16:08.59 | 1:45.37 | 72659 | 80570
3 | 17:54.21 | 0:43.71 | 80571 | 83866
4 | 18:38.17 | 1:17.56 | 83867 | 89697
5 | 19:55.73 | 3:14.41 | 89698 | 104288
6 | 23:10.39 | 1:42.70 | 104289 | 112008
7 | 24:53.34 | 3:02.21 | 112009 | 125679
8 | 27:55.55 | 1:30.31 | 125680 | 132460
9 | 29:26.11 | 3:17.32 | 132461 | 147267
10 | 32:43.43 | 1:36.59 | 147268 | 154526
11 | 34:20.27 | 2:00.20 | 154527 | 163546
12 | 36:20.47 | 1:00.07 | 163547 | 168053
13 | 37:20.54 | 5:11.37 | 168054 | 191415
14 | 42:32.16 | 0:31.69 | 191416 | 193809
15 | 43:04.10 | 1:10.40 | 193810 | 199099
16 | 44:14.50 | 3:00.30 | 199100 | 212629
17 | 47:15.05 | 0:52.66 | 212630 | 216595
18 | 48:07.71 | 1:08.70 | 216596 | 221765
19 | 49:16.66 | 2:12.43 | 221766 | 231708
20 | 51:29.34 | 1:28.31 | 231709 | 238339
21 | 52:57.65 | 1:24.27 | 238340 | 244666
22 | 54:22.17 | 1:57.04 | 244667 | 253445
23 | 56:19.21 | 1:56.69 | 253446 | 262214
24 | 58:16.15 | 3:06.28 | 262215 | 276192
25 | 61:22.43 | 4:53.00 | 276193 | 298167
范围状态及错误
已选择范围
文件名 F:\music\Ciccolini_Complete EMI Recordings(EMI 56CDs)\CD13\CDImage.ape
峰值电平 93.3 %
范围质量 100.0 %
复制 CRC 71FEFDC5
复制成功
没有错误发生
状态报告结尾

CD 14

Exact Audio Copy V0.99 prebeta 5 from 4. May 2009
EAC 抓取日志文件从18. 二月 2010, 19:17
Ciccolini / Ciccolini-Complete EMI Recording CD14
使用驱动器 :PLEXTOR DVDR PX-716A Adapter: 0 ID: 0
读取模式 : 保护
使用精确流 : 是
废除音频缓冲 : 是
使用 C2 指针 : 否
读取偏移校正 : 30
读取 Lead-In 和 Lead-Out : 是
用静音填充抓取中丢失偏移的采样 : 是
去除首尾静音块 : 否
在 CRC 计算中使用了空样本 : 否
已用接口 : Win NT 及 2000 本地 Win32 接口
所用输出格式 : Monkey's Audio Lossless Encoder v3.99 DLL
样本格式 : Normal Lossless Compression
被抓轨 CD 的 TOC
音轨 | 开始 | 长度 | 起始扇区 | 结尾扇区
--------------------------------------------------
1 | 0:00.00 | 6:36.52 | 0 | 29751
2 | 6:36.52 | 2:42.57 | 29752 | 41958
3 | 9:19.34 | 1:38.63 | 41959 | 49371
4 | 10:58.22 | 3:13.70 | 49372 | 63916
5 | 14:12.17 | 3:58.21 | 63917 | 81787
6 | 18:10.38 | 12:45.36 | 81788 | 139198
7 | 30:55.74 | 3:35.71 | 139199 | 155394
8 | 34:31.70 | 5:45.44 | 155395 | 181313
9 | 40:17.39 | 5:25.56 | 181314 | 205744
10 | 45:43.20 | 7:13.27 | 205745 | 238246
11 | 52:56.47 | 3:33.12 | 238247 | 254233
12 | 56:29.59 | 3:10.08 | 254234 | 268491
13 | 59:39.67 | 5:43.63 | 268492 | 294279
14 | 65:23.55 | 6:11.10 | 294280 | 322114
15 | 71:34.65 | 6:11.20 | 322115 | 349959
范围状态及错误
已选择范围
文件名 F:\music\Ciccolini_Complete EMI Recordings(EMI 56CDs)\CD14\CDImage.ape
峰值电平 85.6 %
范围质量 99.9 %
复制 CRC E3E9F2F7
复制成功
没有错误发生
状态报告结尾

CD 15

Exact Audio Copy V0.99 prebeta 5 from 4. May 2009
EAC 抓取日志文件从18. 二月 2010, 19:31
Ciccolini / Ciccolini-Complete EMI Recording CD15-Liszt
使用驱动器 :PLEXTOR DVDR PX-716A Adapter: 0 ID: 0
读取模式 : 保护
使用精确流 : 是
废除音频缓冲 : 是
使用 C2 指针 : 否
读取偏移校正 : 30
读取 Lead-In 和 Lead-Out : 是
用静音填充抓取中丢失偏移的采样 : 是
去除首尾静音块 : 否
在 CRC 计算中使用了空样本 : 否
已用接口 : Win NT 及 2000 本地 Win32 接口
所用输出格式 : Monkey's Audio Lossless Encoder v3.99 DLL
样本格式 : Normal Lossless Compression
被抓轨 CD 的 TOC
音轨 | 开始 | 长度 | 起始扇区 | 结尾扇区
--------------------------------------------------
1 | 0:00.00 | 13:47.10 | 0 | 62034
2 | 13:47.10 | 5:11.08 | 62035 | 85367
3 | 18:58.18 | 3:50.35 | 85368 | 102652
4 | 22:48.53 | 8:23.48 | 102653 | 140425
5 | 31:12.26 | 6:05.36 | 140426 | 167836
6 | 37:17.62 | 5:55.54 | 167837 | 194515
7 | 43:13.41 | 8:43.58 | 194516 | 233798
8 | 51:57.24 | 7:31.47 | 233799 | 267670
9 | 59:28.71 | 5:12.42 | 267671 | 291112
10 | 64:41.38 | 6:18.50 | 291113 | 319512
11 | 71:00.13 | 3:01.45 | 319513 | 333132
范围状态及错误
已选择范围
文件名 F:\music\Ciccolini_Complete EMI Recordings(EMI 56CDs)\CD15\CDImage.ape
峰值电平 87.1 %
范围质量 100.0 %
复制 CRC A4A65D1C
复制成功
没有错误发生
状态报告结尾

CD 16

Exact Audio Copy V0.99 prebeta 5 from 4. May 2009
EAC 抓取日志文件从18. 二月 2010, 20:11
Franz Liszt / Ciccolini-Complete EMI Recording CD16
使用驱动器 :PLEXTOR DVDR PX-716A Adapter: 0 ID: 0
读取模式 : 保护
使用精确流 : 是
废除音频缓冲 : 是
使用 C2 指针 : 否
读取偏移校正 : 30
读取 Lead-In 和 Lead-Out : 是
用静音填充抓取中丢失偏移的采样 : 是
去除首尾静音块 : 否
在 CRC 计算中使用了空样本 : 否
已用接口 : Win NT 及 2000 本地 Win32 接口
所用输出格式 : Monkey's Audio Lossless Encoder v3.99 DLL
样本格式 : Normal Lossless Compression
被抓轨 CD 的 TOC
音轨 | 开始 | 长度 | 起始扇区 | 结尾扇区
--------------------------------------------------
1 | 0:00.00 | 7:54.03 | 0 | 35552
2 | 7:54.03 | 6:23.29 | 35553 | 64306
3 | 14:17.32 | 15:52.74 | 64307 | 135780
4 | 30:10.31 | 12:33.57 | 135781 | 192312
5 | 42:44.13 | 2:50.15 | 192313 | 205077
6 | 45:34.28 | 6:18.62 | 205078 | 233489
7 | 51:53.15 | 10:06.21 | 233490 | 278960
8 | 61:59.36 | 3:48.27 | 278961 | 296087
9 | 65:47.63 | 6:17.67 | 296088 | 324429
10 | 72:05.55 | 7:07.14 | 324430 | 356468
范围状态及错误
已选择范围
文件名 F:\music\Ciccolini_Complete EMI Recordings(EMI 56CDs)\CD16\CDImage.ape
峰值电平 89.1 %
范围质量 100.0 %
复制 CRC 92EEA5F6
复制成功
没有错误发生
状态报告结尾

CD 17

Exact Audio Copy V0.99 prebeta 5 from 4. May 2009
EAC 抓取日志文件从18. 二月 2010, 20:41
Ciccolini / Ciccolini-Complete EMI Recording CD17
使用驱动器 :PLEXTOR DVDR PX-716A Adapter: 0 ID: 0
读取模式 : 保护
使用精确流 : 是
废除音频缓冲 : 是
使用 C2 指针 : 否
读取偏移校正 : 30
读取 Lead-In 和 Lead-Out : 是
用静音填充抓取中丢失偏移的采样 : 是
去除首尾静音块 : 否
在 CRC 计算中使用了空样本 : 否
已用接口 : Win NT 及 2000 本地 Win32 接口
所用输出格式 : Monkey's Audio Lossless Encoder v3.99 DLL
样本格式 : Normal Lossless Compression
被抓轨 CD 的 TOC
音轨 | 开始 | 长度 | 起始扇区 | 结尾扇区
--------------------------------------------------
1 | 0:00.00 | 1:06.70 | 0 | 5019
2 | 1:06.70 | 2:49.03 | 5020 | 17697
3 | 3:55.73 | 4:10.39 | 17698 | 36486
4 | 8:06.37 | 2:22.34 | 36487 | 47170
5 | 10:28.71 | 1:58.41 | 47171 | 56061
6 | 12:27.37 | 2:35.73 | 56062 | 67759
7 | 15:03.35 | 8:43.59 | 67760 | 107043
8 | 23:47.19 | 8:49.36 | 107044 | 146754
9 | 32:36.55 | 6:33.53 | 146755 | 176282
10 | 39:10.33 | 4:42.24 | 176283 | 197456
11 | 43:52.57 | 4:23.27 | 197457 | 217208
12 | 48:16.09 | 7:20.43 | 217209 | 250251
13 | 55:36.52 | 13:42.58 | 250252 | 311959
14 | 69:19.35 | 3:01.42 | 311960 | 325576
15 | 72:21.02 | 2:15.64 | 325577 | 335765
范围状态及错误
已选择范围
文件名 F:\music\Ciccolini_Complete EMI Recordings(EMI 56CDs)\CD17\CDImage.ape
峰值电平 94.0 %
范围质量 99.9 %
复制 CRC FF3C777A
复制成功
没有错误发生
状态报告结尾

CD 18

Exact Audio Copy V0.99 prebeta 5 from 4. May 2009
EAC 抓取日志文件从18. 二月 2010, 20:54
Enrique Granados / Goyescas, Iberia (Disc 1)Ciccolini-Complete EMI Recording CD18
使用驱动器 :PLEXTOR DVDR PX-716A Adapter: 0 ID: 0
读取模式 : 保护
使用精确流 : 是
废除音频缓冲 : 是
使用 C2 指针 : 否
读取偏移校正 : 30
读取 Lead-In 和 Lead-Out : 是
用静音填充抓取中丢失偏移的采样 : 是
去除首尾静音块 : 否
在 CRC 计算中使用了空样本 : 否
已用接口 : Win NT 及 2000 本地 Win32 接口
所用输出格式 : Monkey's Audio Lossless Encoder v3.99 DLL
样本格式 : Normal Lossless Compression
被抓轨 CD 的 TOC
音轨 | 开始 | 长度 | 起始扇区 | 结尾扇区
--------------------------------------------------
1 | 0:00.00 | 7:16.22 | 0 | 32721
2 | 7:16.22 | 11:20.20 | 32722 | 83741
3 | 18:36.42 | 6:32.69 | 83742 | 113210
4 | 25:09.36 | 6:01.43 | 113211 | 140328
5 | 31:11.04 | 11:44.35 | 140329 | 193163
6 | 42:55.39 | 6:35.17 | 193164 | 222805
7 | 49:30.56 | 5:05.38 | 222806 | 245718
8 | 54:36.19 | 3:49.45 | 245719 | 262938
9 | 58:25.64 | 7:54.08 | 262939 | 298496
范围状态及错误
已选择范围
文件名 F:\music\Ciccolini_Complete EMI Recordings(EMI 56CDs)\CD18\CDImage.ape
峰值电平 87.0 %
范围质量 100.0 %
复制 CRC DCE25CDD
复制成功
没有错误发生
状态报告结尾

CD 19

Exact Audio Copy V0.99 prebeta 5 from 4. May 2009
EAC 抓取日志文件从18. 二月 2010, 21:16
Ciccolini / Ciccolini-Complete EMI Recording CD19
使用驱动器 :PLEXTOR DVDR PX-716A Adapter: 0 ID: 0
读取模式 : 保护
使用精确流 : 是
废除音频缓冲 : 是
使用 C2 指针 : 否
读取偏移校正 : 30
读取 Lead-In 和 Lead-Out : 是
用静音填充抓取中丢失偏移的采样 : 是
去除首尾静音块 : 否
在 CRC 计算中使用了空样本 : 否
已用接口 : Win NT 及 2000 本地 Win32 接口
所用输出格式 : Monkey's Audio Lossless Encoder v3.99 DLL
样本格式 : Normal Lossless Compression
被抓轨 CD 的 TOC
音轨 | 开始 | 长度 | 起始扇区 | 结尾扇区
--------------------------------------------------
1 | 0:00.00 | 6:44.69 | 0 | 30368
2 | 6:44.69 | 8:32.14 | 30369 | 68782
3 | 15:17.08 | 5:27.63 | 68783 | 93370
4 | 20:44.71 | 7:20.64 | 93371 | 126434
5 | 28:05.60 | 7:11.64 | 126435 | 158823
6 | 35:17.49 | 7:32.54 | 158824 | 192777
7 | 42:50.28 | 5:13.05 | 192778 | 216257
8 | 48:03.33 | 11:13.42 | 216258 | 266774
9 | 59:17.00 | 5:58.60 | 266775 | 293684
10 | 65:15.60 | 6:25.06 | 293685 | 322565
11 | 71:40.66 | 3:26.43 | 322566 | 338058
12 | 75:07.34 | 3:47.73 | 338059 | 355156
范围状态及错误
已选择范围
文件名 F:\music\Ciccolini_Complete EMI Recordings(EMI 56CDs)\CD19\CDImage.ape
峰值电平 85.1 %
范围质量 100.0 %
复制 CRC EB47C370
复制成功
没有错误发生
状态报告结尾

CD 20

Exact Audio Copy V0.99 prebeta 5 from 4. May 2009
EAC 抓取日志文件从18. 二月 2010, 21:38
Ciccolini / Ciccolini-Complete EMI Recording CD20
使用驱动器 :PLEXTOR DVDR PX-716A Adapter: 0 ID: 0
读取模式 : 保护
使用精确流 : 是
废除音频缓冲 : 是
使用 C2 指针 : 否
读取偏移校正 : 30
读取 Lead-In 和 Lead-Out : 是
用静音填充抓取中丢失偏移的采样 : 是
去除首尾静音块 : 否
在 CRC 计算中使用了空样本 : 否
已用接口 : Win NT 及 2000 本地 Win32 接口
所用输出格式 : Monkey's Audio Lossless Encoder v3.99 DLL
样本格式 : Normal Lossless Compression
被抓轨 CD 的 TOC
音轨 | 开始 | 长度 | 起始扇区 | 结尾扇区
--------------------------------------------------
1 | 0:00.00 | 6:04.40 | 0 | 27339
2 | 6:04.40 | 2:02.32 | 27340 | 36521
3 | 8:06.72 | 1:15.62 | 36522 | 42208
4 | 9:22.59 | 4:08.69 | 42209 | 60877
5 | 13:31.53 | 1:59.09 | 60878 | 69811
6 | 15:30.62 | 3:02.09 | 69812 | 83470
7 | 18:32.71 | 3:16.38 | 83471 | 98208
8 | 21:49.34 | 3:58.44 | 98209 | 116102
9 | 25:48.03 | 5:29.54 | 116103 | 140831
10 | 31:17.57 | 4:18.01 | 140832 | 160182
11 | 35:35.58 | 1:56.00 | 160183 | 168882
12 | 37:31.58 | 6:40.49 | 168883 | 198931
13 | 44:12.32 | 5:33.08 | 198932 | 223914
14 | 49:45.40 | 4:59.69 | 223915 | 246408
15 | 54:45.34 | 4:44.42 | 246409 | 267750
16 | 59:30.01 | 2:52.40 | 267751 | 280690
17 | 62:22.41 | 3:23.11 | 280691 | 295926
18 | 65:45.52 | 12:04.36 | 295927 | 350262
范围状态及错误
已选择范围
文件名 F:\music\Ciccolini_Complete EMI Recordings(EMI 56CDs)\CD20\CDImage.ape
峰值电平 93.2 %
范围质量 100.0 %
复制 CRC 58D82BFF
复制成功
没有错误发生
状态报告结尾

CD 21

Exact Audio Copy V0.99 prebeta 5 from 4. May 2009
EAC 抓取日志文件从18. 二月 2010, 22:08
Ciccolini / Ciccolini-Complete EMI Recording CD21
使用驱动器 :PLEXTOR DVDR PX-716A Adapter: 0 ID: 0
读取模式 : 保护
使用精确流 : 是
废除音频缓冲 : 是
使用 C2 指针 : 否
读取偏移校正 : 30
读取 Lead-In 和 Lead-Out : 是
用静音填充抓取中丢失偏移的采样 : 是
去除首尾静音块 : 否
在 CRC 计算中使用了空样本 : 否
已用接口 : Win NT 及 2000 本地 Win32 接口
所用输出格式 : Monkey's Audio Lossless Encoder v3.99 DLL
样本格式 : Normal Lossless Compression
被抓轨 CD 的 TOC
音轨 | 开始 | 长度 | 起始扇区 | 结尾扇区
--------------------------------------------------
1 | 0:00.00 | 3:51.02 | 0 | 17326
2 | 3:51.02 | 4:23.21 | 17327 | 37072
3 | 8:14.23 | 4:42.00 | 37073 | 58222
4 | 12:56.23 | 3:44.10 | 58223 | 75032
5 | 16:40.33 | 4:52.39 | 75033 | 96971
6 | 21:32.72 | 4:16.19 | 96972 | 116190
7 | 25:49.16 | 4:04.30 | 116191 | 134520
8 | 29:53.46 | 5:48.08 | 134521 | 160628
9 | 35:41.54 | 3:54.70 | 160629 | 178248
10 | 39:36.49 | 3:44.20 | 178249 | 195068
11 | 43:20.69 | 3:10.40 | 195069 | 209358
12 | 46:31.34 | 6:54.61 | 209359 | 240469
13 | 53:26.20 | 6:12.73 | 240470 | 268442
14 | 59:39.18 | 2:27.31 | 268443 | 279498
15 | 62:06.49 | 2:11.27 | 279499 | 289350
16 | 64:18.01 | 2:38.52 | 289351 | 301252
17 | 66:56.53 | 4:21.63 | 301253 | 320890
18 | 71:18.41 | 5:52.42 | 320891 | 347332
19 | 77:11.08 | 1:57.59 | 347333 | 356166
范围状态及错误
已选择范围
文件名 F:\music\Ciccolini_Complete EMI Recordings(EMI 56CDs)\CD21\CDImage.ape
峰值电平 85.1 %
范围质量 100.0 %
复制 CRC 533A870E
复制成功
没有错误发生
状态报告结尾

CD 22

Exact Audio Copy V0.99 prebeta 5 from 4. May 2009
EAC 抓取日志文件从18. 二月 2010, 23:00
Ciccolini / Ciccolini-Complete EMI Recording CD22
使用驱动器 :PLEXTOR DVDR PX-716A Adapter: 0 ID: 0
读取模式 : 保护
使用精确流 : 是
废除音频缓冲 : 是
使用 C2 指针 : 否
读取偏移校正 : 30
读取 Lead-In 和 Lead-Out : 是
用静音填充抓取中丢失偏移的采样 : 是
去除首尾静音块 : 否
在 CRC 计算中使用了空样本 : 否
已用接口 : Win NT 及 2000 本地 Win32 接口
所用输出格式 : Monkey's Audio Lossless Encoder v3.99 DLL
样本格式 : Normal Lossless Compression
被抓轨 CD 的 TOC
音轨 | 开始 | 长度 | 起始扇区 | 结尾扇区
--------------------------------------------------
1 | 0:00.00 | 3:06.57 | 0 | 14006
2 | 3:06.57 | 2:26.25 | 14007 | 24981
3 | 5:33.07 | 2:12.58 | 24982 | 34939
4 | 7:45.65 | 1:44.74 | 34940 | 42813
5 | 9:30.64 | 0:49.61 | 42814 | 46549
6 | 10:20.50 | 0:40.68 | 46550 | 49617
7 | 11:01.43 | 0:57.32 | 49618 | 53924
8 | 11:59.00 | 0:58.53 | 53925 | 58327
9 | 12:57.53 | 0:37.19 | 58328 | 61121
10 | 13:34.72 | 1:16.03 | 61122 | 66824
11 | 14:51.00 | 1:09.59 | 66825 | 72058
12 | 16:00.59 | 0:50.23 | 72059 | 75831
13 | 16:51.07 | 2:48.07 | 75832 | 88438
14 | 19:39.14 | 1:33.72 | 88439 | 95485
15 | 21:13.11 | 2:23.30 | 95486 | 106240
16 | 23:36.41 | 2:18.56 | 106241 | 116646
17 | 25:55.22 | 0:54.66 | 116647 | 120762
18 | 26:50.13 | 1:23.58 | 120763 | 127045
19 | 28:13.71 | 2:25.05 | 127046 | 137925
20 | 30:39.01 | 1:59.59 | 137926 | 146909
21 | 32:38.60 | 1:43.01 | 146910 | 154635
22 | 34:21.61 | 1:25.58 | 154636 | 161068
23 | 35:47.44 | 1:10.57 | 161069 | 166375
24 | 36:58.26 | 1:23.68 | 166376 | 172668
25 | 38:22.19 | 1:07.23 | 172669 | 177716
26 | 39:29.42 | 3:02.34 | 177717 | 191400
27 | 42:32.01 | 1:52.61 | 191401 | 199861
28 | 44:24.62 | 2:41.35 | 199862 | 211971
29 | 47:06.22 | 1:36.53 | 211972 | 219224
30 | 48:43.00 | 1:20.70 | 219225 | 225294
31 | 50:03.70 | 1:38.13 | 225295 | 232657
32 | 51:42.08 | 1:39.32 | 232658 | 240114
33 | 53:21.40 | 1:54.74 | 240115 | 248738
34 | 55:16.39 | 1:37.34 | 248739 | 256047
35 | 56:53.73 | 0:59.05 | 256048 | 260477
36 | 57:53.03 | 0:47.46 | 260478 | 264048
37 | 58:40.49 | 1:13.01 | 264049 | 269524
38 | 59:53.50 | 0:43.54 | 269525 | 272803
39 | 60:37.29 | 1:35.59 | 272804 | 279987
40 | 62:13.13 | 0:51.65 | 279988 | 283877
41 | 63:05.03 | 0:53.33 | 283878 | 287885
42 | 63:58.36 | 0:52.13 | 287886 | 291798
43 | 64:50.49 | 2:40.69 | 291799 | 303867
44 | 67:31.43 | 0:44.09 | 303868 | 307176
45 | 68:15.52 | 2:17.27 | 307177 | 317478
46 | 70:33.04 | 0:46.69 | 317479 | 320997
47 | 71:19.73 | 1:58.30 | 320998 | 329877
48 | 73:18.28 | 2:11.08 | 329878 | 339710
49 | 75:29.36 | 1:13.55 | 339711 | 345240
50 | 76:43.16 | 1:02.20 | 345241 | 349910
51 | 77:45.36 | 1:48.31 | 349911 | 358041
范围状态及错误
已选择范围
文件名 F:\music\Ciccolini_Complete EMI Recordings(EMI 56CDs)\CD22\CDImage.ape
峰值电平 97.6 %
范围质量 100.0 %
复制 CRC 05FF903A
复制成功
没有错误发生
状态报告结尾

CD 23

Exact Audio Copy V0.99 prebeta 5 from 4. May 2009
EAC 抓取日志文件从18. 二月 2010, 23:43
Ciccolini / Ciccolini-Complete EMI Recording CD23
使用驱动器 :PLEXTOR DVDR PX-716A Adapter: 0 ID: 0
读取模式 : 保护
使用精确流 : 是
废除音频缓冲 : 是
使用 C2 指针 : 否
读取偏移校正 : 30
读取 Lead-In 和 Lead-Out : 是
用静音填充抓取中丢失偏移的采样 : 是
去除首尾静音块 : 否
在 CRC 计算中使用了空样本 : 否
已用接口 : Win NT 及 2000 本地 Win32 接口
所用输出格式 : Monkey's Audio Lossless Encoder v3.99 DLL
样本格式 : Normal Lossless Compression
被抓轨 CD 的 TOC
音轨 | 开始 | 长度 | 起始扇区 | 结尾扇区
--------------------------------------------------
1 | 0:00.00 | 0:56.72 | 0 | 4271
2 | 0:56.72 | 0:35.55 | 4272 | 6951
3 | 1:32.52 | 0:15.09 | 6952 | 8085
4 | 1:47.61 | 0:33.43 | 8086 | 10603
5 | 2:21.29 | 0:25.48 | 10604 | 12526
6 | 2:47.02 | 0:48.02 | 12527 | 16128
7 | 3:35.04 | 0:41.39 | 16129 | 19242
8 | 4:16.43 | 0:59.29 | 19243 | 23696
9 | 5:15.72 | 0:35.60 | 23697 | 26381
10 | 5:51.57 | 0:26.28 | 26382 | 28359
11 | 6:18.10 | 0:26.26 | 28360 | 30335
12 | 6:44.36 | 0:26.53 | 30336 | 32338
13 | 7:11.14 | 0:20.36 | 32339 | 33874
14 | 7:31.50 | 0:49.68 | 33875 | 37617
15 | 8:21.43 | 0:20.21 | 37618 | 39138
16 | 8:41.64 | 0:28.35 | 39139 | 41273
17 | 9:10.24 | 1:19.48 | 41274 | 47246
18 | 10:29.72 | 0:21.10 | 47247 | 48831
19 | 10:51.07 | 0:32.09 | 48832 | 51240
20 | 11:23.16 | 0:20.43 | 51241 | 52783
21 | 11:43.59 | 0:52.48 | 52784 | 56731
22 | 12:36.32 | 1:44.00 | 56732 | 64531
23 | 14:20.32 | 1:59.23 | 64532 | 73479
24 | 16:19.55 | 1:29.54 | 73480 | 80208
25 | 17:49.34 | 3:23.35 | 80209 | 95468
26 | 21:12.69 | 3:37.61 | 95469 | 111804
27 | 24:50.55 | 2:49.16 | 111805 | 124495
28 | 27:39.71 | 0:53.61 | 124496 | 128531
29 | 28:33.57 | 0:48.32 | 128532 | 132163
30 | 29:22.14 | 1:02.55 | 132164 | 136868
31 | 30:24.69 | 0:43.53 | 136869 | 140146
32 | 31:08.47 | 1:52.45 | 140147 | 148591
33 | 33:01.17 | 1:26.47 | 148592 | 155088
34 | 34:27.64 | 2:42.40 | 155089 | 167278
35 | 37:10.29 | 3:02.65 | 167279 | 180993
36 | 40:13.19 | 1:08.33 | 180994 | 186126
37 | 41:21.52 | 0:41.47 | 186127 | 189248
38 | 42:03.24 | 0:57.19 | 189249 | 193542
39 | 43:00.43 | 0:50.41 | 193543 | 197333
40 | 43:51.09 | 1:25.41 | 197334 | 203749
41 | 45:16.50 | 1:09.66 | 203750 | 208990
42 | 46:26.41 | 0:41.73 | 208991 | 212138
43 | 47:08.39 | 1:24.38 | 212139 | 218476
44 | 48:33.02 | 0:26.18 | 218477 | 220444
45 | 48:59.20 | 2:18.33 | 220445 | 230827
46 | 51:17.53 | 1:15.66 | 230828 | 236518
47 | 52:33.44 | 2:19.67 | 236519 | 247010
48 | 54:53.36 | 1:08.33 | 247011 | 252143
49 | 56:01.69 | 0:54.58 | 252144 | 256251
50 | 56:56.52 | 1:35.20 | 256252 | 263396
51 | 58:31.72 | 2:29.49 | 263397 | 274620
52 | 61:01.46 | 2:07.52 | 274621 | 284197
53 | 63:09.23 | 3:11.72 | 284198 | 298594
54 | 66:21.20 | 1:07.52 | 298595 | 303671
55 | 67:28.72 | 2:04.22 | 303672 | 312993
56 | 69:33.19 | 1:49.38 | 312994 | 321206
57 | 71:22.57 | 2:02.28 | 321207 | 330384
58 | 73:25.10 | 0:58.34 | 330385 | 334768
59 | 74:23.44 | 1:43.34 | 334769 | 342527
60 | 76:07.03 | 1:05.42 | 342528 | 347444
61 | 77:12.45 | 0:42.14 | 347445 | 350608
62 | 77:54.59 | 1:14.37 | 350609 | 356195
范围状态及错误
已选择范围
文件名 F:\music\Ciccolini_Complete EMI Recordings(EMI 56CDs)\CD23\CDImage.ape
峰值电平 98.6 %
范围质量 100.0 %
复制 CRC 76F3D41E
复制成功
没有错误发生
状态报告结尾

CD 24

Exact Audio Copy V0.99 prebeta 5 from 4. May 2009
EAC 抓取日志文件从19. 二月 2010, 0:00
Ciccolini / Ciccolini-Complete EMI Recording CD24
使用驱动器 :PLEXTOR DVDR PX-716A Adapter: 0 ID: 0
读取模式 : 保护
使用精确流 : 是
废除音频缓冲 : 是
使用 C2 指针 : 否
读取偏移校正 : 30
读取 Lead-In 和 Lead-Out : 是
用静音填充抓取中丢失偏移的采样 : 是
去除首尾静音块 : 否
在 CRC 计算中使用了空样本 : 否
已用接口 : Win NT 及 2000 本地 Win32 接口
所用输出格式 : Monkey's Audio Lossless Encoder v3.99 DLL
样本格式 : Normal Lossless Compression
被抓轨 CD 的 TOC
音轨 | 开始 | 长度 | 起始扇区 | 结尾扇区
--------------------------------------------------
1 | 0:00.00 | 0:49.35 | 0 | 3709
2 | 0:49.35 | 3:20.16 | 3710 | 18725
3 | 4:09.51 | 4:27.72 | 18726 | 38822
4 | 8:37.48 | 2:37.54 | 38823 | 50651
5 | 11:15.27 | 1:15.64 | 50652 | 56340
6 | 12:31.16 | 2:21.02 | 56341 | 66917
7 | 14:52.18 | 1:55.08 | 66918 | 75550
8 | 16:47.26 | 5:16.00 | 75551 | 99250
9 | 22:03.26 | 3:37.57 | 99251 | 115582
10 | 25:41.08 | 3:15.52 | 115583 | 130259
11 | 28:56.60 | 2:49.29 | 130260 | 142963
12 | 31:46.14 | 4:06.16 | 142964 | 161429
13 | 35:52.30 | 2:20.28 | 161430 | 171957
14 | 38:12.58 | 2:00.72 | 171958 | 181029
15 | 40:13.55 | 2:18.43 | 181030 | 191422
16 | 42:32.23 | 0:49.58 | 191423 | 195155
17 | 43:22.06 | 2:07.03 | 195156 | 204683
18 | 45:29.09 | 0:45.56 | 204684 | 208114
19 | 46:14.65 | 1:06.52 | 208115 | 213116
20 | 47:21.42 | 1:44.63 | 213117 | 220979
21 | 49:06.30 | 1:43.61 | 220980 | 228765
22 | 50:50.16 | 3:29.15 | 228766 | 244455
23 | 54:19.31 | 14:35.07 | 244456 | 310087
24 | 68:54.38 | 2:05.04 | 310088 | 319466
25 | 70:59.42 | 2:10.41 | 319467 | 329257
26 | 73:10.08 | 1:57.40 | 329258 | 338072
27 | 75:07.48 | 1:27.60 | 338073 | 344657
28 | 76:35.33 | 1:00.54 | 344658 | 349211
29 | 77:36.12 | 1:37.23 | 349212 | 356509
范围状态及错误
已选择范围
文件名 F:\music\Ciccolini_Complete EMI Recordings(EMI 56CDs)\CD24\CDImage.ape
峰值电平 98.0 %
范围质量 99.9 %
复制 CRC BD3330BB
复制成功
没有错误发生
状态报告结尾

CD 25

Exact Audio Copy V0.99 prebeta 5 from 4. May 2009
EAC 抓取日志文件从19. 二月 2010, 0:26
Ciccolini / Ciccolini-Complete EMI Recording CD25
使用驱动器 :PLEXTOR DVDR PX-716A Adapter: 0 ID: 0
读取模式 : 保护
使用精确流 : 是
废除音频缓冲 : 是
使用 C2 指针 : 否
读取偏移校正 : 30
读取 Lead-In 和 Lead-Out : 是
用静音填充抓取中丢失偏移的采样 : 是
去除首尾静音块 : 否
在 CRC 计算中使用了空样本 : 否
已用接口 : Win NT 及 2000 本地 Win32 接口
所用输出格式 : Monkey's Audio Lossless Encoder v3.99 DLL
样本格式 : Normal Lossless Compression
被抓轨 CD 的 TOC
音轨 | 开始 | 长度 | 起始扇区 | 结尾扇区
--------------------------------------------------
1 | 0:00.00 | 2:19.16 | 0 | 10440
2 | 2:19.16 | 2:00.71 | 10441 | 19511
3 | 4:20.12 | 1:39.55 | 19512 | 26991
4 | 5:59.67 | 2:13.59 | 26992 | 37025
5 | 8:13.51 | 2:40.44 | 37026 | 49069
6 | 10:54.20 | 0:44.22 | 49070 | 52391
7 | 11:38.42 | 0:24.08 | 52392 | 54199
8 | 12:02.50 | 0:34.68 | 54200 | 56817
9 | 12:37.43 | 2:11.73 | 56818 | 66715
10 | 14:49.41 | 0:40.10 | 66716 | 69725
11 | 15:29.51 | 0:29.53 | 69726 | 71953
12 | 15:59.29 | 0:42.29 | 71954 | 75132
13 | 16:41.58 | 0:30.32 | 75133 | 77414
14 | 17:12.15 | 3:32.45 | 77415 | 93359
15 | 20:44.60 | 4:31.38 | 93360 | 113722
16 | 25:16.23 | 1:02.08 | 113723 | 118380
17 | 26:18.31 | 1:19.13 | 118381 | 124318
18 | 27:37.44 | 1:38.22 | 124319 | 131690
19 | 29:15.66 | 8:51.07 | 131691 | 171522
20 | 38:06.73 | 2:16.23 | 171523 | 181745
21 | 40:23.21 | 25:37.03 | 181746 | 297023
22 | 66:00.24 | 4:15.18 | 297024 | 316166
23 | 70:15.42 | 5:31.64 | 316167 | 341055
范围状态及错误
已选择范围
文件名 F:\music\Ciccolini_Complete EMI Recordings(EMI 56CDs)\CD25\CDImage.ape
峰值电平 98.7 %
范围质量 100.0 %
复制 CRC FABB6621
复制成功
没有错误发生
状态报告结尾

CD 26

Exact Audio Copy V0.99 prebeta 5 from 4. May 2009
EAC 抓取日志文件从19. 二月 2010, 16:09
Ciccolini / Ciccolini-Complete EMI Recording CD26
使用驱动器 :PLEXTOR DVDR PX-716A Adapter: 0 ID: 0
读取模式 : 保护
使用精确流 : 是
废除音频缓冲 : 是
使用 C2 指针 : 否
读取偏移校正 : 30
读取 Lead-In 和 Lead-Out : 是
用静音填充抓取中丢失偏移的采样 : 是
去除首尾静音块 : 否
在 CRC 计算中使用了空样本 : 否
已用接口 : Win NT 及 2000 本地 Win32 接口
所用输出格式 : Monkey's Audio Lossless Encoder v3.99 DLL
样本格式 : Normal Lossless Compression
被抓轨 CD 的 TOC
音轨 | 开始 | 长度 | 起始扇区 | 结尾扇区
--------------------------------------------------
1 | 0:00.00 | 7:28.18 | 0 | 33617
2 | 7:28.18 | 5:16.66 | 33618 | 57383
3 | 12:45.09 | 3:43.14 | 57384 | 74122
4 | 16:28.23 | 7:34.40 | 74123 | 108212
5 | 24:02.63 | 5:55.57 | 108213 | 134894
6 | 29:58.45 | 2:42.69 | 134895 | 147113
7 | 32:41.39 | 2:51.33 | 147114 | 159971
8 | 35:32.72 | 1:20.28 | 159972 | 165999
9 | 36:53.25 | 2:02.48 | 166000 | 175197
10 | 38:55.73 | 2:48.21 | 175198 | 187818
11 | 41:44.19 | 1:46.14 | 187819 | 195782
12 | 43:30.33 | 1:21.44 | 195783 | 201901
13 | 44:52.02 | 3:32.29 | 201902 | 217830
14 | 48:24.31 | 5:43.68 | 217831 | 243623
15 | 54:08.24 | 4:44.24 | 243624 | 264947
16 | 58:52.48 | 1:50.07 | 264948 | 273204
17 | 60:42.55 | 2:59.19 | 273205 | 286648
18 | 63:41.74 | 5:34.22 | 286649 | 311720
19 | 69:16.21 | 4:10.32 | 311721 | 330502
20 | 73:26.53 | 5:52.49 | 330503 | 356951
范围状态及错误
已选择范围
文件名 F:\music\Ciccolini_Complete EMI Recordings(EMI 56CDs)\CD26\CDImage.ape
峰值电平 86.6 %
范围质量 100.0 %
复制 CRC A32E32C4
复制成功
没有错误发生
状态报告结尾

CD 27

Exact Audio Copy V0.99 prebeta 5 from 4. May 2009
EAC 抓取日志文件从19. 二月 2010, 17:21
Ciccolini / Ciccolini-Complete EMI Recording CD27
使用驱动器 :PLEXTOR DVDR PX-716A Adapter: 0 ID: 0
读取模式 : 保护
使用精确流 : 是
废除音频缓冲 : 是
使用 C2 指针 : 否
读取偏移校正 : 30
读取 Lead-In 和 Lead-Out : 是
用静音填充抓取中丢失偏移的采样 : 是
去除首尾静音块 : 否
在 CRC 计算中使用了空样本 : 否
已用接口 : Win NT 及 2000 本地 Win32 接口
所用输出格式 : Monkey's Audio Lossless Encoder v3.99 DLL
样本格式 : Normal Lossless Compression
被抓轨 CD 的 TOC
音轨 | 开始 | 长度 | 起始扇区 | 结尾扇区
--------------------------------------------------
1 | 0:00.00 | 6:33.14 | 0 | 29488
2 | 6:33.14 | 7:21.43 | 29489 | 62606
3 | 13:54.57 | 5:16.72 | 62607 | 86378
4 | 19:11.54 | 7:18.16 | 86379 | 119244
5 | 26:29.70 | 4:54.06 | 119245 | 141300
6 | 31:24.01 | 6:31.14 | 141301 | 170639
7 | 37:55.15 | 4:05.59 | 170640 | 189073
8 | 42:00.74 | 3:23.16 | 189074 | 204314
9 | 45:24.15 | 4:18.66 | 204315 | 223730
10 | 49:43.06 | 1:42.74 | 223731 | 231454
11 | 51:26.05 | 2:12.62 | 231455 | 241416
12 | 53:38.67 | 6:35.38 | 241417 | 271079
13 | 60:14.30 | 4:13.06 | 271080 | 290060
14 | 64:27.36 | 15:02.70 | 290061 | 357780
范围状态及错误
已选择范围
文件名 F:\music\Ciccolini_Complete EMI Recordings(EMI 56CDs)\CD27\CDImage.ape
峰值电平 91.7 %
范围质量 99.9 %
复制 CRC 918005F5
复制成功
没有错误发生
状态报告结尾

CD 28

Exact Audio Copy V0.99 prebeta 5 from 4. May 2009
EAC 抓取日志文件从19. 二月 2010, 17:34
Aldo Ciccolini / Schumann and Brahms piano pieces
使用驱动器 :PLEXTOR DVDR PX-716A Adapter: 0 ID: 0
读取模式 : 保护
使用精确流 : 是
废除音频缓冲 : 是
使用 C2 指针 : 否
读取偏移校正 : 30
读取 Lead-In 和 Lead-Out : 是
用静音填充抓取中丢失偏移的采样 : 是
去除首尾静音块 : 否
在 CRC 计算中使用了空样本 : 否
已用接口 : Win NT 及 2000 本地 Win32 接口
所用输出格式 : Monkey's Audio Lossless Encoder v3.99 DLL
样本格式 : Normal Lossless Compression
被抓轨 CD 的 TOC
音轨 | 开始 | 长度 | 起始扇区 | 结尾扇区
--------------------------------------------------
1 | 0:00.00 | 1:39.52 | 0 | 7476
2 | 1:39.52 | 1:01.18 | 7477 | 12069
3 | 2:40.70 | 0:29.63 | 12070 | 14307
4 | 3:10.58 | 0:43.67 | 14308 | 17599
5 | 3:54.50 | 0:36.06 | 17600 | 20305
6 | 4:30.56 | 0:50.26 | 20306 | 24081
7 | 5:21.07 | 2:29.20 | 24082 | 35276
8 | 7:50.27 | 0:55.03 | 35277 | 39404
9 | 8:45.30 | 0:38.40 | 39405 | 42294
10 | 9:23.70 | 1:41.11 | 42295 | 49880
11 | 11:05.06 | 1:51.69 | 49881 | 58274
12 | 12:57.00 | 1:52.07 | 58275 | 66681
13 | 14:49.07 | 2:15.43 | 66682 | 76849
14 | 17:04.50 | 1:59.05 | 76850 | 85779
15 | 19:03.55 | 1:22.27 | 85780 | 91956
16 | 20:26.07 | 1:54.14 | 91957 | 100520
17 | 22:20.21 | 2:40.42 | 100521 | 112562
18 | 25:00.63 | 0:51.63 | 112563 | 116450
19 | 25:52.51 | 1:58.72 | 116451 | 125372
20 | 27:51.48 | 2:39.24 | 125373 | 137321
21 | 30:30.72 | 2:22.46 | 137322 | 148017
22 | 32:53.43 | 4:03.00 | 148018 | 166242
23 | 36:56.43 | 3:19.19 | 166243 | 181186
24 | 40:15.62 | 3:31.34 | 181187 | 197045
25 | 43:47.21 | 3:05.47 | 197046 | 210967
26 | 46:52.68 | 1:22.47 | 210968 | 217164
27 | 48:15.40 | 4:04.27 | 217165 | 235491
28 | 52:19.67 | 2:25.65 | 235492 | 246431
29 | 54:45.57 | 3:30.19 | 246432 | 262200
30 | 58:16.01 | 3:18.74 | 262201 | 277124
31 | 61:35.00 | 2:32.47 | 277125 | 288571
32 | 64:07.47 | 2:06.03 | 288572 | 298024
33 | 66:13.50 | 3:08.37 | 298025 | 312161
34 | 69:22.12 | 2:43.48 | 312162 | 324434
35 | 72:05.60 | 2:56.28 | 324435 | 337662
36 | 75:02.13 | 3:00.00 | 337663 | 351162
范围状态及错误
已选择范围
文件名 F:\music\Ciccolini_Complete EMI Recordings(EMI 56CDs)\CD28\CDImage.ape
峰值电平 91.5 %
范围质量 100.0 %
复制 CRC 1BF4A6FD
复制成功
没有错误发生
状态报告结尾

CD 29

Exact Audio Copy V0.99 prebeta 5 from 4. May 2009
EAC 抓取日志文件从19. 二月 2010, 17:46
Ciccolini / Late Piano Works Ciccolini-Complete EMI Recording CD29
使用驱动器 :PLEXTOR DVDR PX-716A Adapter: 0 ID: 0
读取模式 : 保护
使用精确流 : 是
废除音频缓冲 : 是
使用 C2 指针 : 否
读取偏移校正 : 30
读取 Lead-In 和 Lead-Out : 是
用静音填充抓取中丢失偏移的采样 : 是
去除首尾静音块 : 否
在 CRC 计算中使用了空样本 : 否
已用接口 : Win NT 及 2000 本地 Win32 接口
所用输出格式 : Monkey's Audio Lossless Encoder v3.99 DLL
样本格式 : Normal Lossless Compression
被抓轨 CD 的 TOC
音轨 | 开始 | 长度 | 起始扇区 | 结尾扇区
--------------------------------------------------
1 | 0:00.00 | 1:59.13 | 0 | 8937
2 | 1:59.13 | 3:55.61 | 8938 | 26623
3 | 5:54.74 | 2:51.17 | 26624 | 39465
4 | 8:46.16 | 4:29.24 | 39466 | 59664
5 | 13:15.40 | 3:03.11 | 59665 | 73400
6 | 16:18.51 | 2:56.59 | 73401 | 86659
7 | 19:15.35 | 1:58.17 | 86660 | 95526
8 | 21:13.52 | 4:23.16 | 95527 | 115267
9 | 25:36.68 | 4:29.49 | 115268 | 135491
10 | 30:06.42 | 5:23.45 | 135492 | 159761
11 | 35:30.12 | 1:34.13 | 159762 | 166824
12 | 37:04.25 | 5:37.17 | 166825 | 192116
13 | 42:41.42 | 3:14.54 | 192117 | 206720
14 | 45:56.21 | 2:30.26 | 206721 | 217996
15 | 48:26.47 | 4:04.17 | 217997 | 236313
16 | 52:30.64 | 4:53.46 | 236314 | 258334
17 | 57:24.35 | 3:16.60 | 258335 | 273094
18 | 60:41.20 | 4:52.39 | 273095 | 295033
19 | 65:33.59 | 1:25.48 | 295034 | 301456
20 | 66:59.32 | 5:04.31 | 301457 | 324287
范围状态及错误
已选择范围
文件名 F:\music\Ciccolini_Complete EMI Recordings(EMI 56CDs)\CD29\CDImage.ape
峰值电平 89.8 %
范围质量 100.0 %
复制 CRC 1D34D4A1
复制成功
没有错误发生
状态报告结尾

CD 30

Exact Audio Copy V0.99 prebeta 5 from 4. May 2009
EAC 抓取日志文件从19. 二月 2010, 18:29
Ciccolini / Ciccolini-Complete EMI Recording CD30
使用驱动器 :PLEXTOR DVDR PX-716A Adapter: 0 ID: 0
读取模式 : 保护
使用精确流 : 是
废除音频缓冲 : 是
使用 C2 指针 : 否
读取偏移校正 : 30
读取 Lead-In 和 Lead-Out : 是
用静音填充抓取中丢失偏移的采样 : 是
去除首尾静音块 : 否
在 CRC 计算中使用了空样本 : 否
已用接口 : Win NT 及 2000 本地 Win32 接口
所用输出格式 : Monkey's Audio Lossless Encoder v3.99 DLL
样本格式 : Normal Lossless Compression
被抓轨 CD 的 TOC
音轨 | 开始 | 长度 | 起始扇区 | 结尾扇区
--------------------------------------------------
1 | 0:00.00 | 7:31.23 | 0 | 33847
2 | 7:31.23 | 5:21.39 | 33848 | 57961
3 | 12:52.62 | 14:35.22 | 57962 | 123608
4 | 27:28.09 | 9:30.55 | 123609 | 166413
5 | 36:58.64 | 3:48.09 | 166414 | 183522
6 | 40:46.73 | 7:40.19 | 183523 | 218041
7 | 48:27.17 | 2:04.18 | 218042 | 227359
8 | 50:31.35 | 3:47.08 | 227360 | 244392
9 | 54:18.43 | 13:11.42 | 244393 | 303759
范围状态及错误
已选择范围
文件名 F:\music\Ciccolini_Complete EMI Recordings(EMI 56CDs)\CD30\CDImage.ape
峰值电平 91.7 %
范围质量 100.0 %
复制 CRC 64A8C54B
复制成功
没有错误发生
状态报告结尾
[teatrix.ru].t10013.torrent 
Торрент: Зарегистрирован [ 2015-10-25 20:37 ] · 098067B3DC05A50DF79282D62655DE6CB7B4F885

Скачать .torrent

Скачать

52 KB

Статус: проверено
Скачан: 1 раз
Размер: 14.51 GB
terms.php



Быстрый ответ

Имя:

      
Для отправки сообщений необходимо включить JavaScript
Показать сообщения:    

Текущее время: 08-Дек 17:25

Часовой пояс: UTC + 3


Вы можете начинать темы
Вы можете отвечать на сообщения
Вы не можете редактировать свои сообщения
Вы не можете удалять свои сообщения
Вы не можете голосовать в опросах
Вы не можете прикреплять файлы к сообщениям
Вы можете скачивать файлы