(Classical) Kathleen Ferrier — The Complete EMI Recordings: Mahler — Kindertotenlieder, Gluck — Orfeo ed Euridice, Purcell, Bach, etc. (with Walter, Karajan, Bruck, Moore) — 1944—1951/2012, 3 CDs, FLAC (tracks+.cue) lossless


Статистика раздачи [Обновить пиров]
Размер:  432 MB   |    Зарегистрирован:  1 год 1 месяц   |    Скачан:  1 раз

Полного источника не было: 3 месяца 23 дня

 
   
 
 
 

[Цитировать]

Kathleen Ferrier — The Complete EMI Recordings: Mahler — Kindertotenlieder, Gluck — Orfeo ed Euridice, Purcell, Bach, etc. (with Walter, Karajan, Bruck, Moore) — 1944—1951/2012, 3 CDs
Жанр: Classical
Год издания дисков: 2012
Издатель (лейбл): EMI
Номер по каталогу: 56284
Дата записи: 1950s
Аудиокодек: FLAC
Тип рипа: tracks+.cue
Битрейт аудио: lossless
Продолжительность: 03:09:37
Источник: AvaxHome
Наличие сканов в содержимом раздачи: да
-
-
-
-
-! ! ! ! ! ! !-
-
-
-
-

Треклист & Исполнители

CD 1 (18 / 60:56)
01. Gluck - Orfeo ed Euridice (1997 - Remaster): What is life to me without thee? (Che farò senza Euridice) (Act 3) 4:37
02. Brahms - 6 Lieder Op. 3 (1997 - Remaster): Constancy (Liebestreu) (Reinick) 2:16
03. Brahms - 49 Deutsche Volkslieder (1997 - Remaster): No. 12, Feinsliebchen, du sollst mir nicht barfuss geh'n 2:38
04. Elgar - The Dream of Gerontius Op. 38 (1997 - Remaster): My work is done ... It is because 3:20
05. Greene - I will lay me down in peace (from anthem 'O God of my righteousness') (1997 - Remaster) 3:48
06. Greene - O praise the Lord (from anthem 'Praise the Lord, O my soul') (1997 - Remaster) 1:51
07. Handel - Spring is coming ('Ottone' - Haym) 3:56
08. Handel - Come to me, soothing sleep ('Ottone' - Haym) 4:20
09. Purcell - Sound the trumpet ('Birthday Ode for Queen Mary') Isobel Baillie/Kathleen Ferrier/Gerald Moore 2:04
10. Purcell - Let us wander, not unseen ('The Indian Queen' - Dryden) 1:50
Kathleen Ferrier/Gerald Moore
11. Purcell - Shepperd, shepherd, leave decoying ('King Arthur' - Dryden) 1:23
12. Mendelssohn - I would that my love, Op.63 No. 1 (Heine) 2:49
13. Mendelssohn - Greeting, Op.63 No. 2 (Eichendorff) 2:36
Kathleen Ferrier/Isobel Baillie/Gerald Moore
Mahler - Kindertotenlieder (Rückert) (1998 - Remaster)
14. Nun will die Sonn' so hell aufgeh'n 4:51
15. Nun seh' ich wohl, warum so dunkle Flammen 4:39
16. Wenn dein Mütterlein, tritt zur Tür herein 4:31
17. Oft denk' ich, sie sind nur ausgegangen! 2:55
18. In diesem Wetter, in diesem Braus 6:24
Kathleen Ferrier/Wiener Philharmoniker/Bruno Walter
CD 2 (19 / 60:34)
Bach - Mass in B Minor, BWV 232
01. Duet: Christe eleison 3:38
02. Contralto aria: Qui sedes 3:40
03. Duet: Et in unum Dominum 4:18
Herbert Von Karajan/Wiener Symphoniker/Elisabeth Schwarzkopf/Kathleen Ferrier
04. Contralto Aria: Agnus Dei 5:39
Herbert von Karajan/Wiener Symphoniker/Kathleen Ferrier
Gluck - Orfeo ed Euridice (1998 - Remaster)
05. Sinfonia 3:07
06. Ah! Se intorno a quest'urna funesta (Act I) 4:10
07. Amici, quel lamento (Act I) 0:36
08. Ballet of Shepherds and Nymphy (Act I) 2:21
09. Ah! Se intorno a quest'urna funesta (Act I) 3:42
10. Chiamo il mio ben così (Act I) 7:28
11. Voi delle ombre oscura (Act I) 0:58
12. Amore assisterà l'infelice marito! (Act I) 2:53
13. Gli sguardi trattieni (Act I) 2:27
14. Che disse? Che ascoltai? (Act I) 2:10
15. Dance of the Furies - Chi mai dell'Erebo (Act II) 5:50
16. Deh! Placatevi con me (Act II) 2:42
17. Misero giovane! (Act II) 0:52
18. Mille pene, ombre sdegnose (Act II) 0:48
19. Ah! Quale incognito (Act II) 3:08
CD 3 (20 / 68:06)
Gluck - Orfeo ed Euridice (1998 - Remaster)
01. Dance of the Blessed Spirits - Dance of the Heroes (Act II) 8:47
02. È quest'asile ameno e grato (Act II) 3:45
03. Che puro ciel! Che chiaro sol! (Act II) 5:32
04. Vien a'regni del riposo (Act II) 2:20
05. Ballet of the Heroes (Act II) 2:31
06. Oh voi, ombre felici (Act II) 0:35
07. Torna, o bello (Act II) 3:17
08. Ah vieni, o diletta, vien con me (Act III) 4:02
09. Vieni! Vieni con me, vieni, o cara! (Act III) 4:28
10. Ah, dovess'io saper (Act III) 1:44
11. Che fiero momento (Act III) 3:45
12. Ah, per me il duol ricomincia (Act III) 2:18
13. Che feci mai? (Act III) 1:16
14. Che farò senza Euridice? (Act III) 4:43
15. Ah! Finisca e per sempre (Act III) 1:19
16. Non più! che fai tu? (Act III) 1:19
17. Gaudio, gaudio son al cuore (Act III) 3:02
18. Trionfi Amore! (Act III) 1:18
Orfeo - Kathleen Ferrier
Euridice - Greet Koeman
Amore - Nel Duval
Chorus & Orchestra of Netherlands Opera conducted by Charles Bruck

19. Mahler - Kindertotenlieder (Rückert): Nun will die Sonn' so hell aufgeh'n 5:20
20. Mahler - Kindertotenlieder (Rückert): In diesem Wetter, in diesem Braus 6:36
Kathleen Ferrier/Wiener Philharmoniker/Bruno Walter

Лог создания рипа

CD 1

Exact Audio Copy V1.0 beta 3 from 29. August 2011
EAC extraction logfile from 10. August 2012, 12:24
Kathleen Ferrier / K.Ferrier - The Complete EMI Recordings (Cd1of3)
Used drive : TSSTcorpCDDVDW SH-222BB Adapter: 2 ID: 0
Read mode : Secure
Utilize accurate stream : Yes
Defeat audio cache : Yes
Make use of C2 pointers : No
Read offset correction : 6
Overread into Lead-In and Lead-Out : No
Fill up missing offset samples with silence : Yes
Delete leading and trailing silent blocks : No
Null samples used in CRC calculations : Yes
Used interface : Native Win32 interface for Win NT & 2000
Gap handling : Appended to previous track
Used output format : User Defined Encoder
Selected bitrate : 192 kBit/s
Quality : High
Add ID3 tag : No
Command line compressor : C:\Program Files (x86)\FLAC\flac.exe
Additional command line options : -T "artist=%artist%" -T "title=%title%" -T "album=%albumtitle%" -T "date=%year%" -T "tracknumber=%tracknr%" -T "genre=%genre%" -T "comment=%comment%" -T "composer=%composer%" -8 %source%
TOC of the extracted CD
Track | Start | Length | Start sector | End sector
---------------------------------------------------------
1 | 0:00.00 | 4:37.56 | 0 | 20830
2 | 4:37.56 | 2:16.55 | 20831 | 31085
3 | 6:54.36 | 2:38.04 | 31086 | 42939
4 | 9:32.40 | 3:20.08 | 42940 | 57947
5 | 12:52.48 | 3:48.21 | 57948 | 75068
6 | 16:40.69 | 1:51.46 | 75069 | 83439
7 | 18:32.40 | 3:56.11 | 83440 | 101150
8 | 22:28.51 | 4:20.34 | 101151 | 120684
9 | 26:49.10 | 2:04.29 | 120685 | 130013
10 | 28:53.39 | 1:50.55 | 130014 | 138318
11 | 30:44.19 | 1:23.55 | 138319 | 144598
12 | 32:07.74 | 2:49.20 | 144599 | 157293
13 | 34:57.19 | 2:36.26 | 157294 | 169019
14 | 37:33.45 | 4:51.59 | 169020 | 190903
15 | 42:25.29 | 4:39.45 | 190904 | 211873
16 | 47:04.74 | 4:31.46 | 211874 | 232244
17 | 51:36.45 | 2:55.09 | 232245 | 245378
18 | 54:31.54 | 6:24.51 | 245379 | 274229
Track 1
Filename H:\EAC NEW Rips\01 Gluck, What is life without thee (Orpheus & Eurydice).wav
Pre-gap length 0:00:02.00
Peak level 68.9 %
Extraction speed 4.2 X
Track quality 100.0 %
Test CRC 635AE3B8
Copy CRC 635AE3B8
Accurately ripped (confidence 2) [318109FA] (AR v2)
Copy OK
Track 2
Filename H:\EAC NEW Rips\02 Brahms, Liebestreu op.3 nr.1.wav
Pre-gap length 0:00:02.97
Peak level 58.8 %
Extraction speed 4.1 X
Track quality 100.0 %
Test CRC 9883A258
Copy CRC 9883A258
Accurately ripped (confidence 2) [C48E7344] (AR v2)
Copy OK
Track 3
Filename H:\EAC NEW Rips\03 Brahms, Feinsliebchen (Deutsche Volkslieder II, nr.12).wav
Pre-gap length 0:00:02.08
Peak level 51.6 %
Extraction speed 3.3 X
Track quality 99.9 %
Test CRC 8D7385A2
Copy CRC 8D7385A2
Accurately ripped (confidence 2) [21D90CF1] (AR v2)
Copy OK
Track 4
Filename H:\EAC NEW Rips\04 Elgar, My work is done...It is because (The Dream of Gerontius).wav
Pre-gap length 0:00:03.01
Peak level 47.7 %
Extraction speed 4.9 X
Track quality 100.0 %
Test CRC EF74A216
Copy CRC EF74A216
Accurately ripped (confidence 2) [62CA4E1A] (AR v2)
Copy OK
Track 5
Filename H:\EAC NEW Rips\05 Greene, I will lay me down in peace (O God of righteousness).wav
Pre-gap length 0:00:02.62
Peak level 65.8 %
Extraction speed 5.3 X
Track quality 100.0 %
Test CRC D1178A09
Copy CRC D1178A09
Accurately ripped (confidence 2) [B4B45138] (AR v2)
Copy OK
Track 6
Filename H:\EAC NEW Rips\06 Greene, O praise the Lord (Praise the Lord, o my soul).wav
Pre-gap length 0:00:02.98
Peak level 64.2 %
Extraction speed 4.8 X
Track quality 100.0 %
Test CRC ACAB55F7
Copy CRC ACAB55F7
Accurately ripped (confidence 2) [053DB28D] (AR v2)
Copy OK
Track 7
Filename H:\EAC NEW Rips\07 Handel, Spring is coming (Ottone).wav
Pre-gap length 0:00:03.56
Peak level 53.0 %
Extraction speed 5.8 X
Track quality 100.0 %
Test CRC 652F3302
Copy CRC 652F3302
Accurately ripped (confidence 2) [508D539A] (AR v2)
Copy OK
Track 8
Filename H:\EAC NEW Rips\08 Handel, Come to me, soothing sleep (Ottone).wav
Pre-gap length 0:00:03.53
Peak level 48.5 %
Extraction speed 6.1 X
Track quality 100.0 %
Test CRC 3B957307
Copy CRC 3B957307
Accurately ripped (confidence 2) [39322CEB] (AR v2)
Copy OK
Track 9
Filename H:\EAC NEW Rips\09 Purcell, Sound the trumpet (Birthday Ode to Queen Mary).wav
Pre-gap length 0:00:03.57
Peak level 69.5 %
Extraction speed 5.5 X
Track quality 100.0 %
Test CRC C33D5A63
Copy CRC C33D5A63
Accurately ripped (confidence 2) [91F80D44] (AR v2)
Copy OK
Track 10
Filename H:\EAC NEW Rips\10 Purcell, Let us wander, not unseen (The Indian Queen).wav
Pre-gap length 0:00:02.84
Peak level 62.9 %
Extraction speed 5.5 X
Track quality 100.0 %
Test CRC 16B70107
Copy CRC 16B70107
Accurately ripped (confidence 2) [116793C3] (AR v2)
Copy OK
Track 11
Filename H:\EAC NEW Rips\11 Purcell, Shepherd, Shepherd, cease decoying (King Arthur).wav
Pre-gap length 0:00:04.32
Peak level 65.2 %
Extraction speed 5.2 X
Track quality 100.0 %
Test CRC 3B2CF827
Copy CRC 3B2CF827
Accurately ripped (confidence 2) [37C17F04] (AR v2)
Copy OK
Track 12
Filename H:\EAC NEW Rips\12 Mendelssohn, I would that my love op.63 nr.1.wav
Pre-gap length 0:00:03.05
Peak level 85.4 %
Extraction speed 6.3 X
Track quality 100.0 %
Test CRC FD14308F
Copy CRC FD14308F
Accurately ripped (confidence 2) [EBB25AD3] (AR v2)
Copy OK
Track 13
Filename H:\EAC NEW Rips\13 Mendelssohn, Greeting op.63 nr.3.wav
Pre-gap length 0:00:03.01
Peak level 75.1 %
Extraction speed 4.7 X
Track quality 99.9 %
Test CRC 9042A538
Copy CRC 9042A538
Accurately ripped (confidence 2) [F339273E] (AR v2)
Copy OK
Track 14
Filename H:\EAC NEW Rips\14 Mahler, Kindertotenlieder - I. Nun will die Sonn' so hell aufgeh'n.wav
Pre-gap length 0:00:05.28
Peak level 55.1 %
Extraction speed 7.3 X
Track quality 100.0 %
Test CRC 8DF180C3
Copy CRC 8DF180C3
Accurately ripped (confidence 2) [CAAA865A] (AR v2)
Copy OK
Track 15
Filename H:\EAC NEW Rips\15 Mahler, Kindertotenlieder - II. Nun seh ich wohl, warum so dunkle Flammen.wav
Peak level 54.0 %
Extraction speed 7.5 X
Track quality 100.0 %
Test CRC 936D7833
Copy CRC 936D7833
Accurately ripped (confidence 2) [1863EB44] (AR v2)
Copy OK
Track 16
Filename H:\EAC NEW Rips\16 Mahler, Kindertotenlieder - III. Wenn dein Mutterlein.wav
Peak level 62.6 %
Extraction speed 7.6 X
Track quality 100.0 %
Test CRC 337F9DC8
Copy CRC 337F9DC8
Accurately ripped (confidence 2) [9975D6F5] (AR v2)
Copy OK
Track 17
Filename H:\EAC NEW Rips\17 Mahler, Kindertotenlieder - IV. Oft denk' ich, sie sind nur ausgegangen.wav
Pre-gap length 0:00:00.84
Peak level 52.2 %
Extraction speed 7.3 X
Track quality 100.0 %
Test CRC F7FFA554
Copy CRC F7FFA554
Accurately ripped (confidence 2) [8A237A14] (AR v2)
Copy OK
Track 18
Filename H:\EAC NEW Rips\18 Mahler, Kindertotenlieder - V. In diesem Wetter.wav
Peak level 52.5 %
Extraction speed 8.4 X
Track quality 100.0 %
Test CRC D0B2FC16
Copy CRC D0B2FC16
Accurately ripped (confidence 2) [C76E2A6F] (AR v2)
Copy OK
All tracks accurately ripped
No errors occurred
End of status report
---- CUETools DB Plugin V2.1.3
[CTDB TOCID: xH9msk8CQcjtMkefj3cnb3HUezQ-] found, Submit result: xH9msk8CQcjtMkefj3cnb3HUezQ- has been confirmed
[01dd649c] (1/1) Accurately ripped
==== Log checksum B4AAE30AFF490E4533304F6401B36F06931B5840A6FFDE9D8D0AB97807D4FFDB ====

CD 2

Exact Audio Copy V1.0 beta 3 from 29. August 2011
EAC extraction logfile from 10. August 2012, 13:18
Kathleen Ferrier / K.Ferrier - The Complete EMI Recordings (Cd2of3)
Used drive : TSSTcorpCDDVDW SH-222BB Adapter: 2 ID: 0
Read mode : Secure
Utilize accurate stream : Yes
Defeat audio cache : Yes
Make use of C2 pointers : No
Read offset correction : 6
Overread into Lead-In and Lead-Out : No
Fill up missing offset samples with silence : Yes
Delete leading and trailing silent blocks : No
Null samples used in CRC calculations : Yes
Used interface : Native Win32 interface for Win NT & 2000
Gap handling : Appended to previous track
Used output format : User Defined Encoder
Selected bitrate : 192 kBit/s
Quality : High
Add ID3 tag : No
Command line compressor : C:\Program Files (x86)\FLAC\flac.exe
Additional command line options : -T "artist=%artist%" -T "title=%title%" -T "album=%albumtitle%" -T "date=%year%" -T "tracknumber=%tracknr%" -T "genre=%genre%" -T "comment=%comment%" -T "composer=%composer%" -8 %source%
TOC of the extracted CD
Track | Start | Length | Start sector | End sector
---------------------------------------------------------
1 | 0:00.00 | 3:38.53 | 0 | 16402
2 | 3:38.53 | 3:39.71 | 16403 | 32898
3 | 7:18.49 | 4:18.12 | 32899 | 52260
4 | 11:36.61 | 5:39.43 | 52261 | 77728
5 | 17:16.29 | 3:06.72 | 77729 | 91750
6 | 20:23.26 | 4:10.66 | 91751 | 110566
7 | 24:34.17 | 0:36.08 | 110567 | 113274
8 | 25:10.25 | 2:21.04 | 113275 | 123853
9 | 27:31.29 | 3:42.30 | 123854 | 140533
10 | 31:13.59 | 7:28.26 | 140534 | 174159
11 | 38:42.10 | 0:58.50 | 174160 | 178559
12 | 39:40.60 | 2:53.66 | 178560 | 191600
13 | 42:34.51 | 2:27.35 | 191601 | 202660
14 | 45:02.11 | 2:10.25 | 202661 | 212435
15 | 47:12.36 | 5:50.33 | 212436 | 238718
16 | 53:02.69 | 2:42.00 | 238719 | 250868
17 | 55:44.69 | 0:52.00 | 250869 | 254768
18 | 56:36.69 | 0:48.56 | 254769 | 258424
19 | 57:25.50 | 3:08.62 | 258425 | 272586
Track 1
Filename H:\EAC NEW Rips\01 Bach, Mass in B minor BWV232 - I. Christe eleison.wav
Pre-gap length 0:00:02.00
Peak level 64.5 %
Extraction speed 4.0 X
Track quality 100.0 %
Test CRC F8700FAF
Copy CRC F8700FAF
Accurately ripped (confidence 1) [0E429B8C] (AR v2)
Copy OK
Track 2
Filename H:\EAC NEW Rips\02 Bach, Mass in B minor BWV232 - II. Qui sedes.wav
Pre-gap length 0:00:02.17
Peak level 47.8 %
Extraction speed 4.4 X
Track quality 100.0 %
Test CRC 60271E6A
Copy CRC 60271E6A
Accurately ripped (confidence 1) [AC36CE9B] (AR v2)
Copy OK
Track 3
Filename H:\EAC NEW Rips\03 Bach, Mass in B minor BWV232 - III. Et in unum Dominum.wav
Pre-gap length 0:00:03.13
Peak level 59.1 %
Extraction speed 4.9 X
Track quality 100.0 %
Test CRC 2E0B9F39
Copy CRC 2E0B9F39
Accurately ripped (confidence 1) [0106E2F5] (AR v2)
Copy OK
Track 4
Filename H:\EAC NEW Rips\04 Bach, Mass in B minor BWV232 - IV. Agnus Dei.wav
Pre-gap length 0:00:02.49
Peak level 58.8 %
Extraction speed 5.5 X
Track quality 100.0 %
Test CRC 2EB5EE05
Copy CRC 2EB5EE05
Accurately ripped (confidence 1) [9108C28D] (AR v2)
Copy OK
Track 5
Filename H:\EAC NEW Rips\05 Gluck, Orfeo ed Eurydice - Sinfonia.wav
Pre-gap length 0:00:09.09
Peak level 66.4 %
Extraction speed 5.4 X
Track quality 100.0 %
Test CRC 620AA47A
Copy CRC 620AA47A
Accurately ripped (confidence 1) [94975192] (AR v2)
Copy OK
Track 6
Filename H:\EAC NEW Rips\06 ACT I - Ah! se intorno a quest'urna funesta (Chorus, Orfeo).wav
Peak level 64.1 %
Extraction speed 6.0 X
Track quality 100.0 %
Test CRC 0F33F30D
Copy CRC 0F33F30D
Accurately ripped (confidence 1) [2245A48A] (AR v2)
Copy OK
Track 7
Filename H:\EAC NEW Rips\07 ACT I - Amici, quel lamento (Orfeo).wav
Peak level 12.3 %
Extraction speed 3.3 X
Track quality 100.0 %
Test CRC 0B23DDCA
Copy CRC 0B23DDCA
Accurately ripped (confidence 1) [FCE561FF] (AR v2)
Copy OK
Track 8
Filename H:\EAC NEW Rips\08 ACT I - Ballet of Shepherds and Nymphs (Orchestra).wav
Peak level 26.8 %
Extraction speed 4.1 X
Track quality 99.9 %
Test CRC 1C22ECC8
Copy CRC 1C22ECC8
Accurately ripped (confidence 1) [5011B813] (AR v2)
Copy OK
Track 9
Filename H:\EAC NEW Rips\09 ACT I - Ah! se intorno a quest'urna funesta (Chorus, Orfeo).wav
Peak level 63.0 %
Extraction speed 5.0 X
Track quality 99.9 %
Test CRC 21497A5A
Copy CRC 21497A5A
Accurately ripped (confidence 1) [60F066F6] (AR v2)
Copy OK
Track 10
Filename H:\EAC NEW Rips\10 ACT I - Chiamo il mio ben cosi.wav
Peak level 60.6 %
Extraction speed 7.2 X
Track quality 100.0 %
Test CRC 1F434B9D
Copy CRC 1F434B9D
Accurately ripped (confidence 1) [9E2C0A4E] (AR v2)
Copy OK
Track 11
Filename H:\EAC NEW Rips\11 ACT I - Voi delle ombre oscura (Orfeo).wav
Peak level 59.1 %
Extraction speed 4.7 X
Track quality 100.0 %
Test CRC 810F43F3
Copy CRC 810F43F3
Accurately ripped (confidence 1) [A8B38BF0] (AR v2)
Copy OK
Track 12
Filename H:\EAC NEW Rips\12 ACT I - Amore assistera l'infelice marito! (Amore, Orfeo).wav
Peak level 64.2 %
Extraction speed 6.6 X
Track quality 100.0 %
Test CRC AC75FC26
Copy CRC AC75FC26
Accurately ripped (confidence 1) [1B8F941E] (AR v2)
Copy OK
Track 13
Filename H:\EAC NEW Rips\13 ACT I - Gli sguardi trattieni (Amore).wav
Peak level 62.0 %
Extraction speed 6.7 X
Track quality 100.0 %
Test CRC A49012D0
Copy CRC A49012D0
Accurately ripped (confidence 1) [BA22515B] (AR v2)
Copy OK
Track 14
Filename H:\EAC NEW Rips\14 ACT I - Che disse Che ascoltai (Orfeo).wav
Peak level 63.3 %
Extraction speed 6.6 X
Track quality 100.0 %
Test CRC EBA5FA3E
Copy CRC EBA5FA3E
Accurately ripped (confidence 1) [32813320] (AR v2)
Copy OK
Track 15
Filename H:\EAC NEW Rips\15 ACT II, Scene 1 - Dance of the Furies - Chi mai dell'Erebo (Orchestra, Chorus).wav
Pre-gap length 0:00:04.92
Peak level 58.1 %
Extraction speed 8.0 X
Track quality 100.0 %
Test CRC 03D144E1
Copy CRC 03D144E1
Accurately ripped (confidence 1) [F83760A6] (AR v2)
Copy OK
Track 16
Filename H:\EAC NEW Rips\16 ACT II, Scene 1 - Deh! placatevi con me (Orfeo, Chorus).wav
Peak level 58.2 %
Extraction speed 5.4 X
Track quality 99.9 %
Test CRC C6952487
Copy CRC C6952487
Accurately ripped (confidence 1) [D3075354] (AR v2)
Copy OK
Track 17
Filename H:\EAC NEW Rips\17 ACT II, Scene 1 - Misero giovane! (Chorus).wav
Peak level 56.1 %
Extraction speed 5.1 X
Track quality 100.0 %
Test CRC 2DD10DD2
Copy CRC 2DD10DD2
Accurately ripped (confidence 1) [F871FDE0] (AR v2)
Copy OK
Track 18
Filename H:\EAC NEW Rips\18 ACT II, Scene 1 - Mille pene, ombre sdegnose (Orfeo).wav
Peak level 37.0 %
Extraction speed 5.0 X
Track quality 100.0 %
Test CRC 87A307BE
Copy CRC 87A307BE
Accurately ripped (confidence 1) [D8F35F21] (AR v2)
Copy OK
Track 19
Filename H:\EAC NEW Rips\19 ACT II, Scene 1 - Ah! quale incognito (Chorus, Orfeo).wav
Peak level 56.9 %
Extraction speed 7.6 X
Track quality 100.0 %
Test CRC 9721E9C1
Copy CRC 9721E9C1
Accurately ripped (confidence 1) [EC4717F8] (AR v2)
Copy OK
All tracks accurately ripped
No errors occurred
End of status report
---- CUETools DB Plugin V2.1.3
[CTDB TOCID: OV6x9ir_0dqfJIxo1WshliRLUxQ-] disk not present in database, Submit result: OV6x9ir_0dqfJIxo1WshliRLUxQ- has been uploaded
==== Log checksum 22A578DF2D70731CC87C8EC8473FD8D7A441A9A59980075C5AFDFF1E70A1297F ====

CD 3

Exact Audio Copy V1.0 beta 3 from 29. August 2011
EAC extraction logfile from 10. August 2012, 14:09
Kathleen Ferrier / K.Ferrier - The Complete EMI Recordings (Cd3of3)
Used drive : TSSTcorpCDDVDW SH-222BB Adapter: 2 ID: 0
Read mode : Secure
Utilize accurate stream : Yes
Defeat audio cache : Yes
Make use of C2 pointers : No
Read offset correction : 6
Overread into Lead-In and Lead-Out : No
Fill up missing offset samples with silence : Yes
Delete leading and trailing silent blocks : No
Null samples used in CRC calculations : Yes
Used interface : Native Win32 interface for Win NT & 2000
Gap handling : Appended to previous track
Used output format : User Defined Encoder
Selected bitrate : 192 kBit/s
Quality : High
Add ID3 tag : No
Command line compressor : C:\Program Files (x86)\FLAC\flac.exe
Additional command line options : -T "artist=%artist%" -T "title=%title%" -T "album=%albumtitle%" -T "date=%year%" -T "tracknumber=%tracknr%" -T "genre=%genre%" -T "comment=%comment%" -T "composer=%composer%" -8 %source%
TOC of the extracted CD
Track | Start | Length | Start sector | End sector
---------------------------------------------------------
1 | 0:00.00 | 8:47.50 | 0 | 39574
2 | 8:47.50 | 3:45.66 | 39575 | 56515
3 | 12:33.41 | 5:32.52 | 56516 | 81467
4 | 18:06.18 | 2:19.73 | 81468 | 91965
5 | 20:26.16 | 2:31.02 | 91966 | 103292
6 | 22:57.18 | 0:35.16 | 103293 | 105933
7 | 23:32.34 | 3:17.43 | 105934 | 120751
8 | 26:50.02 | 4:02.65 | 120752 | 138966
9 | 30:52.67 | 4:28.06 | 138967 | 159072
10 | 35:20.73 | 1:43.73 | 159073 | 166870
11 | 37:04.71 | 3:45.70 | 166871 | 183815
12 | 40:50.66 | 2:18.02 | 183816 | 194167
13 | 43:08.68 | 1:16.21 | 194168 | 199888
14 | 44:25.14 | 4:43.39 | 199889 | 221152
15 | 49:08.53 | 1:19.35 | 221153 | 227112
16 | 50:28.13 | 1:19.28 | 227113 | 233065
17 | 51:47.41 | 3:02.18 | 233066 | 246733
18 | 54:49.59 | 1:19.40 | 246734 | 252698
19 | 56:09.24 | 5:20.53 | 252699 | 276751
20 | 61:30.02 | 6:36.30 | 276752 | 306481
Track 1
Filename H:\EAC NEW Rips\01 ACT II, Scene 2 - Dance of the Blessed Spirits - Dance of the Heroes (Orchestra).wav
Pre-gap length 0:00:02.00
Peak level 52.7 %
Extraction speed 2.8 X
Track quality 100.0 %
Test CRC AE5EE866
Copy CRC AE5EE866
Accurately ripped (confidence 1) [C3DF5409] (AR v2)
Copy OK
Track 2
Filename H:\EAC NEW Rips\02 ACT II, Scene 2 - E quest'asile ameno e grato (Eurydice, Chorus).wav
Peak level 65.5 %
Extraction speed 3.0 X
Track quality 100.0 %
Test CRC 6936CA79
Copy CRC 6936CA79
Accurately ripped (confidence 1) [FF196BDD] (AR v2)
Copy OK
Track 3
Filename H:\EAC NEW Rips\03 ACT II, Scene 2 - Che puro ciel! Che chiaro sol! (Orfeo).wav
Peak level 60.3 %
Extraction speed 3.4 X
Track quality 100.0 %
Test CRC CF856201
Copy CRC CF856201
Accurately ripped (confidence 1) [362FD50B] (AR v2)
Copy OK
Track 4
Filename H:\EAC NEW Rips\04 ACT II, Scene 2 - Vien a'regni del riposo (Chorus).wav
Peak level 68.9 %
Extraction speed 3.1 X
Track quality 100.0 %
Test CRC 9765D7DB
Copy CRC 9765D7DB
Accurately ripped (confidence 1) [1AB6519C] (AR v2)
Copy OK
Track 5
Filename H:\EAC NEW Rips\05 ACT II, Scene 2 - Ballet of the Heroes (Orchestra).wav
Peak level 36.7 %
Extraction speed 2.2 X
Track quality 99.9 %
Test CRC 2BFE7987
Copy CRC 2BFE7987
Accurately ripped (confidence 1) [558B5E21] (AR v2)
Copy OK
Track 6
Filename H:\EAC NEW Rips\06 ACT II, Scene 2 - O voi, ombre felici (Orfeo, Chorus).wav
Peak level 57.1 %
Extraction speed 1.9 X
Track quality 100.0 %
Test CRC A59B32F7
Copy CRC A59B32F7
Accurately ripped (confidence 1) [41116361] (AR v2)
Copy OK
Track 7
Filename H:\EAC NEW Rips\07 ACT II, Scene 2 - Torna, o bello (Chorus).wav
Peak level 67.6 %
Extraction speed 3.6 X
Track quality 100.0 %
Test CRC E733F322
Copy CRC E733F322
Accurately ripped (confidence 1) [5DEDDFC1] (AR v2)
Copy OK
Track 8
Filename H:\EAC NEW Rips\08 ACT III - Ah vieni, o diletta, vien con me.wav
Pre-gap length 0:00:05.41
Peak level 64.8 %
Extraction speed 3.9 X
Track quality 100.0 %
Test CRC 78463E58
Copy CRC 78463E58
Accurately ripped (confidence 1) [8C601B55] (AR v2)
Copy OK
Track 9
Filename H:\EAC NEW Rips\09 ACT III - Vieni! Vieni con me, vieni, o cara! (Orfeo, Eurydice).wav
Peak level 67.7 %
Extraction speed 4.1 X
Track quality 100.0 %
Test CRC 98140D16
Copy CRC 98140D16
Accurately ripped (confidence 1) [7E92884F] (AR v2)
Copy OK
Track 10
Filename H:\EAC NEW Rips\10 ACT III - Ah, dovess'io saper (Eurydice).wav
Peak level 60.1 %
Extraction speed 3.5 X
Track quality 100.0 %
Test CRC F17E6221
Copy CRC F17E6221
Accurately ripped (confidence 1) [FAD08EAD] (AR v2)
Copy OK
Track 11
Filename H:\EAC NEW Rips\11 ACT III - Che fiero momento.wav
Peak level 75.4 %
Extraction speed 4.3 X
Track quality 100.0 %
Test CRC 6923D144
Copy CRC 6923D144
Accurately ripped (confidence 1) [93AEE6B5] (AR v2)
Copy OK
Track 12
Filename H:\EAC NEW Rips\12 ACT III - Ah, per me il duol ricomincia (Eurydice, Orfeo).wav
Peak level 58.7 %
Extraction speed 4.0 X
Track quality 100.0 %
Test CRC 50779EC9
Copy CRC 50779EC9
Accurately ripped (confidence 1) [A3F67EDF] (AR v2)
Copy OK
Track 13
Filename H:\EAC NEW Rips\13 ACT III - Che feci mai.wav
Peak level 76.0 %
Extraction speed 3.4 X
Track quality 100.0 %
Test CRC 8ABD48B8
Copy CRC 8ABD48B8
Accurately ripped (confidence 1) [FA7EF70C] (AR v2)
Copy OK
Track 14
Filename H:\EAC NEW Rips\14 ACT III - Che faro senza Eurydice.wav
Peak level 74.2 %
Extraction speed 3.7 X
Track quality 99.9 %
Test CRC AB8996D4
Copy CRC AB8996D4
Accurately ripped (confidence 1) [D14D78D7] (AR v2)
Copy OK
Track 15
Filename H:\EAC NEW Rips\15 ACT III - Ah! finisca e per sempre (Orfeo).wav
Peak level 39.0 %
Extraction speed 3.6 X
Track quality 100.0 %
Test CRC A688C246
Copy CRC A688C246
Accurately ripped (confidence 1) [F0A9F3D7] (AR v2)
Copy OK
Track 16
Filename H:\EAC NEW Rips\16 ACT III - Non piu! che fai tu.wav
Peak level 56.1 %
Extraction speed 2.1 X
Track quality 99.8 %
Test CRC 66658F89
Copy CRC 66658F89
Accurately ripped (confidence 1) [BD986D08] (AR v2)
Copy OK
Track 17
Filename H:\EAC NEW Rips\17 ACT III - Gaudio, gaudio son al cuore (Amore, Orfeo, Eurydice).wav
Peak level 68.7 %
Extraction speed 3.3 X
Track quality 99.9 %
Test CRC 08D04EF7
Copy CRC 08D04EF7
Accurately ripped (confidence 1) [55809A52] (AR v2)
Copy OK
Track 18
Filename H:\EAC NEW Rips\18 ACT III - Trionfi Amore! (Chorus).wav
Peak level 74.4 %
Extraction speed 3.7 X
Track quality 100.0 %
Test CRC 99759E4C
Copy CRC 99759E4C
Accurately ripped (confidence 1) [EB6DB8A8] (AR v2)
Copy OK
Track 19
Filename H:\EAC NEW Rips\19 Mahler, Kindertotenlieder (alternative takes) - Nun will die Sonn' so hell aufgeh'n.wav
Pre-gap length 0:00:08.76
Peak level 60.9 %
Extraction speed 4.1 X
Track quality 99.9 %
Test CRC 175F0ABD
Copy CRC 175F0ABD
Accurately ripped (confidence 1) [F1FEBD00] (AR v2)
Copy OK
Track 20
Filename H:\EAC NEW Rips\20 Mahler, Kindertotenlieder (alternative takes) - In diesem Wetter, in diesem Braus.wav
Pre-gap length 0:00:02.56
Peak level 57.4 %
Extraction speed 4.5 X
Track quality 99.9 %
Test CRC 95A16CC4
Copy CRC 95A16CC4
Accurately ripped (confidence 1) [B0FDE19D] (AR v2)
Copy OK
All tracks accurately ripped
No errors occurred
End of status report
---- CUETools DB Plugin V2.1.3
[CTDB TOCID: nqJgnnem8xca87OKbcOPpQ17roc-] found, Submit result: nqJgnnem8xca87OKbcOPpQ17roc- has been confirmed
[f47a314a] (1/1) Accurately ripped
==== Log checksum 98F2B581AFB7B62226CA3A26E7B7C2CFDCB130244564B69B8259D1D06EA3BC53 ====

Содержание индексной карты (.CUE)

CD 1

REM GENRE Lieder
REM DATE 2012
REM DISCID FE0E4812
REM COMMENT "ExactAudioCopy v1.0b3"
CATALOG 5099995628523
PERFORMER "Kathleen Ferrier"
TITLE "K.Ferrier - The Complete EMI Recordings (Cd1of3)"
FILE "01 Gluck, What is life without thee (Orpheus & Eurydice).wav" WAVE
TRACK 01 AUDIO
TITLE "Gluck, What is life without thee? (Orpheus & Eurydice)"
PERFORMER "Kathleen Ferrier, Gerald Moore"
ISRC GBAYC9705194
INDEX 01 00:00:00
TRACK 02 AUDIO
TITLE "Brahms, Liebestreu op.3 nr.1"
PERFORMER "Kathleen Ferrier, Gerald Moore"
ISRC GBAYC9705196
INDEX 00 04:34:58
FILE "02 Brahms, Liebestreu op.3 nr.1.wav" WAVE
INDEX 01 00:00:00
TRACK 03 AUDIO
TITLE "Brahms, Feinsliebchen (Deutsche Volkslieder II, nr.12)"
PERFORMER "Kathleen Ferrier, Gerald Moore"
ISRC GBAYC9705198
INDEX 00 02:14:49
FILE "03 Brahms, Feinsliebchen (Deutsche Volkslieder II, nr.12).wav" WAVE
INDEX 01 00:00:00
TRACK 04 AUDIO
TITLE "Elgar, My work is done...It is because (The Dream of Gerontius)"
PERFORMER "Kathleen Ferrier, Gerald Moore"
ISRC GBAYC9705200
INDEX 00 02:35:03
FILE "04 Elgar, My work is done...It is because (The Dream of Gerontius).wav" WAVE
INDEX 01 00:00:00
TRACK 05 AUDIO
TITLE "Greene, I will lay me down in peace (O God of righteousness)"
PERFORMER "Kathleen Ferrier, Gerald Moore"
ISRC GBAYC9705201
INDEX 00 03:17:36
FILE "05 Greene, I will lay me down in peace (O God of righteousness).wav" WAVE
INDEX 01 00:00:00
TRACK 06 AUDIO
TITLE "Greene, O praise the Lord (Praise the Lord, o my soul)"
PERFORMER "Kathleen Ferrier, Gerald Moore"
ISRC GBAYC9705202
INDEX 00 03:45:22
FILE "06 Greene, O praise the Lord (Praise the Lord, o my soul).wav" WAVE
INDEX 01 00:00:00
TRACK 07 AUDIO
TITLE "Handel, Spring is coming (Ottone)"
PERFORMER "Kathleen Ferrier, Gerald Moore"
ISRC GBAYC9800833
INDEX 00 01:48:04
FILE "07 Handel, Spring is coming (Ottone).wav" WAVE
INDEX 01 00:00:00
TRACK 08 AUDIO
TITLE "Handel, Come to me, soothing sleep (Ottone)"
PERFORMER "Kathleen Ferrier, Gerald Moore"
ISRC GBAYC9800834
INDEX 00 03:52:46
FILE "08 Handel, Come to me, soothing sleep (Ottone).wav" WAVE
INDEX 01 00:00:00
TRACK 09 AUDIO
TITLE "Purcell, Sound the trumpet (Birthday Ode to Queen Mary)"
PERFORMER "Kathleen Ferrier, Isobel Baillie, Gerald Moore"
ISRC GBAYC9800827
INDEX 00 04:16:66
FILE "09 Purcell, Sound the trumpet (Birthday Ode to Queen Mary).wav" WAVE
INDEX 01 00:00:00
TRACK 10 AUDIO
TITLE "Purcell, Let us wander, not unseen (The Indian Queen)"
PERFORMER "Kathleen Ferrier, Isobel Baillie, Gerald Moore"
ISRC GBAYC9800828
INDEX 00 02:01:41
FILE "10 Purcell, Let us wander, not unseen (The Indian Queen).wav" WAVE
INDEX 01 00:00:00
TRACK 11 AUDIO
TITLE "Purcell, Shepherd, Shepherd, cease decoying (King Arthur)"
PERFORMER "Kathleen Ferrier, Isobel Baillie, Gerald Moore"
ISRC GBAYC9801084
INDEX 00 01:46:31
FILE "11 Purcell, Shepherd, Shepherd, cease decoying (King Arthur).wav" WAVE
INDEX 01 00:00:00
TRACK 12 AUDIO
TITLE "Mendelssohn, I would that my love op.63 nr.1"
PERFORMER "Kathleen Ferrier, Isobel Baillie, Gerald Moore"
ISRC GBAYC9800837
INDEX 00 01:20:51
FILE "12 Mendelssohn, I would that my love op.63 nr.1.wav" WAVE
INDEX 01 00:00:00
TRACK 13 AUDIO
TITLE "Mendelssohn, Greeting op.63 nr.3"
PERFORMER "Kathleen Ferrier, Isobel Baillie, Gerald Moore"
ISRC GBAYC9801085
INDEX 00 02:46:19
FILE "13 Mendelssohn, Greeting op.63 nr.3.wav" WAVE
INDEX 01 00:00:00
TRACK 14 AUDIO
TITLE "Mahler, Kindertotenlieder - I. Nun will die Sonn' so hell aufgeh'n"
PERFORMER "Kathleen Ferrier, Wiener Philharmoniker, Bruno Walter"
ISRC GBAYC9800822
INDEX 00 02:31:05
FILE "14 Mahler, Kindertotenlieder - I. Nun will die Sonn' so hell aufgeh'n.wav" WAVE
INDEX 01 00:00:00
FILE "15 Mahler, Kindertotenlieder - II. Nun seh ich wohl, warum so dunkle Flammen.wav" WAVE
TRACK 15 AUDIO
TITLE "Mahler, Kindertotenlieder - II. Nun seh ich wohl, warum so dunkle Flammen"
PERFORMER "Kathleen Ferrier, Wiener Philharmoniker, Bruno Walter"
ISRC GBAYC9800823
INDEX 01 00:00:00
FILE "16 Mahler, Kindertotenlieder - III. Wenn dein Mutterlein.wav" WAVE
TRACK 16 AUDIO
TITLE "Mahler, Kindertotenlieder - III. Wenn dein Mutterlein"
PERFORMER "Kathleen Ferrier, Wiener Philharmoniker, Bruno Walter"
ISRC GBAYC9800824
INDEX 01 00:00:00
TRACK 17 AUDIO
TITLE "Mahler, Kindertotenlieder - IV. Oft denk' ich, sie sind nur ausgegangen"
PERFORMER "Kathleen Ferrier, Wiener Philharmoniker, Bruno Walter"
ISRC GBAYC9800825
INDEX 00 04:30:58
FILE "17 Mahler, Kindertotenlieder - IV. Oft denk' ich, sie sind nur ausgegangen.wav" WAVE
INDEX 01 00:00:00
FILE "18 Mahler, Kindertotenlieder - V. In diesem Wetter.wav" WAVE
TRACK 18 AUDIO
TITLE "Mahler, Kindertotenlieder - V. In diesem Wetter"
PERFORMER "Kathleen Ferrier, Wiener Philharmoniker, Bruno Walter"
ISRC GBAYC9800826
INDEX 01 00:00:00

CD 2

REM GENRE Opera
REM DATE 2012
REM DISCID 0E0E3213
REM COMMENT "ExactAudioCopy v1.0b3"
CATALOG 5099995628721
PERFORMER "Kathleen Ferrier"
TITLE "K.Ferrier - The Complete EMI Recordings (Cd2of3)"
FILE "01 Bach, Mass in B minor BWV232 - I. Christe eleison.wav" WAVE
TRACK 01 AUDIO
TITLE "Bach, Mass in B minor BWV232 - I. Christe eleison"
PERFORMER "K.Ferrier, E.Schwarzkopf; Wiener Symphoniker, H. von Karajan"
ISRC GBAYC9901118
INDEX 01 00:00:00
TRACK 02 AUDIO
TITLE "Bach, Mass in B minor BWV232 - II. Qui sedes"
PERFORMER "K.Ferrier, E.Schwarzkopf; Wiener Symphoniker, H. von Karajan"
ISRC GBAYC9901120
INDEX 00 03:36:40
FILE "02 Bach, Mass in B minor BWV232 - II. Qui sedes.wav" WAVE
INDEX 01 00:00:00
TRACK 03 AUDIO
TITLE "Bach, Mass in B minor BWV232 - III. Et in unum Dominum"
PERFORMER "K.Ferrier, E.Schwarzkopf; Wiener Symphoniker, H. von Karajan"
ISRC GBAYC9901121
INDEX 00 03:36:61
FILE "03 Bach, Mass in B minor BWV232 - III. Et in unum Dominum.wav" WAVE
INDEX 01 00:00:00
TRACK 04 AUDIO
TITLE "Bach, Mass in B minor BWV232 - IV. Agnus Dei"
PERFORMER "K.Ferrier, E.Schwarzkopf; Wiener Symphoniker, H. von Karajan"
ISRC GBAYC9901122
INDEX 00 04:15:50
FILE "04 Bach, Mass in B minor BWV232 - IV. Agnus Dei.wav" WAVE
INDEX 01 00:00:00
TRACK 05 AUDIO
TITLE "Gluck, Orfeo ed Eurydice - Sinfonia"
PERFORMER "K.Ferrier, Gr.Koeman, N.Duval; Chorus&Orch. Netherlands Opera, Ch.Bruck"
ISRC NLA270400366
INDEX 00 05:30:36
FILE "05 Gluck, Orfeo ed Eurydice - Sinfonia.wav" WAVE
INDEX 01 00:00:00
FILE "06 ACT I - Ah! se intorno a quest'urna funesta (Chorus, Orfeo).wav" WAVE
TRACK 06 AUDIO
TITLE "ACT I - Ah! se intorno a quest'urna funesta (Chorus, Orfeo)"
PERFORMER "K.Ferrier, Gr.Koeman, N.Duval; Chorus&Orch. Netherlands Opera, Ch.Bruck"
ISRC NLA270400366
INDEX 01 00:00:00
FILE "07 ACT I - Amici, quel lamento (Orfeo).wav" WAVE
TRACK 07 AUDIO
TITLE "ACT I - Amici, quel lamento (Orfeo)"
PERFORMER "K.Ferrier, Gr.Koeman, N.Duval; Chorus&Orch. Netherlands Opera, Ch.Bruck"
ISRC NLA270400368
INDEX 01 00:00:00
FILE "08 ACT I - Ballet of Shepherds and Nymphs (Orchestra).wav" WAVE
TRACK 08 AUDIO
TITLE "ACT I - Ballet of Shepherds and Nymphs (Orchestra)"
PERFORMER "K.Ferrier, Gr.Koeman, N.Duval; Chorus&Orch. Netherlands Opera, Ch.Bruck"
ISRC NLA270400369
INDEX 01 00:00:00
FILE "09 ACT I - Ah! se intorno a quest'urna funesta (Chorus, Orfeo).wav" WAVE
TRACK 09 AUDIO
TITLE "ACT I - Ah! se intorno a quest'urna funesta (Chorus, Orfeo)"
PERFORMER "K.Ferrier, Gr.Koeman, N.Duval; Chorus&Orch. Netherlands Opera, Ch.Bruck"
ISRC NLA270400369
INDEX 01 00:00:00
FILE "10 ACT I - Chiamo il mio ben cosi.wav" WAVE
TRACK 10 AUDIO
TITLE "ACT I - Chiamo il mio ben cosi"
PERFORMER "K.Ferrier, Gr.Koeman, N.Duval; Chorus&Orch. Netherlands Opera, Ch.Bruck"
ISRC NLA270400371
INDEX 01 00:00:00
FILE "11 ACT I - Voi delle ombre oscura (Orfeo).wav" WAVE
TRACK 11 AUDIO
TITLE "ACT I - Voi delle ombre oscura (Orfeo)"
PERFORMER "K.Ferrier, Gr.Koeman, N.Duval; Chorus&Orch. Netherlands Opera, Ch.Bruck"
ISRC NLA270400371
INDEX 01 00:00:00
FILE "12 ACT I - Amore assistera l'infelice marito! (Amore, Orfeo).wav" WAVE
TRACK 12 AUDIO
TITLE "ACT I - Amore assistera l'infelice marito! (Amore, Orfeo)"
PERFORMER "K.Ferrier, Gr.Koeman, N.Duval; Chorus&Orch. Netherlands Opera, Ch.Bruck"
ISRC NLA270400372
INDEX 01 00:00:00
FILE "13 ACT I - Gli sguardi trattieni (Amore).wav" WAVE
TRACK 13 AUDIO
TITLE "ACT I - Gli sguardi trattieni (Amore)"
PERFORMER "K.Ferrier, Gr.Koeman, N.Duval; Chorus&Orch. Netherlands Opera, Ch.Bruck"
ISRC NLA270400374
INDEX 01 00:00:00
FILE "14 ACT I - Che disse Che ascoltai (Orfeo).wav" WAVE
TRACK 14 AUDIO
TITLE "ACT I - Che disse? Che ascoltai? (Orfeo)"
PERFORMER "K.Ferrier, Gr.Koeman, N.Duval; Chorus&Orch. Netherlands Opera, Ch.Bruck"
ISRC NLA270400375
INDEX 01 00:00:00
TRACK 15 AUDIO
TITLE "ACT II, Scene 1 - Dance of the Furies - Chi mai dell'Erebo (Orchestra, Chorus)"
PERFORMER "K.Ferrier, Gr.Koeman, N.Duval; Chorus&Orch. Netherlands Opera, Ch.Bruck"
ISRC NLA270400376
INDEX 00 02:05:31
FILE "15 ACT II, Scene 1 - Dance of the Furies - Chi mai dell'Erebo (Orchestra, Chorus).wav" WAVE
INDEX 01 00:00:00
FILE "16 ACT II, Scene 1 - Deh! placatevi con me (Orfeo, Chorus).wav" WAVE
TRACK 16 AUDIO
TITLE "ACT II, Scene 1 - Deh! placatevi con me (Orfeo, Chorus)"
PERFORMER "K.Ferrier, Gr.Koeman, N.Duval; Chorus&Orch. Netherlands Opera, Ch.Bruck"
ISRC NLA270400377
INDEX 01 00:00:00
FILE "17 ACT II, Scene 1 - Misero giovane! (Chorus).wav" WAVE
TRACK 17 AUDIO
TITLE "ACT II, Scene 1 - Misero giovane! (Chorus)"
PERFORMER "K.Ferrier, Gr.Koeman, N.Duval; Chorus&Orch. Netherlands Opera, Ch.Bruck"
ISRC NLA270400378
INDEX 01 00:00:00
FILE "18 ACT II, Scene 1 - Mille pene, ombre sdegnose (Orfeo).wav" WAVE
TRACK 18 AUDIO
TITLE "ACT II, Scene 1 - Mille pene, ombre sdegnose (Orfeo)"
PERFORMER "K.Ferrier, Gr.Koeman, N.Duval; Chorus&Orch. Netherlands Opera, Ch.Bruck"
ISRC NLA270400379
INDEX 01 00:00:00
FILE "19 ACT II, Scene 1 - Ah! quale incognito (Chorus, Orfeo).wav" WAVE
TRACK 19 AUDIO
TITLE "ACT II, Scene 1 - Ah! quale incognito (Chorus, Orfeo)"
PERFORMER "K.Ferrier, Gr.Koeman, N.Duval; Chorus&Orch. Netherlands Opera, Ch.Bruck"
ISRC NLA270400380
INDEX 01 00:00:00

CD 3

REM GENRE Opera
REM DATE 2012
REM DISCID 150FF614
REM COMMENT "ExactAudioCopy v1.0b3"
CATALOG 5099995628929
PERFORMER "Kathleen Ferrier"
TITLE "K.Ferrier - The Complete EMI Recordings (Cd3of3)"
FILE "01 ACT II, Scene 2 - Dance of the Blessed Spirits - Dance of the Heroes (Orchestra).wav" WAVE
TRACK 01 AUDIO
TITLE "ACT II, Scene 2 - Dance of the Blessed Spirits - Dance of the Heroes (Orchestra)"
PERFORMER "K.Ferrier, Gr.Koeman, N.Duval; Chorus&Orch. Netherlands Opera, Ch.Bruck"
ISRC NLA270400381
INDEX 01 00:00:00
FILE "02 ACT II, Scene 2 - E quest'asile ameno e grato (Eurydice, Chorus).wav" WAVE
TRACK 02 AUDIO
TITLE "ACT II, Scene 2 - E quest'asile ameno e grato (Eurydice, Chorus)"
PERFORMER "K.Ferrier, Gr.Koeman, N.Duval; Chorus&Orch. Netherlands Opera, Ch.Bruck"
ISRC NLA270400382
INDEX 01 00:00:00
FILE "03 ACT II, Scene 2 - Che puro ciel! Che chiaro sol! (Orfeo).wav" WAVE
TRACK 03 AUDIO
TITLE "ACT II, Scene 2 - Che puro ciel! Che chiaro sol! (Orfeo)"
PERFORMER "K.Ferrier, Gr.Koeman, N.Duval; Chorus&Orch. Netherlands Opera, Ch.Bruck"
ISRC NLA270400383
INDEX 01 00:00:00
FILE "04 ACT II, Scene 2 - Vien a'regni del riposo (Chorus).wav" WAVE
TRACK 04 AUDIO
TITLE "ACT II, Scene 2 - Vien a'regni del riposo (Chorus)"
PERFORMER "K.Ferrier, Gr.Koeman, N.Duval; Chorus&Orch. Netherlands Opera, Ch.Bruck"
ISRC NLA270400384
INDEX 01 00:00:00
FILE "05 ACT II, Scene 2 - Ballet of the Heroes (Orchestra).wav" WAVE
TRACK 05 AUDIO
TITLE "ACT II, Scene 2 - Ballet of the Heroes (Orchestra)"
PERFORMER "K.Ferrier, Gr.Koeman, N.Duval; Chorus&Orch. Netherlands Opera, Ch.Bruck"
ISRC NLA270400385
INDEX 01 00:00:00
FILE "06 ACT II, Scene 2 - O voi, ombre felici (Orfeo, Chorus).wav" WAVE
TRACK 06 AUDIO
TITLE "ACT II, Scene 2 - O voi, ombre felici (Orfeo, Chorus)"
PERFORMER "K.Ferrier, Gr.Koeman, N.Duval; Chorus&Orch. Netherlands Opera, Ch.Bruck"
ISRC NLA270400386
INDEX 01 00:00:00
FILE "07 ACT II, Scene 2 - Torna, o bello (Chorus).wav" WAVE
TRACK 07 AUDIO
TITLE "ACT II, Scene 2 - Torna, o bello (Chorus)"
PERFORMER "K.Ferrier, Gr.Koeman, N.Duval; Chorus&Orch. Netherlands Opera, Ch.Bruck"
ISRC NLA270400387
INDEX 01 00:00:00
TRACK 08 AUDIO
TITLE "ACT III - Ah vieni, o diletta, vien con me"
PERFORMER "K.Ferrier, Gr.Koeman, N.Duval; Chorus&Orch. Netherlands Opera, Ch.Bruck"
ISRC NLA270400388
INDEX 00 03:12:12
FILE "08 ACT III - Ah vieni, o diletta, vien con me.wav" WAVE
INDEX 01 00:00:00
FILE "09 ACT III - Vieni! Vieni con me, vieni, o cara! (Orfeo, Eurydice).wav" WAVE
TRACK 09 AUDIO
TITLE "ACT III - Vieni! Vieni con me, vieni, o cara! (Orfeo, Eurydice)"
PERFORMER "K.Ferrier, Gr.Koeman, N.Duval; Chorus&Orch. Netherlands Opera, Ch.Bruck"
ISRC NLA270400389
INDEX 01 00:00:00
FILE "10 ACT III - Ah, dovess'io saper (Eurydice).wav" WAVE
TRACK 10 AUDIO
TITLE "ACT III - Ah, dovess'io saper (Eurydice)"
PERFORMER "K.Ferrier, Gr.Koeman, N.Duval; Chorus&Orch. Netherlands Opera, Ch.Bruck"
ISRC NLA270400390
INDEX 01 00:00:00
FILE "11 ACT III - Che fiero momento.wav" WAVE
TRACK 11 AUDIO
TITLE "ACT III - Che fiero momento"
PERFORMER "K.Ferrier, Gr.Koeman, N.Duval; Chorus&Orch. Netherlands Opera, Ch.Bruck"
ISRC NLA270400391
INDEX 01 00:00:00
FILE "12 ACT III - Ah, per me il duol ricomincia (Eurydice, Orfeo).wav" WAVE
TRACK 12 AUDIO
TITLE "ACT III - Ah, per me il duol ricomincia (Eurydice, Orfeo)"
PERFORMER "K.Ferrier, Gr.Koeman, N.Duval; Chorus&Orch. Netherlands Opera, Ch.Bruck"
ISRC NLA270400392
INDEX 01 00:00:00
FILE "13 ACT III - Che feci mai.wav" WAVE
TRACK 13 AUDIO
TITLE "ACT III - Che feci mai?"
PERFORMER "K.Ferrier, Gr.Koeman, N.Duval; Chorus&Orch. Netherlands Opera, Ch.Bruck"
ISRC NLA270400393
INDEX 01 00:00:00
FILE "14 ACT III - Che faro senza Eurydice.wav" WAVE
TRACK 14 AUDIO
TITLE "ACT III - Che faro senza Eurydice?"
PERFORMER "K.Ferrier, Gr.Koeman, N.Duval; Chorus&Orch. Netherlands Opera, Ch.Bruck"
ISRC NLA270400393
INDEX 01 00:00:00
FILE "15 ACT III - Ah! finisca e per sempre (Orfeo).wav" WAVE
TRACK 15 AUDIO
TITLE "ACT III - Ah! finisca e per sempre (Orfeo)"
PERFORMER "K.Ferrier, Gr.Koeman, N.Duval; Chorus&Orch. Netherlands Opera, Ch.Bruck"
ISRC NLA270400395
INDEX 01 00:00:00
FILE "16 ACT III - Non piu! che fai tu.wav" WAVE
TRACK 16 AUDIO
TITLE "ACT III - Non piu! che fai tu?"
PERFORMER "K.Ferrier, Gr.Koeman, N.Duval; Chorus&Orch. Netherlands Opera, Ch.Bruck"
ISRC NLA270400396
INDEX 01 00:00:00
FILE "17 ACT III - Gaudio, gaudio son al cuore (Amore, Orfeo, Eurydice).wav" WAVE
TRACK 17 AUDIO
TITLE "ACT III - Gaudio, gaudio son al cuore (Amore, Orfeo, Eurydice)"
PERFORMER "K.Ferrier, Gr.Koeman, N.Duval; Chorus&Orch. Netherlands Opera, Ch.Bruck"
ISRC NLA270400397
INDEX 01 00:00:00
FILE "18 ACT III - Trionfi Amore! (Chorus).wav" WAVE
TRACK 18 AUDIO
TITLE "ACT III - Trionfi Amore! (Chorus)"
PERFORMER "K.Ferrier, Gr.Koeman, N.Duval; Chorus&Orch. Netherlands Opera, Ch.Bruck"
ISRC NLA270400398
INDEX 01 00:00:00
TRACK 19 AUDIO
TITLE "Mahler, Kindertotenlieder (alternative takes) - Nun will die Sonn' so hell au..."
PERFORMER "Kathleen Ferrier, Wiener Philharmoniker, Bruno Walter"
ISRC GBAYC1105145
INDEX 00 01:10:58
FILE "19 Mahler, Kindertotenlieder (alternative takes) - Nun will die Sonn' so hell aufgeh'n.wav" WAVE
INDEX 01 00:00:00
TRACK 20 AUDIO
TITLE "Mahler, Kindertotenlieder (alternative takes) - In diesem Wetter, in diesem B..."
PERFORMER "Kathleen Ferrier, Wiener Philharmoniker, Bruno Walter"
ISRC GBAYC1105146
INDEX 00 05:18:11
FILE "20 Mahler, Kindertotenlieder (alternative takes) - In diesem Wetter, in diesem Braus.wav" WAVE
INDEX 01 00:00:00

Доп. информация

Kathleen Ferrier (22 April 1912–8 October 1953) remains one of the best-loved British singers of our time. The eminent vocal expert Alan Blyth wrote of her in 1998: ‘Kathleen Ferrier, a legend in her own lifetime, has certainly become one since her untimely death in 1953. Her professional life, lasting little more than a decade, saw her rise from the obscurity of appearing with choirs in the north of England to the eminence of an international career in the company of such conductors as Barbirolli, Walter and Klemperer. It was an extraordinary transformation in every respect, but one wholly justified by the dignity and conviction of her singing and the commitment of her interpretations.’
CD 1 begins with four test recordings of pieces by Gluck, Brahms and Elgar recorded by producer Walter Legge in June 1944 but not issued until 1978. Ferrier signed a one-year contract with EMI in September 1944 and her first commercial release was the two arias by the Baroque composer Maurice Greene that follow. Then come two Handel solos and five duets with soprano Isobel Baillie of compositions by Purcell and Mendelssohn. These completed Ferrier’s EMI contract and she then moved to Decca.
In 1949 Ferrier came back to EMI to record Mahler’s Kindertotenlieder in London with the Vienna Philharmonic Orchestra conducted by Bruno Walter, the great Mahlerian who had introduced Ferrier to this work, which closes CD1
CD 2 begins with four items recorded at a rehearsal in June 1950 for a concert of the Bach Mass in B Minor in Vienna with the Vienna Symphony Orchestra conducted by Karajan. EMI was setting up its recording equipment in the Musikvereinssaal for another project while the rehearsal was taking place and the engineer, as a test, turned on the tape machine to capture, almost complete, these four precious Ferrier tracks, which include two solos and two duets with the soprano Elisabeth Schwarzkopf.
Then comes a complete performance of Ferrier’s signature operatic role, that of Orfeo in Orfeo ed Euridice by Gluck. This live recording dates from a radio broadcast in July 1951 in Amsterdam.
CD 3 concludes with two bonus tracks; these are reserve takes of the first and the fifth movements of Kindertotenlieder being issued here for the first time. This work was originally recorded on 12-inch waxes, with a tape machine running as safety back-up, as was EMI’s practice in 1949. Masters from the waxes were used for most of the original 78-rpm sides, but for the release of the work on CD, the back-up tapes were used, and these reserve ‘takes’ have also survived.
Composer: Johann Sebastian Bach, Johannes Brahms, Sir Edward Elgar, Christoph W. Gluck, ...
Performer: Kathleen Ferrier, Elisabeth Schwarzkopf, Gerald Moore, Nel Duval, ...
Conductor: Herbert von Karajan, Charles Bruck, Bruno Walter
Orchestra/Ensemble: Vienna Symphony Orchestra, Netherlands Opera Orchestra, Netherlands Opera Chorus, ...
-
Reviews: There is a theory that part of Ferrier’s extraordinary quality of sound derives from the fact that she was in a sense a true original, never having been schooled to acquire a “conservatory sound”. However, to my ears, she is simply the natural successor in a line of traditional British contraltos now virtually extinct. The nearest we have heard post-war is another great British singer, Janet Baker. She would surely admit to possessing a somewhat lighter voice with a timbre and colouring more mezzo-soprano than true contralto. Even so, there is considerable overlap in the Fach, bearing in mind that Verdi expected his contraltos to have a top B, as indeed did the stentorian British contralto Dame Clara Butt. Both Baker and Ferrier excelled as Gluck’s Orfeo and in Brahms’Vier ernste Gesänge. Whereas Baker had more of an upper extension and was never going to attempt Fricka or Waltraute, it is possible to speculate that Ferrier could have gone on to sing some of the great Wagner roles had she lived beyond the age of 41.
Certainly the richness of her oboe sound, with its amplitude and unobtrusive, flickering vibrato, inspired an affection and emotional response in listeners which endure to this day. This despite the fact Ferrier had a professional career spanning little more than a decade.
The earliest items here are those tests made by Legge in 1944 which remained unissued until 1978. They comprise pieces by Gluck, Brahms and Elgar. Although beautifully sung, the English translation of Che farò has, understandably, given the time when and the conditions under which it was made, a rather placid, oratorio-like quality. The aria is utterly transformed by the time we come to the complete, live performance in 1951. Particularly valuable is the aria from The Dream of Gerontius, sung grandly to only piano accompaniment, as she never recorded a role which was surely ideal suited to her sonorous, plangent alto.
She signed a one year contract with Legge and her first commercial releases were the two stately arias by Maurice Greene, two sterling Handel solos and five delightful duets from Purcell and Mendelssohn with Isobel Baillie. She then left for Decca, returning to EMI to record Kindertotenlieder with Walter in 1949. The bonus tracks here are previously unreleased back-up takes. Interestingly, the notes tell us that these were “originally recorded on 12-inch waxes, with a tape machine running as safety back-up, as was EMI s practice in 1949. Masters from the waxes were used for most of the original 78-rpm sides, but for the release of the work on CD, the back-up tapes were used, and these reserve takes have also survived.”
Moving on to 1951, Ferrier’s Orfeo is a tour de force: the sinews of her Italian have by this stage of her career hardened and she is able to fine down her ample tone to enhance the pathos of her appeal to the Furies. The first cries of “Euridice” send the message that here is a voice of depth and tenderness. Her soft singing, command of portamento and affecting messa di voce all add greatly to the drama of Euridice’s second death and the subsequent celebrated lament. Sadly, no other singer on stage - neither the two other soloists, nor the enthusiastic and expressive chorus afflicted with the curse of the wobbly soprano - is remotely in her league. The Amore is nasal and tweety but adequate; Euridice is gusty and tremulous. The opening of the Elysian Fields scene is especially unpromising, with ill-tuned strings, the chorus slipping out of synch with the orchestra and Euridice twittering unsteadily. Things soon look up with a lovely, rapt, absolutely steady Che puro ciel! from Ferrier. Bruck skilfully brings out the delicate orchestration to heighten the serene mood. As further compensation, the sound derived from the painstakingly restored original tapes is very acceptable. The voices are very present. There are very few coughs and even though the orchestral sound is muddy, it is clear that Bruck conducts sensitively. He is always alive to Gluck’s colouring and paces proceedings aptly, unlike Stiedry’s undue haste. In particular, he gets the tempo just right for Che farò.
The version sung is a kind of back-formation of Berlioz’s orchestration sung in Italian, standard before an amalgam of the Vienna and Paris editions became the norm. A modern listener will find it somewhat truncated.
The other major item here is the Mahler song cycle with Walter. Many collectors will already be familiar with their famous Das Lied von der Erde. The conductor was a huge admirer of the singer and that respect was reciprocated. Again we notice how Ferrier’s linguistic command has matured under Walter’s tutelage and the interpretations themselves are mesmerising. Her dark voice and Walter’s authentic Mahlerian sensibility make a perfect marriage. The playing of the VPO is wonderfully warm and impassioned. This remains a classic account and every lover of these elegies should know it.
The two previously unreleased bonus tracks reveal the consistency of Ferrier’s instrument; perhaps one or two slight rhythmic slips and a desire to fill out her tone more fully at one or two climaxes and apply more emotional weight in places such as the opening of In diesem Wetter prompted the desire to re-take but any imperfections are hardly perceptible.
[teatrix.ru].t10014.torrent 
Торрент: Зарегистрирован [ 2015-10-25 20:37 ] · 28674045E15006A2F96DEA49143AA802A52AE38F

Скачать .torrent

Скачать

24 KB

Статус: проверено
Скачан: 1 раз
Размер: 432 MB
terms.php



Быстрый ответ

Имя:

      
Для отправки сообщений необходимо включить JavaScript
Показать сообщения:    

Текущее время: 09-Дек 12:47

Часовой пояс: UTC + 3


Вы можете начинать темы
Вы можете отвечать на сообщения
Вы не можете редактировать свои сообщения
Вы не можете удалять свои сообщения
Вы не можете голосовать в опросах
Вы не можете прикреплять файлы к сообщениям
Вы можете скачивать файлы