(Classical) Treasures of Chamber Music [Vol.2, 10 CDs] — Haydn, Schubert, Verdi, Sibelius, Mozart, Strauss, Britten, Webern, Шостакович, Губайдулина, Прокофьев, Рахманинов, etc. (Various) — 2012, SONY, FLAC (image+.cue) lossless


Статистика раздачи [Обновить пиров]
Размер:  2.5 GB   |    Зарегистрирован:  1 год 1 месяц   |    Скачан:  1 раз

Полного источника не было: 1 месяц 7 дней

 
   
 
 
 

[Цитировать]

Treasures of Chamber Music [Vol.2, 10 CDs] — Haydn, Schubert, Verdi, Sibelius, Mozart, Strauss, Britten, Webern, Шостакович, Губайдуллина, Прокофьев, Рахманинов, etc. (Various) — 2012, SONY
Жанр: Classical
Страна-производитель диска: E U
Год издания диска: 2012
Издатель (лейбл): Sony
Номер по каталогу: 88725452932
Аудиокодек: FLAC
Тип рипа: image+.cue
Битрейт аудио: lossless
Продолжительность: 10h 55min
Источник: Odeon
Наличие сканов в содержимом раздачи: сканы буклета
-
-
-
-
-Treasures of Chamber Music [Vol.1, 10 CDs] ——— т а м.-
-
-
-
-

Трэклист & ИсполнителиCD 01

Franz Schubert (1797-1828):
String Quintet in C major D.956
01. 1. Allegro ma non troppo [0:21:02.15]
02. 2. Adagio [0:14:44.20]
03. 3. Scherzo: Presto - Trio: Andante sostenuto [0:10:20.40]
04. 4. Allegretto [0:09:26.45]
Juilliard String Quartet
Bernard Greenhouse - cello

CD 02

Giuseppe Verdi (1813-1901):
String quartet in E minor
01. I. Allegro [0:08:00.10]
02. II. Andantino [0:07:03.42]
03. III. Prestissimo [0:03:18.18]
04. IV. Scherzo Fuga [0:04:31.72]
Jean Sibelius (1865-1957):
String Quartet in D minor "Voces Intimae", Op. 56
05. Andante - Allegro molto moderato [0:06:30.28]
06. Vivace [0:02:37.65]
07. Adagio di molto [0:10:01.37]
08. Allegretto (ma pesante) [0:06:25.03]
09. Allegro [0:05:20.50]
Juilliard String Quartet

CD 03

Wolfgang Amadeus Mozart (1756-1791):
Divertimento in D major, K.136
01. (i) Allegro [0:04:15.50]
02. (ii) Andante [0:06:02.20]
03. (ii) Presto [0:02:35.25]
Divertimento in B-flat major, K.137
04. (i) Andante [0:05:18.40]
05. (ii) Allegro di molto [0:02:31.50]
06. (iii) Allegro assai [0:02:38.42]
Divertimento in F major, K.138
07. (i) (Allegro) [0:03:50.33]
08. (ii) Andante [0:04:12.27]
09. (iii) Presto [0:02:05.28]
12 German Dances
10. No. 1 in C major, K 600 No. 1 [0:01:46.67]
11. No. 2 in F major, K 600 No. 2 [0:01:58.25]
12. No. 3 in B-flat major, K 600 No. 3 [0:01:53.05]
13. No. 4 in E-flat major, K 600 No. 4 [0:01:44.60]
14. No. 5 in G major, K 600 No. 5 "Der Kanarienvogel" [0:01:28.70]
15. No. 6 in D major, K 600 No. 6 [0:02:01.65]
16. No. 7 in B-flat major, K 602 No. 1 [0:01:41.45]
17. No. 8 in F major, K 602 No. 2 [0:01:44.35]
18. No. 9 in C major, K 602 No. 3 "Der Leiermann" [0:01:53.73]
19. No. 10 in F major, K 602 No. 4 (orig. A major) [0:01:46.35]
20. No. 11 in A major, K 605 No. 1 (orig. D major) [0:01:53.50]
21. No. 12 in C major, K 605 No. 3 "Die Schlittenfahrt" (orig. F major) [0:02:16.05]
22. Josef Lanner (1801-1843):
"Die Mozartisten", op.196
Ensemble Wien

CD 04

Richard Strauss (1864-1949):
Sonata for Cello and Piano in F major, op.6
01. I - Allegro con brio [0:11:06.17]
02. II - Andante ma non troppo [0:09:03.58]
03. III - Finale: Allegro vivo [0:09:10.50]
Benjamin Britten (1913-1976):
Sonata for Cello and Piano in C major, op.65
04. I - Dialogo: Allegro [0:07:38.00]
05. II - Scherzo pizzicato: Allegretto [0:02:41.25]
06. III - Elegia: Lento [0:07:00.50]
07. IV - Marcia: Energico [0:02:14.60]
08. V - Moto perpetuo: Presto [0:02:39.65]
Yo-Yo Ma - cello
Emanuel Ax - piano

CD 05

Franz Schubert (1797-1828):
Quintet for Piano & Strings in A Major, D.667 "Trout Quintet"
01. I. Allegro vivace [0:13:36.12]
02. II. Adante [0:07:07.63]
03. III. Scherzo: Presto [0:04:05.00]
04. IV. Tema: Andantino [0:08:21.00]
05. V. Finale: Allegro giusto [0:06:25.00]
Rudolf Serkin - piano
Jaime Laredo - violin
Philipp Naegele - viola
Leslie Parnas - cello
Julius Levine - bass
Wolfgang Amadeus Mozart (1756-1791):
Quintet for Clarinet & Strings in A Major, K.581 "Stadler"
06. I. Allegro [0:07:09.00]
07. II. Larghetto [0:06:24.00]
08. III. Menuetto [0:07:36.00]
09. IV. Allegro con variazioni [0:09:38.05]
Harold Wright - clarinet
Alexander Schneider - violin
Isidore Cohen - violin
Samuel Rhodes - viola
Leslie Parnas - cello

CD 06

Dmitri Shostakovich (1906-1975):
String Quartet No. 15, Op. 144 in E flat minor
01. I. Elegy: Adagio [0:12:17.55]
02. II. Serenade: Adagio [0:06:27.12]
03. III. Intermezzo: Adagio [0:01:51.08]
04. IV. Nocturne: Adagio [0:05:24.07]
05. V. Funeral March: Adagio molto [0:04:55.18]
06. VI. Epilogue: Adagio [0:07:13.07]
Sofia Gubaidulina (b.1931):
Rejoice! Sonata for Violin and Cello
07. Your joy no one will take away from you [0:03:34.65]
08. Rejoice with joy [0:04:16.63]
09. Rejoice Ravvi [0:10:05.02]
10. And he returned to his own abode [0:06:23.28]
11. Heed thyself [0:05:31.07]
Gidon Kremer - violin
Daniel Phillips - violin
Kim Kashkashian - viola
Yo-Yo Ma - cello

CD 07

Felix Mendelssohn Bartholdy (1809-1847):
Octet for violins, violas & cellos, Op. 20 (version for piano duet by the composer)
01. Allegro con fuoco mo moderato [0:14:10.06]
02. Andante [0:07:08.06]
03. Scherzo, allegro leggiero [0:04:13.07]
04. Presto [0:06:04.12]
Symphony no. 1 in C minor, Op. 11 (version for piano duet, violin and cello by the composer)
05. Molto allegro et vivace [0:09:29.56]
06. Andante con moto [0:06:31.58]
07. Intermezzo [0:03:46.08]
08. Finale, allegro vivace [0:07:30.02]
Piano Duo Yaara Tal & Andreas Groethuysen
Oliver Wille - violin
Mikayel Hakhnazaryan - cello

CD 08

Joseph Haydn (1732-1809):
"London" Trio No.1 for Flute, Violin and Cello in C major, Hob.IV:1
01. part 1 [0:03:43.27]
02. part 2 [0:02:31.70]
03. part 3 [0:01:51.58]
"London" Trio No.2 for Flute, Violin and Cello in G major, Hob.IV:2
04. part 1 [0:03:45.42]
05. part 2 [0:00:39.10]
06. part 3 [0:03:44.68]
"London" Trio No.3 for Flute, Violin and Cello in G major, Hob.IV:3
07. part 1 [0:03:51.07]
08. part 2 [0:02:59.68]
09. part 3 [0:03:37.52]
10. Divertimento No.2 for Flute; Violin and Cello in G major, Hob.: IV:7
11. Divertimento No.6 for Flute; Violin and Cello in D major, Hob.: IV:11
"London" Trio No.4 for Flute, Violin and Cello in G major, Hob.IV:4
12. part 1 [0:03:01.13]
13. part 2 [0:01:34.47]
14. part 3 [0:01:31.05]
15. part 4 [0:03:01.33]
Jean-Pierre Rampal - flute
Isaac Stern - violin
Mstislav Rostropovich - cello

CD 09

Anton Webern (1883-1945):
01. String Quartet (1905)
02. Slow Movement for string quartet
03. Rondo for string quartet
Five Movements for string quartet, Op. 5
04. No. 1, Heftig bewegt [0:02:23.45]
05. No. 2, Sehr langsam [0:02:26.68]
06. No. 3, Sehr bewegt [0:00:44.65]
07. No. 4, Sehr langsam [0:01:37.60]
08. No. 5, In zarter Bewegung [0:03:34.32]
Six Bagatelles for string quartet, op.9
09. No. 1, Massig [0:00:35.28]
10. No. 2, Leicht bewegt [0:00:27.32]
11. No. 3, Ziemlich fliessend [0:00:22.45]
12. No. 4, Sehr langsam [0:00:50.53]
13. No. 5, Ausserst langsam [0:01:09.50]
14. No. 6, Fliessend [0:00:42.52]
String Quartet, op.28
15. Mässig [0:03:57.65]
16. Gemächlich [0:01:44.38]
17. Sehr fliessend [0:02:25.45]
Michael Gielen (b.1932):
18. Variations for string quartet [0:16:21.67]
Artis Quartett

CD 10

Sergei Prokofiev (1891-1953):
Sonata for Cello & Piano in C major
01. I. Andante grave, Moderato aninato, Allegro moderato [0:12:19.17]
02. II. Moderato, Andante dolce [0:04:52.08]
03. III. Allegro ma non troppo, Andantino [0:08:09.00]
Sergei Rachmaninov (1873-1943):
Sonata for Cello & Piano in G minor
04. I. Lento, Allegro moderato, Moderato [0:14:16.67]
05. II. Allegro scherzando [0:06:46.10]
06. III. Andante [0:06:53.03]
07. IV. Allegro mosso, Moderato, Vivace [0:11:05.05]
Yo-Yo Ma - cello
Emanuel Ax - piano

Лог создания рипа

CD 01

Exact Audio Copy V1.0 beta 3 from 29. August 2011
EAC extraction logfile from 19. September 2012, 17:53
Juilliard Quartet / Treasures of Chamber Music - Schubert - [Vol.2] (Disc 1)
Used drive : TSSTcorpCDDVDW TS-L633M Adapter: 1 ID: 0
Read mode : Secure
Utilize accurate stream : Yes
Defeat audio cache : Yes
Make use of C2 pointers : No
Read offset correction : 6
Overread into Lead-In and Lead-Out : No
Fill up missing offset samples with silence : Yes
Delete leading and trailing silent blocks : No
Null samples used in CRC calculations : Yes
Used interface : Native Win32 interface for Win NT & 2000
Used output format : User Defined Encoder
Selected bitrate : 320 kBit/s
Quality : High
Add ID3 tag : No
Command line compressor : C:\Program Files\Exact Audio Copy\Flac\flac.exe
Additional command line options : -8 -V -T "TITLE=%title%" -T "ARTIST=%artist%" -T "ALBUMARTIST=%albumartist%" -T "ALBUM=%albumtitle%" -T "DATE=%year%" -T "TRACKNUMBER=%tracknr%" -T "TRACKTOTAL=%numtracks%" -T "GENRE=%genre%" -T "COMMENT=%comment%" -T "PERFORMER=%albuminterpret%" -T "COMPOSER=%composer%" %source% -o %dest%
TOC of the extracted CD
Track | Start | Length | Start sector | End sector
---------------------------------------------------------
1 | 0:00.00 | 21:02.15 | 0 | 94664
2 | 21:02.15 | 14:44.20 | 94665 | 160984
3 | 35:46.35 | 10:20.40 | 160985 | 207524
4 | 46:07.00 | 9:26.45 | 207525 | 250019
Range status and errors
Selected range
Filename C:\Users\JS\Desktop\Treasures of Chamber Music [Vol.2] (Disc 1)\cd1\Treasures of Chamber Music - Schubert - [Vol.2] (Disc 1).wav
Peak level 100.0 %
Extraction speed 1.7 X
Range quality 99.9 %
Test CRC CB48D66D
Copy CRC CB48D66D
Copy OK
No errors occurred
AccurateRip summary
Track 1 cannot be verified as accurate (confidence 3) [13D24FA2], AccurateRip returned [28C711A7] (AR v2)
Track 2 cannot be verified as accurate (confidence 3) [6F58DC33], AccurateRip returned [C93459E0] (AR v2)
Track 3 cannot be verified as accurate (confidence 3) [543DE4EA], AccurateRip returned [3D0B3D38] (AR v2)
Track 4 cannot be verified as accurate (confidence 3) [C5A3B923], AccurateRip returned [4865DA5F] (AR v2)
No tracks could be verified as accurate
You may have a different pressing from the one(s) in the database
End of status report

CD 02

Exact Audio Copy V1.0 beta 3 from 29. August 2011
EAC extraction logfile from 19. September 2012, 18:59
Juilliard String Quartet / Treasures of Chamber Music - Verdi & Sibelius - [Vol.2] (Disc 2)
Used drive : TSSTcorpCDDVDW SH-222BB Adapter: 2 ID: 1
Read mode : Secure
Utilize accurate stream : Yes
Defeat audio cache : Yes
Make use of C2 pointers : No
Read offset correction : 6
Overread into Lead-In and Lead-Out : No
Fill up missing offset samples with silence : Yes
Delete leading and trailing silent blocks : No
Null samples used in CRC calculations : Yes
Used interface : Native Win32 interface for Win NT & 2000
Used output format : User Defined Encoder
Selected bitrate : 1024 kBit/s
Quality : High
Add ID3 tag : No
Command line compressor : C:\Program Files\Exact Audio Copy\Flac\flac.exe
Additional command line options : -8 -V -T "TITLE=%title%" -T "ARTIST=%artist%" -T "ALBUMARTIST=%albumartist%" -T "ALBUM=%albumtitle%" -T "DATE=%year%" -T "TRACKNUMBER=%tracknr%" -T "TRACKTOTAL=%numtracks%" -T "GENRE=%genre%" -T "COMMENT=%comment%" -T "PERFORMER=%albuminterpret%" -T "COMPOSER=%composer%" %source% -o %dest%
TOC of the extracted CD
Track | Start | Length | Start sector | End sector
---------------------------------------------------------
1 | 0:00.00 | 8:00.10 | 0 | 36009
2 | 8:00.10 | 7:03.42 | 36010 | 67776
3 | 15:03.52 | 3:18.18 | 67777 | 82644
4 | 18:21.70 | 4:31.72 | 82645 | 103041
5 | 22:53.67 | 6:30.28 | 103042 | 132319
6 | 29:24.20 | 2:37.65 | 132320 | 144159
7 | 32:02.10 | 10:01.37 | 144160 | 189271
8 | 42:03.47 | 6:25.03 | 189272 | 218149
9 | 48:28.50 | 5:20.50 | 218150 | 242199
Range status and errors
Selected range
Filename F:\Ripped general\[9578] Treasures of Chamber Music [Vol.2]\cd2\Treasures of Chamber Music - Verdi & Sibelius - [Vol.2] (Disc 2).wav
Peak level 86.1 %
Extraction speed 6.7 X
Range quality 99.9 %
Test CRC 4289FD88
Copy CRC 4289FD88
Copy OK
No errors occurred
AccurateRip summary
Track 1 cannot be verified as accurate (confidence 3) [25D6C2F5], AccurateRip returned [F49C638A] (AR v2)
Track 2 cannot be verified as accurate (confidence 3) [8A23DDF3], AccurateRip returned [A0DE99AC] (AR v2)
Track 3 cannot be verified as accurate (confidence 3) [F70B2D50], AccurateRip returned [4F3ADDD9] (AR v2)
Track 4 cannot be verified as accurate (confidence 3) [CD4F3BCA], AccurateRip returned [9636BE24] (AR v2)
Track 5 cannot be verified as accurate (confidence 3) [4C13CB23], AccurateRip returned [CEFAC26A] (AR v2)
Track 6 cannot be verified as accurate (confidence 3) [D6104134], AccurateRip returned [44571685] (AR v2)
Track 7 cannot be verified as accurate (confidence 3) [4140545D], AccurateRip returned [103925AA] (AR v2)
Track 8 cannot be verified as accurate (confidence 3) [EF943A5C], AccurateRip returned [5C185941] (AR v2)
Track 9 cannot be verified as accurate (confidence 3) [A41D8A00], AccurateRip returned [2D0684B1] (AR v2)
No tracks could be verified as accurate
You may have a different pressing from the one(s) in the database
End of status report

CD 03

Exact Audio Copy V1.0 beta 3 from 29. August 2011
EAC extraction logfile from 19. September 2012, 19:45
Ensemble Wien / Treasures of Chamber Music - Mozart & Lanner - [Vol.2] (Disc 3)
Used drive : TSSTcorpCDDVDW SH-222BB Adapter: 2 ID: 1
Read mode : Secure
Utilize accurate stream : Yes
Defeat audio cache : Yes
Make use of C2 pointers : No
Read offset correction : 6
Overread into Lead-In and Lead-Out : No
Fill up missing offset samples with silence : Yes
Delete leading and trailing silent blocks : No
Null samples used in CRC calculations : Yes
Used interface : Native Win32 interface for Win NT & 2000
Used output format : User Defined Encoder
Selected bitrate : 1024 kBit/s
Quality : High
Add ID3 tag : No
Command line compressor : C:\Program Files\Exact Audio Copy\Flac\flac.exe
Additional command line options : -8 -V -T "TITLE=%title%" -T "ARTIST=%artist%" -T "ALBUMARTIST=%albumartist%" -T "ALBUM=%albumtitle%" -T "DATE=%year%" -T "TRACKNUMBER=%tracknr%" -T "TRACKTOTAL=%numtracks%" -T "GENRE=%genre%" -T "COMMENT=%comment%" -T "PERFORMER=%albuminterpret%" -T "COMPOSER=%composer%" %source% -o %dest%
TOC of the extracted CD
Track | Start | Length | Start sector | End sector
---------------------------------------------------------
1 | 0:00.00 | 4:15.50 | 0 | 19174
2 | 4:15.50 | 6:02.20 | 19175 | 46344
3 | 10:17.70 | 2:35.25 | 46345 | 57994
4 | 12:53.20 | 5:18.40 | 57995 | 81884
5 | 18:11.60 | 2:31.50 | 81885 | 93259
6 | 20:43.35 | 2:38.42 | 93260 | 105151
7 | 23:22.02 | 3:50.33 | 105152 | 122434
8 | 27:12.35 | 4:12.27 | 122435 | 141361
9 | 31:24.62 | 2:05.28 | 141362 | 150764
10 | 33:30.15 | 1:46.67 | 150765 | 158781
11 | 35:17.07 | 1:58.25 | 158782 | 167656
12 | 37:15.32 | 1:53.05 | 167657 | 176136
13 | 39:08.37 | 1:44.60 | 176137 | 183996
14 | 40:53.22 | 1:28.70 | 183997 | 190666
15 | 42:22.17 | 2:01.65 | 190667 | 199806
16 | 44:24.07 | 1:41.45 | 199807 | 207426
17 | 46:05.52 | 1:44.35 | 207427 | 215261
18 | 47:50.12 | 1:53.73 | 215262 | 223809
19 | 49:44.10 | 1:46.35 | 223810 | 231794
20 | 51:30.45 | 1:53.50 | 231795 | 240319
21 | 53:24.20 | 2:16.05 | 240320 | 250524
22 | 55:40.25 | 13:10.65 | 250525 | 309839
Range status and errors
Selected range
Filename F:\Ripped general\[9578] Treasures of Chamber Music [Vol.2]\cd3\Treasures of Chamber Music - Mozart & Lanner - [Vol.2] (Disc 3).wav
Peak level 100.0 %
Extraction speed 7.2 X
Range quality 100.0 %
Test CRC 4456391F
Copy CRC 4456391F
Copy OK
No errors occurred
AccurateRip summary
Track 1 cannot be verified as accurate (confidence 5) [8003F87C], AccurateRip returned [768666B9] (AR v2)
Track 2 cannot be verified as accurate (confidence 5) [9F416B4D], AccurateRip returned [E4A1C58E] (AR v2)
Track 3 cannot be verified as accurate (confidence 5) [6AC35FD7], AccurateRip returned [BBE516AF] (AR v2)
Track 4 cannot be verified as accurate (confidence 5) [268F4A06], AccurateRip returned [17839178] (AR v2)
Track 5 cannot be verified as accurate (confidence 5) [9346B24C], AccurateRip returned [2EB55791] (AR v2)
Track 6 cannot be verified as accurate (confidence 5) [201C3880], AccurateRip returned [4A04C1D1] (AR v2)
Track 7 cannot be verified as accurate (confidence 5) [4D9A1DCD], AccurateRip returned [7C67D7A2] (AR v2)
Track 8 cannot be verified as accurate (confidence 5) [F2068A53], AccurateRip returned [B90B4B79] (AR v2)
Track 9 cannot be verified as accurate (confidence 5) [263EB2BE], AccurateRip returned [70A1F28F] (AR v2)
Track 10 cannot be verified as accurate (confidence 5) [8C0006B9], AccurateRip returned [4255FF84] (AR v2)
Track 11 cannot be verified as accurate (confidence 5) [5511BD8A], AccurateRip returned [612AFC54] (AR v2)
Track 12 cannot be verified as accurate (confidence 5) [026530AB], AccurateRip returned [8BE1FDCD] (AR v2)
Track 13 cannot be verified as accurate (confidence 5) [4295B0D7], AccurateRip returned [816E2D0B] (AR v2)
Track 14 cannot be verified as accurate (confidence 5) [CA5E9D9F], AccurateRip returned [FE56357E] (AR v2)
Track 15 cannot be verified as accurate (confidence 5) [121302AD], AccurateRip returned [5AC94C4E] (AR v2)
Track 16 cannot be verified as accurate (confidence 5) [4751BA3C], AccurateRip returned [AADE546E] (AR v2)
Track 17 cannot be verified as accurate (confidence 5) [AB599972], AccurateRip returned [A7C85CF3] (AR v2)
Track 18 cannot be verified as accurate (confidence 5) [B9A6407E], AccurateRip returned [611F7839] (AR v2)
Track 19 cannot be verified as accurate (confidence 5) [462640C6], AccurateRip returned [4A45C04D] (AR v2)
Track 20 cannot be verified as accurate (confidence 5) [9948EF9C], AccurateRip returned [3EB6CE8F] (AR v2)
Track 21 cannot be verified as accurate (confidence 5) [495197C3], AccurateRip returned [53820829] (AR v2)
Track 22 cannot be verified as accurate (confidence 5) [E4DD2C3B], AccurateRip returned [724C2C16] (AR v2)
No tracks could be verified as accurate
You may have a different pressing from the one(s) in the database
End of status report

CD 04

Exact Audio Copy V1.0 beta 3 from 29. August 2011
EAC extraction logfile from 19. September 2012, 20:27
Yo-Yo Ma & Emanuel Ax / Treasures of Chamber Music - R.Strauss & Britten - [Vol.2] (Disc 4)
Used drive : TSSTcorpCDDVDW TS-L633M Adapter: 1 ID: 0
Read mode : Secure
Utilize accurate stream : Yes
Defeat audio cache : Yes
Make use of C2 pointers : No
Read offset correction : 6
Overread into Lead-In and Lead-Out : No
Fill up missing offset samples with silence : Yes
Delete leading and trailing silent blocks : No
Null samples used in CRC calculations : Yes
Used interface : Native Win32 interface for Win NT & 2000
Used output format : User Defined Encoder
Selected bitrate : 320 kBit/s
Quality : High
Add ID3 tag : No
Command line compressor : C:\Program Files\Exact Audio Copy\Flac\flac.exe
Additional command line options : -8 -V -T "TITLE=%title%" -T "ARTIST=%artist%" -T "ALBUMARTIST=%albumartist%" -T "ALBUM=%albumtitle%" -T "DATE=%year%" -T "TRACKNUMBER=%tracknr%" -T "TRACKTOTAL=%numtracks%" -T "GENRE=%genre%" -T "COMMENT=%comment%" -T "PERFORMER=%albuminterpret%" -T "COMPOSER=%composer%" %source% -o %dest%
TOC of the extracted CD
Track | Start | Length | Start sector | End sector
---------------------------------------------------------
1 | 0:00.00 | 11:06.17 | 0 | 49966
2 | 11:06.17 | 9:03.58 | 49967 | 90749
3 | 20:10.00 | 9:10.50 | 90750 | 132049
4 | 29:20.50 | 7:38.00 | 132050 | 166399
5 | 36:58.50 | 2:41.25 | 166400 | 178499
6 | 39:40.00 | 7:00.50 | 178500 | 210049
7 | 46:40.50 | 2:14.60 | 210050 | 220159
8 | 48:55.35 | 2:39.65 | 220160 | 232149
Range status and errors
Selected range
Filename C:\Users\JS\Desktop\Treasures of Chamber Music [Vol.2] (Disc 1)\cd4\Treasures of Chamber Music - R.Strauss & Britten - [Vol.2] (Disc 4).wav
Peak level 97.6 %
Extraction speed 1.8 X
Range quality 100.0 %
Test CRC 9678928F
Copy CRC 9678928F
Copy OK
No errors occurred
AccurateRip summary
Track 1 cannot be verified as accurate (confidence 1) [E88463A2], AccurateRip returned [00D89716] (AR v2)
Track 2 cannot be verified as accurate (confidence 1) [E8AA6E31], AccurateRip returned [C13121DF] (AR v2)
Track 3 cannot be verified as accurate (confidence 1) [C7BD0167], AccurateRip returned [2F8AB7F3] (AR v2)
Track 4 cannot be verified as accurate (confidence 1) [7D04E096], AccurateRip returned [B1293D03] (AR v2)
Track 5 cannot be verified as accurate (confidence 1) [A440F45B], AccurateRip returned [308CF131] (AR v2)
Track 6 cannot be verified as accurate (confidence 1) [C86741DA], AccurateRip returned [9779DC48] (AR v2)
Track 7 cannot be verified as accurate (confidence 1) [3862504A], AccurateRip returned [4B8A5A6C] (AR v2)
Track 8 cannot be verified as accurate (confidence 1) [F224A83E], AccurateRip returned [C9625983] (AR v2)
No tracks could be verified as accurate
You may have a different pressing from the one(s) in the database
End of status report

CD 05

Exact Audio Copy V1.0 beta 3 from 29. August 2011
EAC extraction logfile from 19. September 2012, 20:26
Various Artists / Treasures of Chamber Music - Schubert & Mozart - [Vol.2] (Disc 5)
Used drive : TSSTcorpCDDVDW SH-222BB Adapter: 2 ID: 1
Read mode : Secure
Utilize accurate stream : Yes
Defeat audio cache : Yes
Make use of C2 pointers : No
Read offset correction : 6
Overread into Lead-In and Lead-Out : No
Fill up missing offset samples with silence : Yes
Delete leading and trailing silent blocks : No
Null samples used in CRC calculations : Yes
Used interface : Native Win32 interface for Win NT & 2000
Used output format : User Defined Encoder
Selected bitrate : 1024 kBit/s
Quality : High
Add ID3 tag : No
Command line compressor : C:\Program Files\Exact Audio Copy\Flac\flac.exe
Additional command line options : -8 -V -T "TITLE=%title%" -T "ARTIST=%artist%" -T "ALBUMARTIST=%albumartist%" -T "ALBUM=%albumtitle%" -T "DATE=%year%" -T "TRACKNUMBER=%tracknr%" -T "TRACKTOTAL=%numtracks%" -T "GENRE=%genre%" -T "COMMENT=%comment%" -T "PERFORMER=%albuminterpret%" -T "COMPOSER=%composer%" %source% -o %dest%
TOC of the extracted CD
Track | Start | Length | Start sector | End sector
---------------------------------------------------------
1 | 0:00.00 | 13:36.12 | 0 | 61211
2 | 13:36.12 | 7:07.63 | 61212 | 93299
3 | 20:44.00 | 4:05.00 | 93300 | 111674
4 | 24:49.00 | 8:21.00 | 111675 | 149249
5 | 33:10.00 | 6:25.00 | 149250 | 178124
6 | 39:35.00 | 7:09.00 | 178125 | 210299
7 | 46:44.00 | 6:24.00 | 210300 | 239099
8 | 53:08.00 | 7:36.00 | 239100 | 273299
9 | 60:44.00 | 9:38.05 | 273300 | 316654
Range status and errors
Selected range
Filename F:\Ripped general\[9578] Treasures of Chamber Music [Vol.2]\cd5\Treasures of Chamber Music - Schubert & Mozart - [Vol.2] (Disc 5).wav
Peak level 100.0 %
Extraction speed 7.2 X
Range quality 99.9 %
Test CRC 1E838E4C
Copy CRC 1E838E4C
Copy OK
No errors occurred
AccurateRip summary
Track 1 not present in database
Track 2 not present in database
Track 3 not present in database
Track 4 not present in database
Track 5 not present in database
Track 6 not present in database
Track 7 not present in database
Track 8 not present in database
Track 9 not present in database
None of the tracks are present in the AccurateRip database
End of status report

CD 06

Exact Audio Copy V1.0 beta 3 from 29. August 2011
EAC extraction logfile from 19. September 2012, 20:50
Various Artists / Treasures of Chamber Music - Shostakovicht & Gubaidulina - [Vol.2] (Disc 6)
Used drive : TSSTcorpCDDVDW SH-222BB Adapter: 2 ID: 1
Read mode : Secure
Utilize accurate stream : Yes
Defeat audio cache : Yes
Make use of C2 pointers : No
Read offset correction : 6
Overread into Lead-In and Lead-Out : No
Fill up missing offset samples with silence : Yes
Delete leading and trailing silent blocks : No
Null samples used in CRC calculations : Yes
Used interface : Native Win32 interface for Win NT & 2000
Used output format : User Defined Encoder
Selected bitrate : 1024 kBit/s
Quality : High
Add ID3 tag : No
Command line compressor : C:\Program Files\Exact Audio Copy\Flac\flac.exe
Additional command line options : -8 -V -T "TITLE=%title%" -T "ARTIST=%artist%" -T "ALBUMARTIST=%albumartist%" -T "ALBUM=%albumtitle%" -T "DATE=%year%" -T "TRACKNUMBER=%tracknr%" -T "TRACKTOTAL=%numtracks%" -T "GENRE=%genre%" -T "COMMENT=%comment%" -T "PERFORMER=%albuminterpret%" -T "COMPOSER=%composer%" %source% -o %dest%
TOC of the extracted CD
Track | Start | Length | Start sector | End sector
---------------------------------------------------------
1 | 0:00.00 | 12:17.55 | 0 | 55329
2 | 12:17.55 | 6:27.12 | 55330 | 84366
3 | 18:44.67 | 1:51.08 | 84367 | 92699
4 | 20:36.00 | 5:24.07 | 92700 | 117006
5 | 26:00.07 | 4:55.18 | 117007 | 139149
6 | 30:55.25 | 7:13.07 | 139150 | 171631
7 | 38:08.32 | 3:34.65 | 171632 | 187746
8 | 41:43.22 | 4:16.63 | 187747 | 207009
9 | 46:00.10 | 10:05.02 | 207010 | 252386
10 | 56:05.12 | 6:23.28 | 252387 | 281139
11 | 62:28.40 | 5:31.07 | 281140 | 305971
Range status and errors
Selected range
Filename F:\Ripped general\[9578] Treasures of Chamber Music [Vol.2]\cd6\Treasures of Chamber Music - Shostakovicht & Gubaidulina - [Vol.2] (Disc 6).wav
Peak level 97.7 %
Extraction speed 7.0 X
Range quality 99.9 %
Test CRC 73297F91
Copy CRC 73297F91
Copy OK
No errors occurred
AccurateRip summary
Track 1 cannot be verified as accurate (confidence 3) [A8289953], AccurateRip returned [C8FE8592] (AR v2)
Track 2 cannot be verified as accurate (confidence 3) [AA92FDC2], AccurateRip returned [D6BC0190] (AR v2)
Track 3 cannot be verified as accurate (confidence 3) [A07ED561], AccurateRip returned [B5ECC4B5] (AR v2)
Track 4 cannot be verified as accurate (confidence 3) [5880257E], AccurateRip returned [3D9C48B7] (AR v2)
Track 5 cannot be verified as accurate (confidence 3) [1CE3A586], AccurateRip returned [D9E397F3] (AR v2)
Track 6 cannot be verified as accurate (confidence 3) [F16B7DC7], AccurateRip returned [67796578] (AR v2)
Track 7 cannot be verified as accurate (confidence 3) [303CF274], AccurateRip returned [C85C41AB] (AR v2)
Track 8 cannot be verified as accurate (confidence 3) [C7BADECF], AccurateRip returned [C99A66F8] (AR v2)
Track 9 cannot be verified as accurate (confidence 3) [07D05487], AccurateRip returned [4DE2DFFB] (AR v2)
Track 10 cannot be verified as accurate (confidence 3) [D6398367], AccurateRip returned [D45259B5] (AR v2)
Track 11 cannot be verified as accurate (confidence 3) [2323F6F6], AccurateRip returned [2205C49F] (AR v2)
No tracks could be verified as accurate
You may have a different pressing from the one(s) in the database
End of status report

CD 07

Exact Audio Copy V1.0 beta 3 from 29. August 2011
EAC extraction logfile from 19. September 2012, 21:52
Tal & Groethuysen / Treasures of Chamber Music - Mendelssohn - [Vol.2] (Disc 7)
Used drive : TSSTcorpCDDVDW TS-L633M Adapter: 1 ID: 0
Read mode : Secure
Utilize accurate stream : Yes
Defeat audio cache : Yes
Make use of C2 pointers : No
Read offset correction : 6
Overread into Lead-In and Lead-Out : No
Fill up missing offset samples with silence : Yes
Delete leading and trailing silent blocks : No
Null samples used in CRC calculations : Yes
Used interface : Native Win32 interface for Win NT & 2000
Used output format : User Defined Encoder
Selected bitrate : 320 kBit/s
Quality : High
Add ID3 tag : No
Command line compressor : C:\Program Files\Exact Audio Copy\Flac\flac.exe
Additional command line options : -8 -V -T "TITLE=%title%" -T "ARTIST=%artist%" -T "ALBUMARTIST=%albumartist%" -T "ALBUM=%albumtitle%" -T "DATE=%year%" -T "TRACKNUMBER=%tracknr%" -T "TRACKTOTAL=%numtracks%" -T "GENRE=%genre%" -T "COMMENT=%comment%" -T "PERFORMER=%albuminterpret%" -T "COMPOSER=%composer%" %source% -o %dest%
TOC of the extracted CD
Track | Start | Length | Start sector | End sector
---------------------------------------------------------
1 | 0:00.02 | 14:10.06 | 2 | 63757
2 | 14:10.08 | 7:08.06 | 63758 | 95863
3 | 21:18.14 | 4:13.07 | 95864 | 114845
4 | 25:31.21 | 6:04.12 | 114846 | 142157
5 | 31:35.33 | 9:29.56 | 142158 | 184888
6 | 41:05.14 | 6:31.58 | 184889 | 214271
7 | 47:36.72 | 3:46.08 | 214272 | 231229
8 | 51:23.05 | 7:30.02 | 231230 | 264981
Range status and errors
Selected range
Filename C:\Users\JS\Desktop\Treasures of Chamber Music [Vol.2] (Disc 1)\cd7\Treasures of Chamber Music - Mendelssohn - [Vol.2] (Disc 7).wav
Peak level 99.1 %
Extraction speed 1.8 X
Range quality 100.0 %
Test CRC 46066CDB
Copy CRC 46066CDB
Copy OK
No errors occurred
AccurateRip summary
Track 1 cannot be verified as accurate (confidence 6) [526358DC], AccurateRip returned [BAE1F14E] (AR v2)
Track 2 cannot be verified as accurate (confidence 6) [ADE92B02], AccurateRip returned [77800E52] (AR v2)
Track 3 cannot be verified as accurate (confidence 6) [0380F54D], AccurateRip returned [75F48945] (AR v2)
Track 4 cannot be verified as accurate (confidence 6) [9269C9E3], AccurateRip returned [F2677C6C] (AR v2)
Track 5 cannot be verified as accurate (confidence 6) [75AF3096], AccurateRip returned [CA304BA4] (AR v2)
Track 6 cannot be verified as accurate (confidence 6) [19E3AEF4], AccurateRip returned [D0AF6344] (AR v2)
Track 7 cannot be verified as accurate (confidence 6) [A0E26145], AccurateRip returned [54B72C17] (AR v2)
Track 8 cannot be verified as accurate (confidence 6) [32C1360B], AccurateRip returned [0355D371] (AR v2)
No tracks could be verified as accurate
You may have a different pressing from the one(s) in the database
End of status report

CD 08

Exact Audio Copy V1.0 beta 3 from 29. August 2011
EAC extraction logfile from 19. September 2012, 21:07
Franz Josef Haydn / Treasures of Chamber Music - Haydn - [Vol.2] (Disc 8)
Used drive : TSSTcorpCDDVDW SH-222BB Adapter: 2 ID: 1
Read mode : Secure
Utilize accurate stream : Yes
Defeat audio cache : Yes
Make use of C2 pointers : No
Read offset correction : 6
Overread into Lead-In and Lead-Out : No
Fill up missing offset samples with silence : Yes
Delete leading and trailing silent blocks : No
Null samples used in CRC calculations : Yes
Used interface : Native Win32 interface for Win NT & 2000
Used output format : User Defined Encoder
Selected bitrate : 1024 kBit/s
Quality : High
Add ID3 tag : No
Command line compressor : C:\Program Files\Exact Audio Copy\Flac\flac.exe
Additional command line options : -8 -V -T "TITLE=%title%" -T "ARTIST=%artist%" -T "ALBUMARTIST=%albumartist%" -T "ALBUM=%albumtitle%" -T "DATE=%year%" -T "TRACKNUMBER=%tracknr%" -T "TRACKTOTAL=%numtracks%" -T "GENRE=%genre%" -T "COMMENT=%comment%" -T "PERFORMER=%albuminterpret%" -T "COMPOSER=%composer%" %source% -o %dest%
TOC of the extracted CD
Track | Start | Length | Start sector | End sector
---------------------------------------------------------
1 | 0:00.00 | 3:43.27 | 0 | 16751
2 | 3:43.27 | 2:31.70 | 16752 | 28146
3 | 6:15.22 | 1:51.58 | 28147 | 36529
4 | 8:07.05 | 3:45.42 | 36530 | 53446
5 | 11:52.47 | 0:39.10 | 53447 | 56381
6 | 12:31.57 | 3:44.68 | 56382 | 73249
7 | 16:16.50 | 3:51.07 | 73250 | 90581
8 | 20:07.57 | 2:59.68 | 90582 | 104074
9 | 23:07.50 | 3:37.52 | 104075 | 120401
10 | 26:45.27 | 3:57.45 | 120402 | 138221
11 | 30:42.72 | 2:30.55 | 138222 | 149526
12 | 33:13.52 | 3:01.13 | 149527 | 163114
13 | 36:14.65 | 1:34.47 | 163115 | 170211
14 | 37:49.37 | 1:31.05 | 170212 | 177041
15 | 39:20.42 | 3:01.33 | 177042 | 190649
Range status and errors
Selected range
Filename F:\Ripped general\[9578] Treasures of Chamber Music [Vol.2]\cd8\Treasures of Chamber Music - Haydn - [Vol.2] (Disc 8).wav
Peak level 87.4 %
Extraction speed 6.4 X
Range quality 100.0 %
Test CRC 2CE449BD
Copy CRC 2CE449BD
Copy OK
No errors occurred
AccurateRip summary
Track 1 cannot be verified as accurate (confidence 3) [FFDCD66E], AccurateRip returned [F025495A] (AR v2)
Track 2 cannot be verified as accurate (confidence 3) [D2830875], AccurateRip returned [D392AED5] (AR v2)
Track 3 cannot be verified as accurate (confidence 3) [A1055678], AccurateRip returned [A518CA72] (AR v2)
Track 4 cannot be verified as accurate (confidence 3) [0929AD16], AccurateRip returned [24DAE05A] (AR v2)
Track 5 cannot be verified as accurate (confidence 3) [0B31656E], AccurateRip returned [24099619] (AR v2)
Track 6 cannot be verified as accurate (confidence 3) [55A0E3BE], AccurateRip returned [1C7F60EC] (AR v2)
Track 7 cannot be verified as accurate (confidence 3) [DFE95AF0], AccurateRip returned [EFE3B35F] (AR v2)
Track 8 cannot be verified as accurate (confidence 3) [BBFCA056], AccurateRip returned [2E3FF127] (AR v2)
Track 9 cannot be verified as accurate (confidence 3) [597EAEB1], AccurateRip returned [1F382BCB] (AR v2)
Track 10 cannot be verified as accurate (confidence 3) [73509FED], AccurateRip returned [E04A1681] (AR v2)
Track 11 cannot be verified as accurate (confidence 3) [D670206E], AccurateRip returned [469F2AE0] (AR v2)
Track 12 cannot be verified as accurate (confidence 3) [4787BE03], AccurateRip returned [FB66F229] (AR v2)
Track 13 cannot be verified as accurate (confidence 3) [AB3F937C], AccurateRip returned [DE912383] (AR v2)
Track 14 cannot be verified as accurate (confidence 3) [BD119AEA], AccurateRip returned [A82F9026] (AR v2)
Track 15 cannot be verified as accurate (confidence 3) [7BF33461], AccurateRip returned [AED481F3] (AR v2)
No tracks could be verified as accurate
You may have a different pressing from the one(s) in the database
End of status report

CD 09

Exact Audio Copy V1.0 beta 3 from 29. August 2011
EAC extraction logfile from 19. September 2012, 21:41
Artis Quartett / Treasures of Chamber Music - Webern & Gielen - [Vol.2] (Disc 9)
Used drive : TSSTcorpCDDVDW SH-222BB Adapter: 2 ID: 1
Read mode : Secure
Utilize accurate stream : Yes
Defeat audio cache : Yes
Make use of C2 pointers : No
Read offset correction : 6
Overread into Lead-In and Lead-Out : No
Fill up missing offset samples with silence : Yes
Delete leading and trailing silent blocks : No
Null samples used in CRC calculations : Yes
Used interface : Native Win32 interface for Win NT & 2000
Used output format : User Defined Encoder
Selected bitrate : 1024 kBit/s
Quality : High
Add ID3 tag : No
Command line compressor : C:\Program Files\Exact Audio Copy\Flac\flac.exe
Additional command line options : -8 -V -T "TITLE=%title%" -T "ARTIST=%artist%" -T "ALBUMARTIST=%albumartist%" -T "ALBUM=%albumtitle%" -T "DATE=%year%" -T "TRACKNUMBER=%tracknr%" -T "TRACKTOTAL=%numtracks%" -T "GENRE=%genre%" -T "COMMENT=%comment%" -T "PERFORMER=%albuminterpret%" -T "COMPOSER=%composer%" %source% -o %dest%
TOC of the extracted CD
Track | Start | Length | Start sector | End sector
---------------------------------------------------------
1 | 0:00.00 | 13:32.25 | 0 | 60924
2 | 13:32.25 | 7:08.17 | 60925 | 93041
3 | 20:40.42 | 7:04.60 | 93042 | 124901
4 | 27:45.27 | 2:23.45 | 124902 | 135671
5 | 30:08.72 | 2:26.68 | 135672 | 146689
6 | 32:35.65 | 0:44.65 | 146690 | 150054
7 | 33:20.55 | 1:37.60 | 150055 | 157389
8 | 34:58.40 | 3:34.32 | 157390 | 173471
9 | 38:32.72 | 0:35.28 | 173472 | 176124
10 | 39:08.25 | 0:27.32 | 176125 | 178181
11 | 39:35.57 | 0:22.45 | 178182 | 179876
12 | 39:58.27 | 0:50.53 | 179877 | 183679
13 | 40:49.05 | 1:09.50 | 183680 | 188904
14 | 41:58.55 | 0:42.52 | 188905 | 192106
15 | 42:41.32 | 3:57.65 | 192107 | 209946
16 | 46:39.22 | 1:44.38 | 209947 | 217784
17 | 48:23.60 | 2:25.45 | 217785 | 228704
18 | 50:49.30 | 16:21.67 | 228705 | 302346
Range status and errors
Selected range
Filename F:\Ripped general\[9578] Treasures of Chamber Music [Vol.2]\cd9\Treasures of Chamber Music - Webern & Gielen - [Vol.2] (Disc 9).wav
Peak level 99.5 %
Extraction speed 3.0 X
Range quality 100.0 %
Test CRC 61578AA7
Copy CRC 61578AA7
Copy OK
No errors occurred
AccurateRip summary
Track 1 cannot be verified as accurate (confidence 4) [6F8698EA], AccurateRip returned [75F12344] (AR v2)
Track 2 cannot be verified as accurate (confidence 4) [1E706668], AccurateRip returned [6D7039A9] (AR v2)
Track 3 cannot be verified as accurate (confidence 4) [2CC2B7ED], AccurateRip returned [01243B94] (AR v2)
Track 4 cannot be verified as accurate (confidence 4) [41EAECDD], AccurateRip returned [5EC86AC5] (AR v2)
Track 5 cannot be verified as accurate (confidence 4) [FCB52823], AccurateRip returned [D2A07CF5] (AR v2)
Track 6 cannot be verified as accurate (confidence 4) [99215D11], AccurateRip returned [0155733C] (AR v2)
Track 7 cannot be verified as accurate (confidence 4) [DB558D17], AccurateRip returned [CAF9062A] (AR v2)
Track 8 cannot be verified as accurate (confidence 4) [7F562344], AccurateRip returned [3E37130C] (AR v2)
Track 9 cannot be verified as accurate (confidence 4) [AE03236A], AccurateRip returned [671FBC55] (AR v2)
Track 10 cannot be verified as accurate (confidence 4) [1E2BD933], AccurateRip returned [9DF040E4] (AR v2)
Track 11 cannot be verified as accurate (confidence 4) [731BF870], AccurateRip returned [C6DF6E96] (AR v2)
Track 12 cannot be verified as accurate (confidence 4) [C22C81C1], AccurateRip returned [6F1DA25E] (AR v2)
Track 13 cannot be verified as accurate (confidence 4) [21E3021D], AccurateRip returned [5DC6CDEE] (AR v2)
Track 14 cannot be verified as accurate (confidence 4) [EB5E2D26], AccurateRip returned [66A24FC9] (AR v2)
Track 15 cannot be verified as accurate (confidence 4) [4C57EE2D], AccurateRip returned [B97545E6] (AR v2)
Track 16 cannot be verified as accurate (confidence 4) [D8A38789], AccurateRip returned [DF8F3DE4] (AR v2)
Track 17 cannot be verified as accurate (confidence 4) [014D046C], AccurateRip returned [0C2836FF] (AR v2)
Track 18 cannot be verified as accurate (confidence 4) [3FE807CB], AccurateRip returned [2A18F28C] (AR v2)
No tracks could be verified as accurate
You may have a different pressing from the one(s) in the database
End of status report

CD 10

Exact Audio Copy V1.0 beta 3 from 29. August 2011
EAC extraction logfile from 19. September 2012, 22:08
Emanuel Ax & Yo-Yo Ma / Treasures of Chamber Music - Prokofiev & Rachmaninov - [Vol.2] (Disc 10)
Used drive : TSSTcorpCDDVDW SH-222BB Adapter: 2 ID: 1
Read mode : Secure
Utilize accurate stream : Yes
Defeat audio cache : Yes
Make use of C2 pointers : No
Read offset correction : 6
Overread into Lead-In and Lead-Out : No
Fill up missing offset samples with silence : Yes
Delete leading and trailing silent blocks : No
Null samples used in CRC calculations : Yes
Used interface : Native Win32 interface for Win NT & 2000
Used output format : User Defined Encoder
Selected bitrate : 1024 kBit/s
Quality : High
Add ID3 tag : No
Command line compressor : C:\Program Files\Exact Audio Copy\Flac\flac.exe
Additional command line options : -8 -V -T "TITLE=%title%" -T "ARTIST=%artist%" -T "ALBUMARTIST=%albumartist%" -T "ALBUM=%albumtitle%" -T "DATE=%year%" -T "TRACKNUMBER=%tracknr%" -T "TRACKTOTAL=%numtracks%" -T "GENRE=%genre%" -T "COMMENT=%comment%" -T "PERFORMER=%albuminterpret%" -T "COMPOSER=%composer%" %source% -o %dest%
TOC of the extracted CD
Track | Start | Length | Start sector | End sector
---------------------------------------------------------
1 | 0:00.00 | 12:19.17 | 0 | 55441
2 | 12:19.17 | 4:52.08 | 55442 | 77349
3 | 17:11.25 | 8:09.00 | 77350 | 114024
4 | 25:20.25 | 14:16.67 | 114025 | 178291
5 | 39:37.17 | 6:46.10 | 178292 | 208751
6 | 46:23.27 | 6:53.03 | 208752 | 239729
7 | 53:16.30 | 11:05.05 | 239730 | 289609
Range status and errors
Selected range
Filename F:\Ripped general\[9578] Treasures of Chamber Music [Vol.2]\cd10\Treasures of Chamber Music - Prokofiev & Rachmaninov - [Vol.2] (Disc 10).wav
Peak level 86.9 %
Extraction speed 7.0 X
Range quality 99.9 %
Test CRC 494DFEB6
Copy CRC 494DFEB6
Copy OK
No errors occurred
AccurateRip summary
Track 1 cannot be verified as accurate (confidence 9) [33FF8F83], AccurateRip returned [7566A507] (AR v2)
Track 2 cannot be verified as accurate (confidence 9) [E97355E7], AccurateRip returned [9FA44F93] (AR v2)
Track 3 cannot be verified as accurate (confidence 8) [6518524B], AccurateRip returned [CB7CE1A8] (AR v2)
Track 4 cannot be verified as accurate (confidence 9) [BE3B66FB], AccurateRip returned [9CB614B7] (AR v2)
Track 5 cannot be verified as accurate (confidence 10) [4C8A4460], AccurateRip returned [FFC19B1E] (AR v2)
Track 6 cannot be verified as accurate (confidence 10) [596B7DD8], AccurateRip returned [F36D628A] (AR v2)
Track 7 cannot be verified as accurate (confidence 9) [5E772F9A], AccurateRip returned [50D2B4AE] (AR v2)
No tracks could be verified as accurate
You may have a different pressing from the one(s) in the database
End of status report
[teatrix.ru].t10015.torrent 
Торрент: Зарегистрирован [ 2015-10-25 20:37 ] · E6D2D8314108F8A694E5CFF8F9E9BB51DB1AC57D

Скачать .torrent

Скачать

24 KB

Статус: проверено
Скачан: 1 раз
Размер: 2.5 GB
terms.php



Быстрый ответ

Имя:

      
Для отправки сообщений необходимо включить JavaScript
Показать сообщения:    

Текущее время: 09-Дек 12:46

Часовой пояс: UTC + 3


Вы можете начинать темы
Вы можете отвечать на сообщения
Вы не можете редактировать свои сообщения
Вы не можете удалять свои сообщения
Вы не можете голосовать в опросах
Вы не можете прикреплять файлы к сообщениям
Вы можете скачивать файлы