(Classical) Дмитрий Шостакович - Концерты для фортепиано, скрипки, виолончели; Оркестровые сюиты, Камерные симфонии (Mullova, Kremer, Schiff, Ortiz, Ашкенази, Previn, Chailly, Ozawa, Jarvi, Шостакович, Баршай) - 2006, FLAC (image+.cue) lossless


Статистика раздачи [Обновить пиров]
Размер:  2.59 GB   |    Зарегистрирован:  1 год 1 месяц   |    Скачан:  0 раз

Полного источника не было: Никогда

 
   
 
 
 

[Цитировать]

Dmitri Shostakovich - Concertos, Orchestral Suites, Chamber Symphonies
Жанр: Classical
Страна-производитель диска: EU
Год издания диска: 2006
Издатель (лейбл): Decca
Номер по каталогу: 475 7431
Дата записи: 1972-2001
Аудиокодек: FLAC
Тип рипа: image+.cue
Битрейт аудио: lossless
Продолжительность: 10:42:35
Источник: Odeonmusic
Наличие сканов в содержимом раздачи: да

Треклист

CD 1
Jazz Suite No.1
Piano Concerto No. 1 in C minor *
Jazz Suite No.2
Tahiti Trot (Tea for two)
Ronald Brautigam - piano *
Peter Masseurs - trumpet *
Royal Concertgebouw Orchestra
Riccardo Chailly
- conductor
CD 2
Moscow-Cheryomushki, Suite from the operetta, Op. 105
The Bolt, Suite From The Ballet, Op. 27a
The Gadfly, Suite From The Film Score
Philadelphia Orchestra
Riccardo Chailly
- conductor
CD 3
Counterplan, excerpts from the film score, Op. 33
Alone, excerpts from the film score, Op. 26
The Silly Little Mouse, arranged from the film score, Op. 56
Hamlet, excerpts from the film score, Op. 116
The Great Citizen II, film score, Op. 55 - Funeral March
Sofia Perovskaya, film score, Op. 132 - Waltz
Pirogov, arranged from the film score, Op. 76a - Scherzo
The Gadfly, suite from the film score, Op. 97a
Pirogov, arranged from the film score, Op. 76a
Royal Concertgebouw Orchestra
Riccardo Chailly
- conductor
CD 4
Chamber Symphony Op.110A
Symphony for Strings Op.118A
Chamber Symphony Op.83A

Chamber Orchestra of Europe
Rudolf Barshai
- conductor
CD 5
Hamlet - Suite, op.32a from the film music
The Golden Age - Suite from the ballet, op.22a
The Bolt - Suite, op.27a from the ballet
Gothenburg Symphony Orchestra
Neeme Järvi - conductor
CD 6
Overture on Russian and Kirghiz Folk Themes, Op.115 *
The Song of the Forests, Op.81 +
The Execution of Stepan Razin, Op.119 #
Mikhail Kotliarov - tenor +
Nikita Storojev - bass +
Siegfried Vogel - bass #
New London Children's Choir +
Brighton Festival Chorus +
Rundfunkchor Leipzig #
Royal Concertgebouw Orchestra *
Royal Philarmonic Orchestra +
Radio-Sinfonie-Orchester Leipzig #

Bernard Haitink - conductor *
Vladimir Ashkenazy - conductor +
Herbert Kegel #
CD 7
Festival Overture, Op.96 *
Piano Concerto No.2 in F Major, Op.102 *
5 Fragments, Op.42 *
Symphony for strings and woodwinds, Op.73a +
October - symphonic poem, Op.131 *
Cristina Ortiz - piano
Royal Philharmonic Orchestra *
Chamber Orchestra of Europe +
Vladimir Ashkenazy - conductor *
Rudolf Barshai - conductor +
CD 8
Violin Concerto No. 1 in A minor, Op. 99 *
Violin Concerto No. 2 in C sharp minor, Op. 129 +
Viktoria Mullova - violin *
Gidon Kremer - violin +
Royal Philarmonic Orchestra *
Boston Symphony Orchestra +
André Previn - conductor *
Seiji Ozawa - conductor +
CD 9
Cello Concerto No. 1, Op. 107
Cello Concerto No. 2, Op. 126
Heinrich Schiff - cello
Symphonieorchester des Bayerischen Rundfunks
Maxim Shostakovich
- conductor

Лог создания рипаCD1

Exact Audio Copy V1.0 beta 3 from 29. August 2011
EAC extraction logfile from 4. August 2012, 10:20
Various Artists / Shostakovich - Concertos, Chamber Suites, Chamber Symphinies - VA (Disc 1)
Used drive : HL-DT-STDVDRAM GSA-H10A Adapter: 0 ID: 0
Read mode : SecureUtilize accurate stream : YesDefeat audio cache : YesMake use of C2 pointers : No
Read offset correction : 667Overread into Lead-In and Lead-Out : NoFill up missing offset samples with silence : YesDelete leading and trailing silent blocks : NoNull samples used in CRC calculations : YesUsed interface : Native Win32 interface for Win NT & 2000
Used output format : User Defined EncoderSelected bitrate : 1024 kBit/sQuality : HighAdd ID3 tag : NoCommand line compressor : C:\Program Files\Exact Audio Copy\Flac\flac.exeAdditional command line options : -8 -V -T "TITLE=%title%" -T "ARTIST=%artist%" -T "ALBUMARTIST=%albumartist%" -T "ALBUM=%albumtitle%" -T "DATE=%year%" -T "TRACKNUMBER=%tracknr%" -T "TRACKTOTAL=%numtracks%" -T "GENRE=%genre%" -T "COMMENT=%comment%" -T "PERFORMER=%albuminterpret%" -T "COMPOSER=%composer%" %source% -o %dest%
TOC of the extracted CD
Track | Start | Length | Start sector | End sector --------------------------------------------------------- 1 | 0:00.33 | 2:38.62 | 33 | 11944 2 | 2:39.20 | 1:44.73 | 11945 | 19817 3 | 4:24.18 | 3:48.47 | 19818 | 36964 4 | 8:12.65 | 5:37.23 | 36965 | 62262 5 | 13:50.13 | 8:03.50 | 62263 | 98537 6 | 21:53.63 | 1:43.65 | 98538 | 106327 7 | 23:37.53 | 6:39.30 | 106328 | 136282 8 | 30:17.08 | 3:07.07 | 136283 | 150314 9 | 33:24.15 | 2:38.60 | 150315 | 162224 10 | 36:03.00 | 3:03.10 | 162225 | 175959 11 | 39:06.10 | 3:24.50 | 175960 | 191309 12 | 42:30.60 | 2:36.65 | 191310 | 203074 13 | 45:07.50 | 3:44.60 | 203075 | 219934 14 | 48:52.35 | 3:38.48 | 219935 | 236332 15 | 52:31.08 | 2:29.37 | 236333 | 247544 16 | 55:00.45 | 3:32.43 | 247545 | 263487
Range status and errors
Selected range
Filename F:\Ripped general\[9701] Shostakovich - Concertos, Chamber Suites, Chamber Symphinies - VA\cd1\Shostakovich - Concertos, Chamber Suites, Chamber Symphinies - VA (Disc 1).wav
Peak level 99.8 % Extraction speed 4.5 X Range quality 100.0 % Test CRC 0622A8FA Copy CRC 0622A8FA Copy OK
No errors occurred
AccurateRip summary
Track 1 accurately ripped (confidence 8) [56BEF0F8] (AR v2)Track 2 accurately ripped (confidence 8) [E97F78D6] (AR v2)Track 3 accurately ripped (confidence 8) [5BB4E4EC] (AR v2)Track 4 accurately ripped (confidence 8) [DEA91D8C] (AR v2)Track 5 accurately ripped (confidence 8) [1F61C0D3] (AR v2)Track 6 accurately ripped (confidence 8) [8E8356D5] (AR v2)Track 7 accurately ripped (confidence 8) [7E916D48] (AR v2)Track 8 accurately ripped (confidence 8) [95B1599A] (AR v2)Track 9 accurately ripped (confidence 8) [8C23DD85] (AR v2)Track 10 accurately ripped (confidence 8) [42D0A237] (AR v2)Track 11 accurately ripped (confidence 8) [15E6F11E] (AR v2)Track 12 accurately ripped (confidence 8) [BA48FB39] (AR v2)Track 13 accurately ripped (confidence 8) [429B4FA8] (AR v2)Track 14 accurately ripped (confidence 8) [7EFDA814] (AR v2)Track 15 accurately ripped (confidence 8) [694F435F] (AR v2)Track 16 accurately ripped (confidence 8) [C0381E83] (AR v2)
All tracks accurately ripped
End of status report

CD2

Exact Audio Copy V1.0 beta 3 from 29. August 2011
EAC extraction logfile from 4. August 2012, 10:45
Various Artists / Shostakovich - Concertos, Chamber Suites, Chamber Symphinies - VA (Disc 2)
Used drive : HL-DT-STDVDRAM GSA-H10A Adapter: 0 ID: 0
Read mode : SecureUtilize accurate stream : YesDefeat audio cache : YesMake use of C2 pointers : No
Read offset correction : 667Overread into Lead-In and Lead-Out : NoFill up missing offset samples with silence : YesDelete leading and trailing silent blocks : NoNull samples used in CRC calculations : YesUsed interface : Native Win32 interface for Win NT & 2000
Used output format : User Defined EncoderSelected bitrate : 1024 kBit/sQuality : HighAdd ID3 tag : NoCommand line compressor : C:\Program Files\Exact Audio Copy\Flac\flac.exeAdditional command line options : -8 -V -T "TITLE=%title%" -T "ARTIST=%artist%" -T "ALBUMARTIST=%albumartist%" -T "ALBUM=%albumtitle%" -T "DATE=%year%" -T "TRACKNUMBER=%tracknr%" -T "TRACKTOTAL=%numtracks%" -T "GENRE=%genre%" -T "COMMENT=%comment%" -T "PERFORMER=%albuminterpret%" -T "COMPOSER=%composer%" %source% -o %dest%
TOC of the extracted CD
Track | Start | Length | Start sector | End sector --------------------------------------------------------- 1 | 0:00.33 | 3:32.25 | 33 | 15957 2 | 3:32.58 | 5:14.25 | 15958 | 39532 3 | 8:47.08 | 5:09.25 | 39533 | 62732 4 | 13:56.33 | 6:07.62 | 62733 | 90319 5 | 20:04.20 | 5:23.13 | 90320 | 114557 6 | 25:27.33 | 2:45.00 | 114558 | 126932 7 | 28:12.33 | 1:41.62 | 126933 | 134569 8 | 29:54.20 | 5:31.00 | 134570 | 159394 9 | 35:25.20 | 3:41.00 | 159395 | 175969 10 | 39:06.20 | 2:23.13 | 175970 | 186707 11 | 41:29.33 | 2:53.62 | 186708 | 199744 12 | 44:23.20 | 1:59.13 | 199745 | 208682 13 | 46:22.33 | 3:00.37 | 208683 | 222219 14 | 49:22.70 | 2:35.13 | 222220 | 233857 15 | 51:58.08 | 1:07.00 | 233858 | 238882 16 | 53:05.08 | 1:36.62 | 238883 | 246144 17 | 54:41.70 | 2:14.00 | 246145 | 256194 18 | 56:55.70 | 2:39.38 | 256195 | 268157 19 | 59:35.33 | 2:32.25 | 268158 | 279582 20 | 62:07.58 | 2:11.12 | 279583 | 289419 21 | 64:18.70 | 2:00.18 | 289420 | 298437 22 | 66:19.13 | 3:20.32 | 298438 | 313469 23 | 69:39.45 | 3:18.50 | 313470 | 328369
Range status and errors
Selected range
Filename F:\Ripped general\[9701] Shostakovich - Concertos, Chamber Suites, Chamber Symphinies - VA\cd2\Shostakovich - Concertos, Chamber Suites, Chamber Symphinies - VA (Disc 2).wav
Peak level 93.6 % Extraction speed 7.6 X Range quality 100.0 % Test CRC 9AC5256F Copy CRC 9AC5256F Copy OK
No errors occurred
AccurateRip summary
Track 1 accurately ripped (confidence 2) [FA06F083] (AR v2)Track 2 accurately ripped (confidence 2) [B76700ED] (AR v2)Track 3 accurately ripped (confidence 2) [68969CFA] (AR v2)Track 4 accurately ripped (confidence 2) [4973C1F2] (AR v2)Track 5 accurately ripped (confidence 2) [F75D3481] (AR v2)Track 6 accurately ripped (confidence 2) [D91DA95F] (AR v2)Track 7 accurately ripped (confidence 2) [15ACBADB] (AR v2)Track 8 accurately ripped (confidence 2) [E4CAEB93] (AR v2)Track 9 accurately ripped (confidence 2) [F4AE62AB] (AR v2)Track 10 accurately ripped (confidence 2) [4B64F28B] (AR v2)Track 11 accurately ripped (confidence 2) [9122ADDF] (AR v2)Track 12 accurately ripped (confidence 2) [04EE70A5] (AR v2)Track 13 accurately ripped (confidence 2) [D24A9624] (AR v2)Track 14 accurately ripped (confidence 2) [F1B193FC] (AR v2)Track 15 accurately ripped (confidence 2) [47384CFB] (AR v2)Track 16 accurately ripped (confidence 2) [BE4E1796] (AR v2)Track 17 accurately ripped (confidence 2) [C942B394] (AR v2)Track 18 accurately ripped (confidence 2) [6BECFB91] (AR v2)Track 19 accurately ripped (confidence 2) [78DF7B00] (AR v2)Track 20 accurately ripped (confidence 2) [C0C592CF] (AR v2)Track 21 accurately ripped (confidence 2) [47B2E70B] (AR v2)Track 22 accurately ripped (confidence 2) [38FC5C12] (AR v2)Track 23 accurately ripped (confidence 2) [1FDA12AA] (AR v2)
All tracks accurately ripped
End of status report

CD3

Exact Audio Copy V1.0 beta 3 from 29. August 2011
EAC extraction logfile from 4. August 2012, 11:54
Riccardo Chailly / Shostakovich - Concertos, Chamber Suites, Chamber Symphinies - VA (Disc 3)
Used drive : HL-DT-STDVDRAM GSA-H10A Adapter: 0 ID: 0
Read mode : SecureUtilize accurate stream : YesDefeat audio cache : YesMake use of C2 pointers : No
Read offset correction : 667Overread into Lead-In and Lead-Out : NoFill up missing offset samples with silence : YesDelete leading and trailing silent blocks : NoNull samples used in CRC calculations : YesUsed interface : Native Win32 interface for Win NT & 2000
Used output format : User Defined EncoderSelected bitrate : 1024 kBit/sQuality : HighAdd ID3 tag : NoCommand line compressor : C:\Program Files\Exact Audio Copy\Flac\flac.exeAdditional command line options : -8 -V -T "TITLE=%title%" -T "ARTIST=%artist%" -T "ALBUMARTIST=%albumartist%" -T "ALBUM=%albumtitle%" -T "DATE=%year%" -T "TRACKNUMBER=%tracknr%" -T "TRACKTOTAL=%numtracks%" -T "GENRE=%genre%" -T "COMMENT=%comment%" -T "PERFORMER=%albuminterpret%" -T "COMPOSER=%composer%" %source% -o %dest%
TOC of the extracted CD
Track | Start | Length | Start sector | End sector --------------------------------------------------------- 1 | 0:00.00 | 2:08.22 | 0 | 9621 2 | 2:08.22 | 2:55.00 | 9622 | 22746 3 | 5:03.22 | 3:10.44 | 22747 | 37040 4 | 8:13.66 | 0:27.67 | 37041 | 39132 5 | 8:41.58 | 3:14.67 | 39133 | 53749 6 | 11:56.50 | 1:24.45 | 53750 | 60094 7 | 13:21.20 | 0:42.62 | 60095 | 63306 8 | 14:04.07 | 2:56.56 | 63307 | 76562 9 | 17:00.63 | 3:53.73 | 76563 | 94110 10 | 20:54.61 | 2:31.17 | 94111 | 105452 11 | 23:26.03 | 1:00.13 | 105453 | 109965 12 | 24:26.16 | 2:22.67 | 109966 | 120682 13 | 26:49.08 | 1:41.04 | 120683 | 128261 14 | 28:30.12 | 12:19.62 | 128262 | 183748 15 | 40:49.74 | 2:28.17 | 183749 | 194865 16 | 43:18.16 | 1:03.30 | 194866 | 199620 17 | 44:21.46 | 2:57.38 | 199621 | 212933 18 | 47:19.09 | 0:58.50 | 212934 | 217333 19 | 48:17.59 | 2:18.06 | 217334 | 227689 20 | 50:35.65 | 0:41.56 | 227690 | 230820 21 | 51:17.46 | 6:38.04 | 230821 | 260674 22 | 57:55.50 | 6:53.71 | 260675 | 291720 23 | 64:49.46 | 2:39.11 | 291721 | 303656 24 | 67:28.57 | 2:29.31 | 303657 | 314862 25 | 69:58.13 | 3:50.15 | 314863 | 332127 26 | 73:48.28 | 4:11.13 | 332128 | 350965
Range status and errors
Selected range
Filename F:\Ripped general\[9701] Shostakovich - Concertos, Chamber Suites, Chamber Symphinies - VA\cd3\Shostakovich - Concertos, Chamber Suites, Chamber Symphinies - VA (Disc 3).wav
Peak level 100.0 % Extraction speed 7.6 X Range quality 99.9 % Test CRC C784EEAA Copy CRC 2BD1AFBE Copy OK
No errors occurred
AccurateRip summary
Track 1 accurately ripped (confidence 3) [2737D2B3] (AR v2)Track 2 accurately ripped (confidence 3) [F664B034] (AR v2)Track 3 accurately ripped (confidence 3) [952E1807] (AR v2)Track 4 accurately ripped (confidence 3) [40F606AD] (AR v2)Track 5 accurately ripped (confidence 3) [E35B4A8B] (AR v2)Track 6 accurately ripped (confidence 3) [62521BA3] (AR v2)Track 7 accurately ripped (confidence 3) [14B1AE66] (AR v2)Track 8 accurately ripped (confidence 3) [05540795] (AR v2)Track 9 accurately ripped (confidence 3) [3C621FE8] (AR v2)Track 10 accurately ripped (confidence 3) [F5091F9C] (AR v2)Track 11 accurately ripped (confidence 3) [1538B665] (AR v2)Track 12 accurately ripped (confidence 3) [9BE371B0] (AR v2)Track 13 accurately ripped (confidence 3) [8ACED3A4] (AR v2)Track 14 accurately ripped (confidence 3) [84930A54] (AR v2)Track 15 accurately ripped (confidence 3) [93AFE2AC] (AR v2)Track 16 accurately ripped (confidence 3) [9C9B5DCF] (AR v2)Track 17 accurately ripped (confidence 3) [36114B52] (AR v2)Track 18 cannot be verified as accurate (confidence 10) [E9BBA4A7], AccurateRip returned [D98B4214] (AR v2)Track 19 accurately ripped (confidence 3) [C3D48875] (AR v2)Track 20 accurately ripped (confidence 3) [FD5A1E9B] (AR v2)Track 21 accurately ripped (confidence 3) [883844C7] (AR v2)Track 22 accurately ripped (confidence 3) [31C3518D] (AR v2)Track 23 accurately ripped (confidence 3) [26591AF2] (AR v2)Track 24 accurately ripped (confidence 3) [80BA6E0A] (AR v2)Track 25 accurately ripped (confidence 3) [3E22D503] (AR v2)Track 26 accurately ripped (confidence 3) [6A1C6397] (AR v2)
25 track(s) accurately ripped 1 track(s) could not be verified as accurate
Some tracks could not be verified as accurate
End of status report

CD4

Exact Audio Copy V1.0 beta 3 from 29. August 2011
EAC extraction logfile from 4. August 2012, 13:13
Various Artists / Shostakovich - Concertos, Chamber Suites, Chamber Symphinies - VA (Disc 4)
Used drive : HL-DT-STDVDRAM GSA-H10A Adapter: 0 ID: 0
Read mode : SecureUtilize accurate stream : YesDefeat audio cache : YesMake use of C2 pointers : No
Read offset correction : 667Overread into Lead-In and Lead-Out : NoFill up missing offset samples with silence : YesDelete leading and trailing silent blocks : NoNull samples used in CRC calculations : YesUsed interface : Native Win32 interface for Win NT & 2000
Used output format : User Defined EncoderSelected bitrate : 1024 kBit/sQuality : HighAdd ID3 tag : NoCommand line compressor : C:\Program Files\Exact Audio Copy\Flac\flac.exeAdditional command line options : -8 -V -T "TITLE=%title%" -T "ARTIST=%artist%" -T "ALBUMARTIST=%albumartist%" -T "ALBUM=%albumtitle%" -T "DATE=%year%" -T "TRACKNUMBER=%tracknr%" -T "TRACKTOTAL=%numtracks%" -T "GENRE=%genre%" -T "COMMENT=%comment%" -T "PERFORMER=%albuminterpret%" -T "COMPOSER=%composer%" %source% -o %dest%
TOC of the extracted CD
Track | Start | Length | Start sector | End sector --------------------------------------------------------- 1 | 0:00.00 | 4:49.38 | 0 | 21712 2 | 4:49.38 | 3:25.23 | 21713 | 37110 3 | 8:14.61 | 4:17.57 | 37111 | 56442 4 | 12:32.43 | 5:30.60 | 56443 | 81252 5 | 18:03.28 | 4:17.32 | 81253 | 100559 6 | 22:20.60 | 5:16.10 | 100560 | 124269 7 | 27:36.70 | 4:10.03 | 124270 | 143022 8 | 31:46.73 | 5:52.32 | 143023 | 169454 9 | 37:39.30 | 10:57.55 | 169455 | 218784 10 | 48:37.10 | 3:51.20 | 218785 | 236129 11 | 52:28.30 | 7:15.12 | 236130 | 268766 12 | 59:43.42 | 5:10.71 | 268767 | 292087 13 | 64:54.38 | 10:39.18 | 292088 | 340030
Range status and errors
Selected range
Filename F:\Ripped general\[9701] Shostakovich - Concertos, Chamber Suites, Chamber Symphinies - VA\cd4\Shostakovich - Concertos, Chamber Suites, Chamber Symphinies - VA (Disc 4).wav
Peak level 99.3 % Extraction speed 4.7 X Range quality 100.0 % Test CRC EDC65608 Copy CRC EDC65608 Copy OK
No errors occurred
AccurateRip summary
Track 1 accurately ripped (confidence 3) [A7C059C8] (AR v2)Track 2 accurately ripped (confidence 3) [2BC8C376] (AR v2)Track 3 accurately ripped (confidence 3) [1F48A129] (AR v2)Track 4 accurately ripped (confidence 3) [CFC5EB43] (AR v2)Track 5 accurately ripped (confidence 3) [7B8D9AFC] (AR v2)Track 6 accurately ripped (confidence 3) [24E8DF76] (AR v2)Track 7 accurately ripped (confidence 3) [2F610C2D] (AR v2)Track 8 accurately ripped (confidence 3) [B3D1F4DC] (AR v2)Track 9 accurately ripped (confidence 3) [3FCC00A1] (AR v2)Track 10 accurately ripped (confidence 3) [A13DC044] (AR v2)Track 11 accurately ripped (confidence 3) [89804813] (AR v2)Track 12 accurately ripped (confidence 3) [1565063E] (AR v2)Track 13 accurately ripped (confidence 2) [F70E20C9] (AR v2)
All tracks accurately ripped
End of status report

CD5

Exact Audio Copy V1.0 beta 3 from 29. August 2011
EAC extraction logfile from 4. August 2012, 17:43
Gothenburg Symphony Orchestra, Neeme Järvi / Shostakovich - Concertos, Chamber Suites, Chamber Symphonies - VA (Disc 5)
Used drive : HL-DT-STDVDRAM GSA-H10A Adapter: 0 ID: 0
Read mode : SecureUtilize accurate stream : YesDefeat audio cache : YesMake use of C2 pointers : No
Read offset correction : 667Overread into Lead-In and Lead-Out : NoFill up missing offset samples with silence : YesDelete leading and trailing silent blocks : NoNull samples used in CRC calculations : YesUsed interface : Native Win32 interface for Win NT & 2000
Used output format : User Defined EncoderSelected bitrate : 1024 kBit/sQuality : HighAdd ID3 tag : NoCommand line compressor : C:\Program Files\Exact Audio Copy\Flac\flac.exeAdditional command line options : -8 -V -T "TITLE=%title%" -T "ARTIST=%artist%" -T "ALBUMARTIST=%albumartist%" -T "ALBUM=%albumtitle%" -T "DATE=%year%" -T "TRACKNUMBER=%tracknr%" -T "TRACKTOTAL=%numtracks%" -T "GENRE=%genre%" -T "COMMENT=%comment%" -T "PERFORMER=%albuminterpret%" -T "COMPOSER=%composer%" %source% -o %dest%
TOC of the extracted CD
Track | Start | Length | Start sector | End sector --------------------------------------------------------- 1 | 0:00.00 | 2:32.69 | 0 | 11468 2 | 2:32.69 | 1:48.60 | 11469 | 19628 3 | 4:21.54 | 2:22.32 | 19629 | 30310 4 | 6:44.11 | 1:56.21 | 30311 | 39031 5 | 8:40.32 | 1:40.64 | 39032 | 46595 6 | 10:21.21 | 1:05.04 | 46596 | 51474 7 | 11:26.25 | 1:12.47 | 51475 | 56921 8 | 12:38.72 | 1:13.03 | 56922 | 62399 9 | 13:52.00 | 1:47.02 | 62400 | 70426 10 | 15:39.02 | 2:15.55 | 70427 | 80606 11 | 17:54.57 | 1:23.05 | 80607 | 86836 12 | 19:17.62 | 1:04.41 | 86837 | 91677 13 | 20:22.28 | 2:00.27 | 91678 | 100704 14 | 22:22.55 | 3:48.18 | 100705 | 117822 15 | 26:10.73 | 8:10.71 | 117823 | 154643 16 | 34:21.69 | 2:03.29 | 154644 | 163897 17 | 36:25.23 | 2:11.17 | 163898 | 173739 18 | 38:36.40 | 5:34.68 | 173740 | 198857 19 | 44:11.33 | 2:58.04 | 198858 | 212211 20 | 47:09.37 | 1:34.06 | 212212 | 219267 21 | 48:43.43 | 5:14.05 | 219268 | 242822 22 | 53:57.48 | 4:38.05 | 242823 | 263677 23 | 58:35.53 | 3:25.05 | 263678 | 279057 24 | 62:00.58 | 2:49.06 | 279058 | 291738 25 | 64:49.64 | 3:10.40 | 291739 | 306028
Range status and errors
Selected range
Filename F:\Ripped general\[9701] Shostakovich - Concertos, Chamber Suites, Chamber Symphonies - VA\cd5\Shostakovich - Concertos, Chamber Suites, Chamber Symphonies - VA (Disc 5).wav
Peak level 99.9 % Extraction speed 7.3 X Range quality 100.0 % Test CRC 41EF6ABB Copy CRC 41EF6ABB Copy OK
No errors occurred
AccurateRip summary
Track 1 not present in databaseTrack 2 not present in databaseTrack 3 not present in databaseTrack 4 not present in databaseTrack 5 not present in databaseTrack 6 not present in databaseTrack 7 not present in databaseTrack 8 not present in databaseTrack 9 not present in databaseTrack 10 not present in databaseTrack 11 not present in databaseTrack 12 not present in databaseTrack 13 not present in databaseTrack 14 not present in databaseTrack 15 not present in databaseTrack 16 not present in databaseTrack 17 not present in databaseTrack 18 not present in databaseTrack 19 not present in databaseTrack 20 not present in databaseTrack 21 not present in databaseTrack 22 not present in databaseTrack 23 not present in databaseTrack 24 not present in databaseTrack 25 not present in database
None of the tracks are present in the AccurateRip database
End of status report

CD6

Exact Audio Copy V1.0 beta 3 from 29. August 2011
EAC extraction logfile from 4. August 2012, 15:11
Bernard Haitink; Royal Concertgebouw Orchestra / Shostakovich - Concertos, Chamber Suites, Chamber Symphinies - VA (Disc 6)
Used drive : HL-DT-STDVDRAM GSA-H10A Adapter: 0 ID: 0
Read mode : SecureUtilize accurate stream : YesDefeat audio cache : YesMake use of C2 pointers : No
Read offset correction : 667Overread into Lead-In and Lead-Out : NoFill up missing offset samples with silence : YesDelete leading and trailing silent blocks : NoNull samples used in CRC calculations : YesUsed interface : Native Win32 interface for Win NT & 2000
Used output format : User Defined EncoderSelected bitrate : 1024 kBit/sQuality : HighAdd ID3 tag : NoCommand line compressor : C:\Program Files\Exact Audio Copy\Flac\flac.exeAdditional command line options : -8 -V -T "TITLE=%title%" -T "ARTIST=%artist%" -T "ALBUMARTIST=%albumartist%" -T "ALBUM=%albumtitle%" -T "DATE=%year%" -T "TRACKNUMBER=%tracknr%" -T "TRACKTOTAL=%numtracks%" -T "GENRE=%genre%" -T "COMMENT=%comment%" -T "PERFORMER=%albuminterpret%" -T "COMPOSER=%composer%" %source% -o %dest%
TOC of the extracted CD
Track | Start | Length | Start sector | End sector --------------------------------------------------------- 1 | 0:00.00 | 9:49.18 | 0 | 44192 2 | 9:49.18 | 5:27.05 | 44193 | 68722 3 | 15:16.23 | 2:40.63 | 68723 | 80785 4 | 17:57.11 | 5:41.00 | 80786 | 106360 5 | 23:38.11 | 1:42.32 | 106361 | 114042 6 | 25:20.43 | 3:25.04 | 114043 | 129421 7 | 28:45.47 | 6:09.25 | 129422 | 157121 8 | 34:54.72 | 11:29.39 | 157122 | 208835 9 | 46:24.36 | 2:50.61 | 208836 | 221646 10 | 49:15.22 | 31:26.57 | 221647 | 363153
Range status and errors
Selected range
Filename F:\Ripped general\[9701] Shostakovich - Concertos, Chamber Suites, Chamber Symphinies - VA\cd6\Shostakovich - Concertos, Chamber Suites, Chamber Symphinies - VA (Disc 6).wav
Peak level 100.0 % Extraction speed 4.7 X Range quality 100.0 % Test CRC E9D5E459 Copy CRC E9D5E459 Copy OK
No errors occurred
AccurateRip summary
Track 1 accurately ripped (confidence 2) [4BA90403] (AR v2)Track 2 accurately ripped (confidence 2) [8314498F] (AR v2)Track 3 accurately ripped (confidence 2) [7E793003] (AR v2)Track 4 accurately ripped (confidence 2) [AB0E0DA4] (AR v2)Track 5 accurately ripped (confidence 2) [4C374BCD] (AR v2)Track 6 accurately ripped (confidence 2) [EC0A89C1] (AR v2)Track 7 accurately ripped (confidence 2) [3A5F4611] (AR v2)Track 8 accurately ripped (confidence 2) [5E7F1195] (AR v2)Track 9 accurately ripped (confidence 2) [B706392D] (AR v2)Track 10 accurately ripped (confidence 2) [D132CC62] (AR v2)
All tracks accurately ripped
End of status report

CD7

Exact Audio Copy V1.0 beta 3 from 29. August 2011
EAC extraction logfile from 4. August 2012, 18:25
V. Ashkenazy, Royal Philharmonic Orchestra, R. Barshai, Chamber Orchestra of Europe / Shostakovich - Concertos, Chamber Suites, Chamber Symphonies - VA (Disc 7)
Used drive : HL-DT-STDVDRAM GSA-H10A Adapter: 0 ID: 0
Read mode : SecureUtilize accurate stream : YesDefeat audio cache : YesMake use of C2 pointers : No
Read offset correction : 667Overread into Lead-In and Lead-Out : NoFill up missing offset samples with silence : YesDelete leading and trailing silent blocks : NoNull samples used in CRC calculations : YesUsed interface : Native Win32 interface for Win NT & 2000
Used output format : User Defined EncoderSelected bitrate : 1024 kBit/sQuality : HighAdd ID3 tag : NoCommand line compressor : C:\Program Files\Exact Audio Copy\Flac\flac.exeAdditional command line options : -8 -V -T "TITLE=%title%" -T "ARTIST=%artist%" -T "ALBUMARTIST=%albumartist%" -T "ALBUM=%albumtitle%" -T "DATE=%year%" -T "TRACKNUMBER=%tracknr%" -T "TRACKTOTAL=%numtracks%" -T "GENRE=%genre%" -T "COMMENT=%comment%" -T "PERFORMER=%albuminterpret%" -T "COMPOSER=%composer%" %source% -o %dest%
TOC of the extracted CD
Track | Start | Length | Start sector | End sector --------------------------------------------------------- 1 | 0:00.00 | 6:00.47 | 0 | 27046 2 | 6:00.47 | 7:02.20 | 27047 | 58716 3 | 13:02.67 | 7:29.36 | 58717 | 92427 4 | 20:32.28 | 5:40.42 | 92428 | 117969 5 | 26:12.70 | 1:07.00 | 117970 | 122994 6 | 27:19.70 | 1:03.66 | 122995 | 127785 7 | 28:23.61 | 2:56.59 | 127786 | 141044 8 | 31:20.45 | 2:09.53 | 141045 | 150772 9 | 33:30.23 | 1:48.00 | 150773 | 158872 10 | 35:18.23 | 7:41.45 | 158873 | 193492 11 | 42:59.68 | 5:29.00 | 193493 | 218167 12 | 48:28.68 | 4:34.00 | 218168 | 238717 13 | 53:02.68 | 5:16.32 | 238718 | 262449 14 | 58:19.25 | 10:18.55 | 262450 | 308854 15 | 68:38.05 | 12:44.05 | 308855 | 366159
Range status and errors
Selected range
Filename F:\Ripped general\[9701] Shostakovich - Concertos, Chamber Suites, Chamber Symphonies - VA\cd7\Shostakovich - Concertos, Chamber Suites, Chamber Symphonies - VA (Disc 7).wav
Peak level 99.9 % Extraction speed 4.7 X Range quality 100.0 % Test CRC BA74E547 Copy CRC BA74E547 Copy OK
No errors occurred
AccurateRip summary
Track 1 accurately ripped (confidence 2) [B28821B8] (AR v2)Track 2 accurately ripped (confidence 2) [921AD02F] (AR v2)Track 3 accurately ripped (confidence 2) [A6600005] (AR v2)Track 4 accurately ripped (confidence 2) [5CF71F2B] (AR v2)Track 5 accurately ripped (confidence 2) [FC42A436] (AR v2)Track 6 accurately ripped (confidence 2) [38E5F7C6] (AR v2)Track 7 accurately ripped (confidence 2) [6660472C] (AR v2)Track 8 accurately ripped (confidence 2) [62B9AE57] (AR v2)Track 9 accurately ripped (confidence 2) [F80DF21C] (AR v2)Track 10 accurately ripped (confidence 2) [EB29BE13] (AR v2)Track 11 accurately ripped (confidence 2) [6F99CD0B] (AR v2)Track 12 accurately ripped (confidence 2) [C4383990] (AR v2)Track 13 accurately ripped (confidence 2) [2D5BCC7B] (AR v2)Track 14 accurately ripped (confidence 2) [4262C891] (AR v2)Track 15 accurately ripped (confidence 2) [0AB8C138] (AR v2)
All tracks accurately ripped
End of status report

CD8

Exact Audio Copy V1.0 beta 3 from 29. August 2011
EAC extraction logfile from 4. August 2012, 18:46
Various Artists / Shostakovich - Concertos, Chamber Suites, Chamber Symphonies - VA (Disc 8)
Used drive : HL-DT-STDVDRAM GSA-H10A Adapter: 0 ID: 0
Read mode : SecureUtilize accurate stream : YesDefeat audio cache : YesMake use of C2 pointers : No
Read offset correction : 667Overread into Lead-In and Lead-Out : NoFill up missing offset samples with silence : YesDelete leading and trailing silent blocks : NoNull samples used in CRC calculations : YesUsed interface : Native Win32 interface for Win NT & 2000
Used output format : User Defined EncoderSelected bitrate : 1024 kBit/sQuality : HighAdd ID3 tag : NoCommand line compressor : C:\Program Files\Exact Audio Copy\Flac\flac.exeAdditional command line options : -8 -V -T "TITLE=%title%" -T "ARTIST=%artist%" -T "ALBUMARTIST=%albumartist%" -T "ALBUM=%albumtitle%" -T "DATE=%year%" -T "TRACKNUMBER=%tracknr%" -T "TRACKTOTAL=%numtracks%" -T "GENRE=%genre%" -T "COMMENT=%comment%" -T "PERFORMER=%albuminterpret%" -T "COMPOSER=%composer%" %source% -o %dest%
TOC of the extracted CD
Track | Start | Length | Start sector | End sector --------------------------------------------------------- 1 | 0:00.00 | 10:56.37 | 0 | 49236 2 | 10:56.37 | 6:29.10 | 49237 | 78421 3 | 17:25.47 | 11:47.28 | 78422 | 131474 4 | 29:13.00 | 4:52.74 | 131475 | 153448 5 | 34:05.74 | 13:56.28 | 153449 | 216176 6 | 48:02.27 | 9:33.40 | 216177 | 259191 7 | 57:35.67 | 8:23.57 | 259192 | 296973
Range status and errors
Selected range
Filename F:\Ripped general\[9701] Shostakovich - Concertos, Chamber Suites, Chamber Symphonies - VA\cd8\Shostakovich - Concertos, Chamber Suites, Chamber Symphonies - VA (Disc 8).wav
Peak level 99.5 % Extraction speed 7.7 X Range quality 100.0 % Test CRC 06CA7EAC Copy CRC 06CA7EAC Copy OK
No errors occurred
AccurateRip summary
Track 1 accurately ripped (confidence 6) [6D155ED5] (AR v2)Track 2 accurately ripped (confidence 6) [81586596] (AR v2)Track 3 accurately ripped (confidence 6) [B39A23C7] (AR v2)Track 4 accurately ripped (confidence 6) [C88B486A] (AR v2)Track 5 accurately ripped (confidence 5) [275CDB30] (AR v2)Track 6 accurately ripped (confidence 5) [E1340BA4] (AR v2)Track 7 accurately ripped (confidence 5) [B0976E1F] (AR v2)
All tracks accurately ripped
End of status report

CD9

Exact Audio Copy V1.0 beta 3 from 29. August 2011
EAC extraction logfile from 4. August 2012, 19:18
Various Artists / Shostakovich - Concertos, Chamber Suites, Chamber Symphonies - VA (Disc 9)
Used drive : HL-DT-STDVDRAM GSA-H10A Adapter: 0 ID: 0
Read mode : SecureUtilize accurate stream : YesDefeat audio cache : YesMake use of C2 pointers : No
Read offset correction : 667Overread into Lead-In and Lead-Out : NoFill up missing offset samples with silence : YesDelete leading and trailing silent blocks : NoNull samples used in CRC calculations : YesUsed interface : Native Win32 interface for Win NT & 2000
Used output format : User Defined EncoderSelected bitrate : 1024 kBit/sQuality : HighAdd ID3 tag : NoCommand line compressor : C:\Program Files\Exact Audio Copy\Flac\flac.exeAdditional command line options : -8 -V -T "TITLE=%title%" -T "ARTIST=%artist%" -T "ALBUMARTIST=%albumartist%" -T "ALBUM=%albumtitle%" -T "DATE=%year%" -T "TRACKNUMBER=%tracknr%" -T "TRACKTOTAL=%numtracks%" -T "GENRE=%genre%" -T "COMMENT=%comment%" -T "PERFORMER=%albuminterpret%" -T "COMPOSER=%composer%" %source% -o %dest%
TOC of the extracted CD
Track | Start | Length | Start sector | End sector --------------------------------------------------------- 1 | 0:00.00 | 6:04.00 | 0 | 27299 2 | 6:04.00 | 11:02.50 | 27300 | 76999 3 | 17:06.50 | 6:05.65 | 77000 | 104439 4 | 23:12.40 | 4:40.35 | 104440 | 125474 5 | 27:53.00 | 14:08.00 | 125475 | 189074 6 | 42:01.00 | 4:06.10 | 189075 | 207534 7 | 46:07.10 | 15:19.28 | 207535 | 276487
Range status and errors
Selected range
Filename F:\Ripped general\[9701] Shostakovich - Concertos, Chamber Suites, Chamber Symphonies - VA\cd9\Shostakovich - Concertos, Chamber Suites, Chamber Symphonies - VA (Disc 9).wav
Peak level 91.8 % Extraction speed 7.4 X Range quality 99.9 % Test CRC 9667BC0F Copy CRC 9667BC0F Copy OK
No errors occurred
AccurateRip summary
Track 1 accurately ripped (confidence 5) [9E19AE7C] (AR v2)Track 2 accurately ripped (confidence 5) [0E8E8E8F] (AR v2)Track 3 accurately ripped (confidence 5) [16F56B25] (AR v2)Track 4 accurately ripped (confidence 5) [DF25CD8F] (AR v2)Track 5 accurately ripped (confidence 5) [B1750FDE] (AR v2)Track 6 accurately ripped (confidence 5) [A0ABDBC7] (AR v2)Track 7 accurately ripped (confidence 5) [119F85D1] (AR v2)
All tracks accurately ripped
End of status report
[teatrix.ru].t10016.torrent 
Торрент: Зарегистрирован [ 2015-10-25 20:37 ] · 6919D5B4A2FB62929DA1FF3B66075EFC23DE1094

Скачать .torrent

Скачать

19 KB

Статус: проверено
Скачан: 0 раз
Размер: 2.59 GB
terms.php



Быстрый ответ

Имя:

      
Для отправки сообщений необходимо включить JavaScript
Показать сообщения:    

Текущее время: 05-Дек 19:37

Часовой пояс: UTC + 3


Вы можете начинать темы
Вы можете отвечать на сообщения
Вы не можете редактировать свои сообщения
Вы не можете удалять свои сообщения
Вы не можете голосовать в опросах
Вы не можете прикреплять файлы к сообщениям
Вы можете скачивать файлы