(Orchestral Music) Prokofiev / Прокофьев - Piano Concerto No. 3, Violin Concertos Nos. 1 & 2, "Классическая" Симфония, Александр Невский, Лейтенант Киже, Overture op. 34b, March op. 99 - Argerich, Mintz, Abbado - 1990, FLAC (image+.cue)


Статистика раздачи [Обновить пиров]
Размер:  743 MB   |    Зарегистрирован:  1 год 1 месяц   |    Скачан:  0 раз

Полного источника не было: Никогда

 
   
 
 
 

[Цитировать]

Sergei Prokofiev / Сергей Прокофьев - Piano Concerto No. 3, Violin Concertos Nos. 1 & 2, "Классическая" Симфония, Александр Невский, Лейтенант Киже, Overture op. 34b, March op. 99 - Argerich, Mintz, Abbado
Жанр: Orchestral Music
Страна-производитель диска: Germany
Год издания диска: 1990
Издатель (лейбл): Deutsche Grammophon
Номер по каталогу: 435151
Дата записи: 1967-1988
Аудиокодек: FLAC
Тип рипа: image+.cue
Битрейт аудио: lossless
Продолжительность: 3:39:22
Источник: собственный рип
Наличие сканов в содержимом раздачи: нет
Треклист:
CD 1
[01]-[04] Classical Symphony op. 25
[05] Overture on Hebrew Themes op. 34b
[06] March in B flat major op. 99
The Chamber Orchestra of Europe
[07]-[10] Scythian Suite op. 20
Chicago Symphony Orchestra
CD 2
[01]-[07] Alexander Nevsky op. 78
E. Obraztsova, sopran; London Symphony Orchestra
[08]-[12]
Lieutenant Kijé op. 60
Chicago Symphony Orchestra
CD 3
[01]-[03] Piano Concerto no. 3 in C major op. 26
M. Argerich, piano; Berliner Philharmoniker
[04]-[06] Violin Concerto no. 1 in D major op. 19
[07]-[09] Violin Concerto no. 2 in D major op. 63
S. Mintz, violin; Chicago Symphony Orchestra
Исполнители:
Elena Obraztsova, sopran
Shlomo Mintz, violin
Martha Argerich, piano
London Symphony Orchestra
Berliner Philharmoniker
Chicago Symphony Orchestra
The Chamber Orchestra of Europe
Claudio Abbado

Лог создания рипа

CD 1

Exact Audio Copy V1.0 beta 3 from 29. August 2011
EAC extraction logfile from 20. June 2012, 19:54
Prokofiev, Serge (1891-1953) / Symphonie classique ; Ouverture sur des thèmes Hébreux ; Marche Op 99 & Suite Scythe Op 20 - Chicago Symphony Orchestra 5Claudio Abbado)
Used drive : HL-DT-STRW/DVD GCC-T10N Adapter: 1 ID: 0
Read mode : Secure
Utilize accurate stream : Yes
Defeat audio cache : Yes
Make use of C2 pointers : No
Read offset correction : 102
Overread into Lead-In and Lead-Out : No
Fill up missing offset samples with silence : Yes
Delete leading and trailing silent blocks : No
Null samples used in CRC calculations : Yes
Used interface : Native Win32 interface for Win NT & 2000
Used output format : User Defined Encoder
Selected bitrate : 128 kBit/s
Quality : High
Add ID3 tag : No
Command line compressor : C:\Program Files\Exact Audio Copy\Flac\flac.exe
Additional command line options : -8 -V -T "ARTIST=%artist%" -T "TITLE=%title%" -T "ALBUM=%albumtitle%" -T "DATE=%year%" -T "TRACKNUMBER=%tracknr%" -T "GENRE=%genre%" -T "PERFORMER=%albuminterpret%" -T "COMPOSER=%composer%" %haslyrics%--tag-from-file=LYRICS="%lyricsfile%"%haslyrics% -T "ALBUMARTIST=%albumartist%" -T "DISCNUMBER=%cdnumber%" -T "TOTALDISCS=%totalcds%" -T "TOTALTRACKS=%numtracks%" -T "COMMENT=%comment%" %source% -o %dest%
TOC of the extracted CD
Track | Start | Length | Start sector | End sector
---------------------------------------------------------
1 | 0:00.33 | 4:16.35 | 33 | 19267
2 | 4:16.68 | 3:46.62 | 19268 | 36279
3 | 8:03.55 | 1:24.00 | 36280 | 42579
4 | 9:27.55 | 3:59.03 | 42580 | 60507
5 | 13:26.58 | 8:04.02 | 60508 | 96809
6 | 21:30.60 | 2:37.70 | 96810 | 108654
7 | 24:08.55 | 5:36.65 | 108655 | 133919
8 | 29:45.45 | 3:10.58 | 133920 | 148227
9 | 32:56.28 | 6:13.17 | 148228 | 176219
10 | 39:09.45 | 5:32.40 | 176220 | 201159
Range status and errors
Selected range
Filename C:\Documents and Settings\Мария\Рабочий стол\TEMP\Prokofev\CD1\Prokofiev, Serge (1891-1953) - Symphonie classique ; Ouverture sur des thèmes Hébreux ; Marche Op 99 & Suite Scythe Op 20 - Chicago Symphony Orchestra 5Claudio Abbado).wav
Peak level 99.8 %
Extraction speed 1.8 X
Range quality 100.0 %
Copy CRC C4BD1787
Copy OK
No errors occurred
AccurateRip summary
Track 1 accurately ripped (confidence 1) [3985381F] (AR v1)
Track 2 accurately ripped (confidence 1) [334CEE2B] (AR v1)
Track 3 accurately ripped (confidence 1) [18E3401D] (AR v1)
Track 4 accurately ripped (confidence 1) [06C31E66] (AR v1)
Track 5 accurately ripped (confidence 1) [A55FC270] (AR v1)
Track 6 accurately ripped (confidence 1) [5889233F] (AR v1)
Track 7 accurately ripped (confidence 1) [75754557] (AR v1)
Track 8 accurately ripped (confidence 1) [DF4AD8BC] (AR v1)
Track 9 accurately ripped (confidence 1) [9C1A96FB] (AR v1)
Track 10 accurately ripped (confidence 1) [311D2724] (AR v1)
All tracks accurately ripped
End of status report
==== Log checksum 4747B031CCCBEC41798F98681EE23847043B5F9288839BC14352071CA469C8ED ====

CD 2

Exact Audio Copy V1.0 beta 3 from 29. August 2011
EAC extraction logfile from 20. June 2012, 20:55
Claudio Abbado - Chicago Symphony Orch., London Symphony; Obraztsova / Prokofiev - Alexander Nevsky, Leutnant Kije
Used drive : HL-DT-STRW/DVD GCC-T10N Adapter: 1 ID: 0
Read mode : Secure
Utilize accurate stream : Yes
Defeat audio cache : Yes
Make use of C2 pointers : No
Read offset correction : 102
Overread into Lead-In and Lead-Out : No
Fill up missing offset samples with silence : Yes
Delete leading and trailing silent blocks : No
Null samples used in CRC calculations : Yes
Used interface : Native Win32 interface for Win NT & 2000
Used output format : User Defined Encoder
Selected bitrate : 128 kBit/s
Quality : High
Add ID3 tag : No
Command line compressor : C:\Program Files\Exact Audio Copy\Flac\flac.exe
Additional command line options : -8 -V -T "ARTIST=%artist%" -T "TITLE=%title%" -T "ALBUM=%albumtitle%" -T "DATE=%year%" -T "TRACKNUMBER=%tracknr%" -T "GENRE=%genre%" -T "PERFORMER=%albuminterpret%" -T "COMPOSER=%composer%" %haslyrics%--tag-from-file=LYRICS="%lyricsfile%"%haslyrics% -T "ALBUMARTIST=%albumartist%" -T "DISCNUMBER=%cdnumber%" -T "TOTALDISCS=%totalcds%" -T "TOTALTRACKS=%numtracks%" -T "COMMENT=%comment%" %source% -o %dest%
TOC of the extracted CD
Track | Start | Length | Start sector | End sector
---------------------------------------------------------
1 | 0:00.33 | 3:05.25 | 33 | 13932
2 | 3:05.58 | 3:31.50 | 13933 | 29807
3 | 6:37.33 | 6:40.00 | 29808 | 59807
4 | 13:17.33 | 2:20.00 | 59808 | 70307
5 | 15:37.33 | 12:03.00 | 70308 | 124532
6 | 27:40.33 | 6:01.00 | 124533 | 151607
7 | 33:41.33 | 4:54.00 | 151608 | 173657
8 | 38:35.33 | 4:12.00 | 173658 | 192557
9 | 42:47.33 | 4:10.50 | 192558 | 211357
10 | 46:58.08 | 2:37.25 | 211358 | 223157
11 | 49:35.33 | 2:44.00 | 223158 | 235457
12 | 52:19.33 | 5:53.00 | 235458 | 261932
Range status and errors
Selected range
Filename C:\Documents and Settings\Мария\Рабочий стол\TEMP\Prokofev\CD2\Claudio Abbado - Chicago Symphony Orch., London Symphony; Obraztsova - Prokofiev - Alexander Nevsky, Leutnant Kije.wav
Peak level 97.7 %
Extraction speed 2.2 X
Range quality 100.0 %
Copy CRC 53986F95
Copy OK
No errors occurred
AccurateRip summary
Track 1 accurately ripped (confidence 17) [D6430A62] (AR v1)
Track 2 accurately ripped (confidence 17) [F6DCE81E] (AR v1)
Track 3 accurately ripped (confidence 17) [CF7932A2] (AR v1)
Track 4 accurately ripped (confidence 17) [A16E39E0] (AR v1)
Track 5 accurately ripped (confidence 17) [CCB56335] (AR v1)
Track 6 accurately ripped (confidence 17) [18E933CE] (AR v1)
Track 7 accurately ripped (confidence 17) [FF346A48] (AR v1)
Track 8 accurately ripped (confidence 17) [40D0236A] (AR v1)
Track 9 accurately ripped (confidence 17) [C07F1D79] (AR v1)
Track 10 accurately ripped (confidence 17) [80A7A87F] (AR v1)
Track 11 accurately ripped (confidence 17) [5DF0AAC9] (AR v1)
Track 12 accurately ripped (confidence 18) [F08EB4B4] (AR v1)
All tracks accurately ripped
End of status report
==== Log checksum D569112D2EECC84773E0D061B0BA367FE81D4F451D192BA74C8633F787A9AB22 ====

CD 3

Exact Audio Copy V1.0 beta 3 from 29. August 2011
EAC extraction logfile from 14. July 2012, 23:05
Prokofiev, Serge (1891-1953) / Concerto pour piano n° 3 Op 26 ; Concerto pour violon n° 1 Op 19 ; Concerto pour violon n° 2 Op 63 - Chicago Symphony Orchestra 5Claudio Abbado)
Used drive : HL-DT-STRW/DVD GCC-T10N Adapter: 1 ID: 0
Read mode : Secure
Utilize accurate stream : Yes
Defeat audio cache : Yes
Make use of C2 pointers : No
Read offset correction : 102
Overread into Lead-In and Lead-Out : No
Fill up missing offset samples with silence : Yes
Delete leading and trailing silent blocks : No
Null samples used in CRC calculations : Yes
Used interface : Native Win32 interface for Win NT & 2000
Used output format : User Defined Encoder
Selected bitrate : 128 kBit/s
Quality : High
Add ID3 tag : No
Command line compressor : C:\Program Files\Exact Audio Copy\Flac\flac.exe
Additional command line options : -8 -V -T "ARTIST=%artist%" -T "TITLE=%title%" -T "ALBUM=%albumtitle%" -T "DATE=%year%" -T "TRACKNUMBER=%tracknr%" -T "GENRE=%genre%" -T "PERFORMER=%albuminterpret%" -T "COMPOSER=%composer%" %haslyrics%--tag-from-file=LYRICS="%lyricsfile%"%haslyrics% -T "ALBUMARTIST=%albumartist%" -T "DISCNUMBER=%cdnumber%" -T "TOTALDISCS=%totalcds%" -T "TOTALTRACKS=%numtracks%" -T "COMMENT=%comment%" %source% -o %dest%
TOC of the extracted CD
Track | Start | Length | Start sector | End sector
---------------------------------------------------------
1 | 0:00.33 | 8:58.00 | 33 | 40382
2 | 8:58.33 | 9:03.00 | 40383 | 81107
3 | 18:01.33 | 9:10.32 | 81108 | 122389
4 | 27:11.65 | 9:58.43 | 122390 | 167282
5 | 37:10.33 | 3:55.00 | 167283 | 184907
6 | 41:05.33 | 8:20.12 | 184908 | 222419
7 | 49:25.45 | 10:44.63 | 222420 | 270782
8 | 60:10.33 | 10:00.37 | 270783 | 315819
9 | 70:10.70 | 6:17.38 | 315820 | 344132
Range status and errors
Selected range
Filename C:\Documents and Settings\Мария\Рабочий стол\TEMP\Prokofiev, Serge (1891-1953) - Concerto pour piano n° 3 Op 26 ; Concerto pour violon n° 1 Op 19 ; Concerto pour violon n° 2 Op 63 - Chicago Symphony Orchestra 5Claudio Abbado).wav
Peak level 87.2 %
Extraction speed 3.6 X
Range quality 100.0 %
Copy CRC C6DAB132
Copy OK
No errors occurred
AccurateRip summary
Track 1 accurately ripped (confidence 1) [BB84715E] (AR v1)
Track 2 accurately ripped (confidence 1) [88D17CEC] (AR v1)
Track 3 accurately ripped (confidence 1) [64CA2761] (AR v1)
Track 4 accurately ripped (confidence 1) [CC879CF4] (AR v1)
Track 5 accurately ripped (confidence 1) [76E07B36] (AR v1)
Track 6 accurately ripped (confidence 1) [169B38A3] (AR v1)
Track 7 not present in database
Track 8 accurately ripped (confidence 2) [8CEE5C14] (AR v1)
Track 9 accurately ripped (confidence 2) [391F914D] (AR v1)
8 track(s) accurately ripped
1 track(s) not present in the AccurateRip database
Some tracks could not be verified as accurate
End of status report
==== Log checksum 7714B08470D1048435D9CEFB0765A8ED47EB66CDF6AD382B42D45051EE656D17 ====
[teatrix.ru].t10017.torrent 
Торрент: Зарегистрирован [ 2015-10-25 20:37 ] · 35601C44B8E020BE65B3FCE860579F61E7DE30F3

Скачать .torrent

Скачать

17 KB

Статус: проверено
Скачан: 0 раз
Размер: 743 MB
terms.php



Быстрый ответ

Имя:

      
Для отправки сообщений необходимо включить JavaScript
Показать сообщения:    

Текущее время: 07-Дек 15:27

Часовой пояс: UTC + 3


Вы можете начинать темы
Вы можете отвечать на сообщения
Вы не можете редактировать свои сообщения
Вы не можете удалять свои сообщения
Вы не можете голосовать в опросах
Вы не можете прикреплять файлы к сообщениям
Вы можете скачивать файлы