(Classical) Celibidache: Sacred Music and Opera (J.S. Bach - Mass; Mozart, Faure - Requiem; Brahms - Ein deutsches Requiem, Stravinsky/Стравинский - Symphony of Psalms; Verdi - Messa da Requiem; Wagner, Weber)[11CD]- 2011, FLAC (tracks+.cue) lossless


Статистика раздачи [Обновить пиров]
Размер:  3.17 GB   |    Зарегистрирован:  1 год 1 месяц   |    Скачан:  0 раз

Полного источника не было: Никогда

 
   
 
 
 

[Цитировать]

Celibidache
Münchner Philharmoniker
Sacred Music & Opera
Жанр: Classical
Страна-производитель диска: EU
Год издания диска: 2011
Издатель (лейбл): EMI Classics
Номер по каталогу: 5099908561725
Аудиокодек: FLAC
Тип рипа: tracks+.cue
Битрейт аудио: lossless
Продолжительность: 12:02:08
Источник: what.cd (PCzar)
Наличие сканов в содержимом раздачи: да
Треклист:

CD1 - Bach - Mass in B minor

Johann Sebastian Bach
Mass in B minor BWV232

1. Chorus: Kyrie Eleison. 14:43
2. Duet: Christe eleison. 5:18
3. Chorus: Kyrie Eleison. 4:05
4. Chorus: Gloria in excelsis. 1:56
5. Chorus: Et in terra pax. 6:32
6. Aria: Laudamus te. 4:41
7. Chorus:Gratias agimus tibi. 3:44
8. Duet: Domine Deus. 6:20
9. Chorus: Qui tollis peccata mundi. 4:00
10. Aria: Qui sedes ad dexteram Patris. 5:28
11. Aria: Quoniam tu solus sanctus. 4:58
12. Chorus: Cum Sancto Spiritu. 4:15

CD2 - Bach - Mass in B minor

Johann Sebastian Bach
Mass in B minor BWV232

1. Chorus: Credo in unum Deum. 2:06
2. Chorus: Credo in unum Deum, Patrem omnipotentem. 2:03
3. Duet: Et in unum Dominum. 4:23
4. Chorus: Et incarnatus est. 3:52
5. Chorus: Crucifixus. 3:57
6. Et resurrexti. 4:19
7. Aria: Et in Spiritum Sanctum. 5:41
8. Chorus: Confiteor. 5:36
9. Chorus: Et expecto resurrectionem. 2:25
10. Chorus: Sanctus. 6:03
11. Chorus: Osanna in excelsis. 2:53
12. Aria: Benedictus qui venit. 5:30
13. Chorus: Osanna (da capo). 2:46
14. Mass in B minor BWV232, Agnus Dei: Aria: Agnus Dei. 6:34
15. Mass in B minor BWV232, Agnus Dei: Chorus: Dona nobis pacem. 3:34
Anton Scharinger - Yaron Windmuller - Peter Schreier - Barbara Bonney - Ruxandra Donose

CD3 - Mozart - Requiem

Wolfgang Amadeus Mozart
Requiem in D Minor K626

1. Applause (Before Mozart: Requiem K626). 0:41
2. I. Introitus: Requiem aeternam. 7:51
3. II. Kyrie. 3:16
4. III. Sequenz: Dies irae. 2:03
5. III. Sequenz: Tuba mirum. 4:57
6. III. Sequenz: Rex tremendae majestatis. 3:18
7. III. Sequenz: Recordare, Jesu pie. 6:14
8. III. Sequenz: Confutatis maledictus. 4:03
9. III. Sequenz: Lacrimosa dies illa. 4:06
10. IV. Offertorium: Domine Jesu Christe. 4:32
11. IV. Offertorium: Versus: Hostias et preces. 4:49
12. V. Sanctus. 1:53
13. VI. Benedictus. 6:46
14. VII. Agnus Dei. 4:35
15. VIII. Communio - Lux aeterna - Cum sanctis tuis. 7:55
16. Applause (After Mozart: Requiem K626). 1:34
Christel Borchers - Caroline Maria Petrig - Matthias Hölle - Peter Straka
Munich Philharmonic Choir

CD4 - Verdi - Messa da Requiem

Giuseppe Verdi
Messa da Requiem

1. Applause (Start of Messa da Requiem/Celibidache). 0:58
2. I. Requiem. 10:27
3. II. Dies Irae: Dies irae. 2:35
4. II. Dies Irae: Tuba mirum. 4:07
5. II. Dies Irae: Liber scriptus. 6:38
6. II. Dies Irae: Quid sum miser. 4:35
7. II. Dies Irae: Rex tremendae majestatis. 4:47
8. II. Dies Irae: Recordare. 4:38
9. II. Dies Irae: Ingemisco. 4:03
10. II. Dies Irae: Confutatis. 6:15
11. II. Dies Irae: Lacrimosa. 7:56
12. III. Offertorio: Domine Jesu Christe. 5:01
13. III. Offertorio: Hostias. 6:13

CD5 - Verdi - Messa da Requiem; Brahms - Ein deutsches Requiem

Giuseppe Verdi
Messa da Requiem

1. IV. Sanctus. 3:45
2. V. Agnus Dei. 6:36
3. VI. Lux aeterna. 7:36
4. VII. Libera me: Libera me. 2:54
5. VII. Libera me: Dies irae. 2:41
6. VII. Libera me: Requiem aeternam. 3:46
7. VII. Libera me: Libera me. 7:18
8. Applause (End of Messa da Requiem/Celibidache). 1:25
Elena Fillipova, Reinhild Runkel, Peter Dvorsky, Kurt Rydl
Johannes Brahms
Ein deutsches Requiem Op. 45

9. I. Selig sind, die da Leid tragen (Zemlich langsam). 13:52
10. II. Denn alles Fleisch es ist wie Gras (Langsam, marschmässig). 15:50

CD6 - Brahms - Ein deutsches Requiem

Johannes Brahms
Ein deutsches Requiem Op. 45

1. III. Herr, lehre doch mich (Andante moderato). 12:22
2. IV. Wie lieblich sind deine Wohnungen (Mässig bewegt). 6:04
3. V. Ihr habt nun Traurigkeit (Langsam). 9:37
4. VI. Denn wir haben hie keine bleibende Statt (Andante). 14:20
5. VII. Selig sind die Toten (Feierlich). 15:26
Arleen Augér - Franz Gerihsen
Munich Bach Choir - Munich Philharmonic Choir

CD7 - Fauré - Requiem; Stravinsky - Symphony of Psalms

Gabriel Fauré
Requiem Op. 48

1. Applause (Start Fauré: Requiem Op. 48). 0:45
2. Introit et Kyrie. 7:56
3. Offertoire. 10:43
4. Sanctus. 3:08
5. Pie Jesu. 4:48
6. Agnus Dei. 6:02
7. Libera Me. 8:05
8. In paradisum. 3:23
9. Applause (End Fauré: Requiem Op. 48). 1:27
Margaret Price - Alan Titus
Munich Philharmonic Choir

Igor Stravinsky
Symphony of Psalms

10. Exaudi orationem meam, Domine. 3:59
11. Expectans expectavi Dominum. 7:27
12. Alleluia. Laudate Dominum. 12:10
13. Applause (End Stravinsky: Symphony of Psalms). 1:07
Alan Titus - Margaret Price
Munich Philharmonic Choir

CD8 - Rossini, Verdi, Mozart - Overtures

Gioachino Rossini
1. Applause (before Rossini: Guillaume Tell Overture / Celibidache). 0:44
2. Guillaume Tell Overture. 14:19
3. Applause (After Rossini: Guillaume Tell Overture / Celibidache). 0:58
4. Semiramide Overture. 14:02
5. Applause (After Rossini: Semiramide Overture / Celibidache). 0:21
6. La scala di seta - Overture. 6:48
7. Applause (After Rossini: La scala di seta - Overture / Celibidache). 0:52
8. La gazza ladra - Overture. 11:07
9. Applause (After Rossini: La gazza ladra - Overture / Celibidache). 1:00
Giuseppe Verdi
10. La forza del destino - Overture. 9:08
11. Applause (After Verdi: La forza del destino - Overture / Celibidache). 0:47
Wolfgang Amadeus Mozart
12. Don Giovanni - Overture. 7:57
13. Applause (After Mozart: Don Giovanni - Overture / Celibidache). 0:35

CD9 - Berlioz, Mendelssohn, Schubert, Smetana, Strauss

Hector Berlioz
1. Le Carnaval Romain Op. 9. 10:22
2. Applause (After Berlioz: Le Carnival Romain). 0:34
Felix Mendelssohn
3. Die Hebriden, Op. 26 - Overture. 12:33
4. Applause (After Mendelssohn: Die Hebriden Overture). 0:45
5. A Midsummer Night's Dream Op. 21 - Overture. 14:02
6. Applause (After Mendelssohn: A Midsummer Night's Dream Overture). 0:32
Franz Schubert
7. Rosamunde: Overture D644. 12:00
8. Applause (After Schubert: Rosamunde Overture). 0:45
Bedrich Smetana
9. Vltava (from 'Má Vlast'). 15:49
10. Applause (After Smetana: Vltava). 0:50
Johann Strauss Jr
11. Die Fledermaus - Overture. 11:03
12. Applause (After Strauss: Die Fledermaus Overture). 0:29

CD10 - Weber, Wagner

Carl Maria von Weber
1. Oberon Overture J306. 10:47
2. Applause (After Weber: Oberon Overture). 0:53
Richard Wagner
3. Parsifal: Karfreitagsmusik (Good Friday music). 13:28
4. Applause (After Wagner: Parsifal). 0:53
5. Tristan und Isolde: Prelude to Act 1. 12:37
6. Tristan und Isolde: Liebestod. 8:10
7. Applause (After Wagner: Tristan und Isolde). 1:10

CD11 - Wagner

Richard Wagner
1. Applause. 1:06
2. Die Meistersinger von Nürnberg - Oper in 3 Akten: Vorspiel. 12:28
3. Die Meistersinger von Nürnberg - Oper in 3 Akten: - Befall -. 0:19
4. Siegfried - Idyll. 23:45
5. Applause (After Wagner: Siegfried). 0:20
6. Götterdämmerung: Trauermarsch. 9:23
7. Götterdämmerung: - Beifall -. 0:21
8. Tannhäuser - Romantische Oper in 3 Augzugen: Ouverture. 16:57
9. Tannhäuser - Romantische Oper in 3 Augzugen: - Beifall - 1:04
Исполнители:
Anton Scharinger - Yaron Windmuller - Peter Schreier - Barbara Bonney
Ruxandra Donose - Christel Borchers - Caroline Maria Petrig - Matthias Hölle - Peter Straka
Arleen Augér - Franz Gerihsen - Alan Titus - Margaret Price

Münchner Philharmoniker
Conductor: Sergiu Celibidache

Лог создания рипаCD1

Exact Audio Copy V1.0 beta 3 from 29. August 2011
EAC extraction logfile from 20. June 2012, 16:13
Sergiu Celibidache, Munchner Philharmoniker / Celibidache - Sacred Music & Opera (Cd1)
Used drive : TSSTcorpCDDVDW SH-222BB Adapter: 2 ID: 0
Read mode : SecureUtilize accurate stream : YesDefeat audio cache : YesMake use of C2 pointers : No
Read offset correction : 6Overread into Lead-In and Lead-Out : NoFill up missing offset samples with silence : YesDelete leading and trailing silent blocks : NoNull samples used in CRC calculations : YesUsed interface : Native Win32 interface for Win NT & 2000Gap handling : Appended to previous track
Used output format : User Defined EncoderSelected bitrate : 192 kBit/sQuality : HighAdd ID3 tag : NoCommand line compressor : C:\Program Files (x86)\FLAC\flac.exeAdditional command line options : -T "artist=%artist%" -T "title=%title%" -T "album=%albumtitle%" -T "date=%year%" -T "tracknumber=%tracknr%" -T "genre=%genre%" -T "comment=%comment%" -T "composer=%composer%" -8 %source%
TOC of the extracted CD
Track | Start | Length | Start sector | End sector --------------------------------------------------------- 1 | 0:00.00 | 14:41.44 | 0 | 66118 2 | 14:41.44 | 5:18.53 | 66119 | 90021 3 | 20:00.22 | 4:05.42 | 90022 | 108438 4 | 24:05.64 | 1:56.53 | 108439 | 117191 5 | 26:02.42 | 6:32.37 | 117192 | 146628 6 | 32:35.04 | 4:41.35 | 146629 | 167738 7 | 37:16.39 | 3:44.61 | 167739 | 184599 8 | 41:01.25 | 6:20.30 | 184600 | 213129 9 | 47:21.55 | 4:00.48 | 213130 | 231177 10 | 51:22.28 | 5:28.27 | 231178 | 255804 11 | 56:50.55 | 4:58.15 | 255805 | 278169 12 | 61:48.70 | 4:15.14 | 278170 | 297308
Track 1
Filename H:\EAC NEW Rips\01 - Bach, Mass in B minor - [Kyrie] Chorus- Kyrie eleison.wav
Pre-gap length 0:00:02.00
Peak level 99.9 % Extraction speed 5.1 X Track quality 100.0 % Test CRC 13A530AD Copy CRC 13A530AD Accurately ripped (confidence 2) [7E1B9C30] (AR v2) Copy OK
Track 2
Filename H:\EAC NEW Rips\02 - Bach, Mass in B minor - [Kyrie] Duet- Christe eleison.wav
Peak level 68.1 % Extraction speed 4.8 X Track quality 99.9 % Test CRC 4D659FFB Copy CRC 4D659FFB Accurately ripped (confidence 3) [CDBD79D2] (AR v2) Copy OK
Track 3
Filename H:\EAC NEW Rips\03 - Bach, Mass in B minor - [Kyrie] Chorus- Kyrie eleison.wav
Peak level 82.5 % Extraction speed 5.8 X Track quality 100.0 % Test CRC 534F838E Copy CRC 534F838E Accurately ripped (confidence 3) [0008C3E4] (AR v2) Copy OK
Track 4
Filename H:\EAC NEW Rips\04 - Bach, Mass in B minor - [Gloria] Chorus- Gloria in excelsis.wav
Peak level 97.7 % Extraction speed 5.2 X Track quality 100.0 % Test CRC C16F8B44 Copy CRC C16F8B44 Accurately ripped (confidence 3) [20323B94] (AR v2) Copy OK
Track 5
Filename H:\EAC NEW Rips\05 - Bach, Mass in B minor - [Gloria] Chorus- Et in terra pax.wav
Peak level 100.0 % Extraction speed 6.7 X Track quality 100.0 % Test CRC 929731FA Copy CRC 929731FA Accurately ripped (confidence 3) [1FBFB274] (AR v2) Copy OK
Track 6
Filename H:\EAC NEW Rips\06 - Bach, Mass in B minor - [Gloria] Aria- Laudamus te.wav
Peak level 71.4 % Extraction speed 6.8 X Track quality 100.0 % Test CRC 1DD9E0CC Copy CRC 1DD9E0CC Accurately ripped (confidence 3) [41C8B197] (AR v2) Copy OK
Track 7
Filename H:\EAC NEW Rips\07 - Bach, Mass in B minor - [Gloria] Chorus- Gratias agimus tibi.wav
Peak level 97.3 % Extraction speed 7.0 X Track quality 100.0 % Test CRC FBE1B52E Copy CRC FBE1B52E Accurately ripped (confidence 3) [A2945EF7] (AR v2) Copy OK
Track 8
Filename H:\EAC NEW Rips\08 - Bach, Mass in B minor - [Gloria] Duet- Domine Deus.wav
Peak level 54.0 % Extraction speed 7.7 X Track quality 100.0 % Test CRC 621FBF22 Copy CRC 621FBF22 Accurately ripped (confidence 3) [EE9078A1] (AR v2) Copy OK
Track 9
Filename H:\EAC NEW Rips\09 - Bach, Mass in B minor - [Gloria] Chorus- Qui tollis peccata mundi.wav
Peak level 56.9 % Extraction speed 7.4 X Track quality 100.0 % Test CRC 68C57E90 Copy CRC 68C57E90 Accurately ripped (confidence 3) [0B2832AE] (AR v2) Copy OK
Track 10
Filename H:\EAC NEW Rips\10 - Bach, Mass in B minor - [Gloria] Aria- Qui sedes ad dexteram Patris.wav
Peak level 67.6 % Extraction speed 6.8 X Track quality 99.9 % Test CRC 5F2F8C03 Copy CRC 5F2F8C03 Accurately ripped (confidence 2) [1D172007] (AR v2) Copy OK
Track 11
Filename H:\EAC NEW Rips\11 - Bach, Mass in B minor - [Gloria] Aria- Quoniam tu solus sanctus.wav
Peak level 69.6 % Extraction speed 8.3 X Track quality 100.0 % Test CRC ABA5BAEA Copy CRC ABA5BAEA Accurately ripped (confidence 3) [1B296310] (AR v2) Copy OK
Track 12
Filename H:\EAC NEW Rips\12 - Bach, Mass in B minor - [Gloria] Chorus- Cum Sancto Spiritu.wav
Peak level 95.9 % Extraction speed 8.4 X Track quality 100.0 % Test CRC 896C09AD Copy CRC 896C09AD Accurately ripped (confidence 3) [DFDFB7A7] (AR v2) Copy OK
All tracks accurately ripped
No errors occurred
End of status report
---- CUETools DB Plugin V2.1.3
[CTDB TOCID: 9.8xJCud.n_WKrF_tK0F.5nfqhM-] found, Submit result: 9.8xJCud.n_WKrF_tK0F.5nfqhM- has been confirmed[6a1c971d] (09/11) Accurately ripped[876ba124] (01/11) No match[09cd4193] (01/11) No match
==== Log checksum D515D7E17199F5CEE50D8DD659E1763777E63484066CA5EC44A7EAE0DAB7C053 ====

CD2

Exact Audio Copy V1.0 beta 3 from 29. August 2011
EAC extraction logfile from 20. June 2012, 17:12
Sergiu Celibidache, Munchner Philharmoniker / Celibidache - Sacred Music & Opera (Cd2)
Used drive : TSSTcorpCDDVDW SH-222BB Adapter: 2 ID: 0
Read mode : SecureUtilize accurate stream : YesDefeat audio cache : YesMake use of C2 pointers : No
Read offset correction : 6Overread into Lead-In and Lead-Out : NoFill up missing offset samples with silence : YesDelete leading and trailing silent blocks : NoNull samples used in CRC calculations : YesUsed interface : Native Win32 interface for Win NT & 2000Gap handling : Appended to previous track
Used output format : User Defined EncoderSelected bitrate : 192 kBit/sQuality : HighAdd ID3 tag : NoCommand line compressor : C:\Program Files (x86)\FLAC\flac.exeAdditional command line options : -T "artist=%artist%" -T "title=%title%" -T "album=%albumtitle%" -T "date=%year%" -T "tracknumber=%tracknr%" -T "genre=%genre%" -T "comment=%comment%" -T "composer=%composer%" -8 %source%
TOC of the extracted CD
Track | Start | Length | Start sector | End sector --------------------------------------------------------- 1 | 0:00.00 | 2:04.29 | 0 | 9328 2 | 2:04.29 | 2:03.28 | 9329 | 18581 3 | 4:07.57 | 4:23.34 | 18582 | 38340 4 | 8:31.16 | 3:52.23 | 38341 | 55763 5 | 12:23.39 | 3:57.59 | 55764 | 73597 6 | 16:21.23 | 4:19.28 | 73598 | 93050 7 | 20:40.51 | 5:41.56 | 93051 | 118681 8 | 26:22.32 | 5:36.04 | 118682 | 143885 9 | 31:58.36 | 2:25.71 | 143886 | 154831 10 | 34:24.32 | 6:03.72 | 154832 | 182128 11 | 40:28.29 | 2:53.64 | 182129 | 195167 12 | 43:22.18 | 5:30.25 | 195168 | 219942 13 | 48:52.43 | 2:46.36 | 219943 | 232428 14 | 51:39.04 | 6:34.06 | 232429 | 261984 15 | 58:13.10 | 3:34.37 | 261985 | 278071
Track 1
Filename H:\EAC NEW Rips\01 - Bach, Mass in B minor - [Credo] Chorus- Credo in unum Deum.wav
Pre-gap length 0:00:02.00
Peak level 68.9 % Extraction speed 3.5 X Track quality 100.0 % Test CRC DE1A9F37 Copy CRC DE1A9F37 Accurately ripped (confidence 3) [BC9538BD] (AR v2) Copy OK
Track 2
Filename H:\EAC NEW Rips\02 - Bach, Mass in B minor - [Credo] Chorus- Credo in unum Deum, patrem omnipotentem.wav
Peak level 99.9 % Extraction speed 3.7 X Track quality 100.0 % Test CRC 6BBA740F Copy CRC 6BBA740F Accurately ripped (confidence 3) [11C68822] (AR v2) Copy OK
Track 3
Filename H:\EAC NEW Rips\03 - Bach, Mass in B minor - [Credo] Duet- Et in unum Dominum.wav
Peak level 60.1 % Extraction speed 4.6 X Track quality 100.0 % Test CRC BAF7407C Copy CRC BAF7407C Accurately ripped (confidence 3) [9FFB5592] (AR v2) Copy OK
Track 4
Filename H:\EAC NEW Rips\04 - Bach, Mass in B minor - [Credo] Chorus- Et incarnatus est.wav
Peak level 57.2 % Extraction speed 4.9 X Track quality 100.0 % Test CRC B3C64C05 Copy CRC B3C64C05 Accurately ripped (confidence 3) [A7C0A04C] (AR v2) Copy OK
Track 5
Filename H:\EAC NEW Rips\05 - Bach, Mass in B minor - [Credo] Chorus- Crucifixus.wav
Peak level 46.5 % Extraction speed 5.3 X Track quality 100.0 % Test CRC EC4A18C0 Copy CRC EC4A18C0 Accurately ripped (confidence 3) [7395DD3E] (AR v2) Copy OK
Track 6
Filename H:\EAC NEW Rips\06 - Bach, Mass in B minor - [Credo] Chorus- Et resurrexit.wav
Peak level 99.9 % Extraction speed 5.7 X Track quality 100.0 % Test CRC 4A2C2D56 Copy CRC 4A2C2D56 Accurately ripped (confidence 3) [67D974B2] (AR v2) Copy OK
Track 7
Filename H:\EAC NEW Rips\07 - Bach, Mass in B minor - [Credo] Aria- Et in Spiritum Sanctum.wav
Peak level 50.0 % Extraction speed 6.2 X Track quality 100.0 % Test CRC 4143FEED Copy CRC 4143FEED Accurately ripped (confidence 3) [DFDE6A41] (AR v2) Copy OK
Track 8
Filename H:\EAC NEW Rips\08 - Bach, Mass in B minor - [Credo] Chorus- Confiteor.wav
Peak level 57.8 % Extraction speed 6.6 X Track quality 100.0 % Test CRC D47CC9B1 Copy CRC D47CC9B1 Accurately ripped (confidence 3) [2C2F4414] (AR v2) Copy OK
Track 9
Filename H:\EAC NEW Rips\09 - Bach, Mass in B minor - [Credo] Chorus- Et exspecto resurrectionem.wav
Peak level 100.0 % Extraction speed 6.1 X Track quality 100.0 % Test CRC EED99866 Copy CRC EED99866 Accurately ripped (confidence 3) [D58F13CF] (AR v2) Copy OK
Track 10
Filename H:\EAC NEW Rips\10 - Bach, Mass in B minor - [Sanctus] Chorus- Sanctus.wav
Peak level 99.9 % Extraction speed 7.2 X Track quality 100.0 % Test CRC 5EE4AF40 Copy CRC 5EE4AF40 Accurately ripped (confidence 3) [EC2B4CC4] (AR v2) Copy OK
Track 11
Filename H:\EAC NEW Rips\11 - Bach, Mass in B minor - [Sanctus] Chorus- Osanna in excelsis.wav
Peak level 90.7 % Extraction speed 6.6 X Track quality 100.0 % Test CRC D9C10DDA Copy CRC D9C10DDA Accurately ripped (confidence 3) [E9784ADA] (AR v2) Copy OK
Track 12
Filename H:\EAC NEW Rips\12 - Bach, Mass in B minor - [Sanctus] Aria- Benedictus qui venit.wav
Peak level 33.5 % Extraction speed 6.4 X Track quality 99.9 % Test CRC 4E119C3B Copy CRC 4E119C3B Accurately ripped (confidence 3) [96C55BCF] (AR v2) Copy OK
Track 13
Filename H:\EAC NEW Rips\13 - Bach, Mass in B minor - [Sanctus] Chorus- Osanna (da capo).wav
Peak level 87.7 % Extraction speed 7.0 X Track quality 100.0 % Test CRC 05E0D813 Copy CRC 05E0D813 Accurately ripped (confidence 3) [F50F6C60] (AR v2) Copy OK
Track 14
Filename H:\EAC NEW Rips\14 - Bach, Mass in B minor - [Agnus Dei] Aria- Agnus Dei.wav
Peak level 53.9 % Extraction speed 7.1 X Track quality 99.9 % Test CRC BAD780E1 Copy CRC BAD780E1 Accurately ripped (confidence 3) [365C0536] (AR v2) Copy OK
Track 15
Filename H:\EAC NEW Rips\15 - Bach, Mass in B minor - [Agnus Dei] Chorus- Dona nobis pacem.wav
Peak level 92.8 % Extraction speed 6.1 X Track quality 99.9 % Test CRC 8B06553D Copy CRC 8B06553D Accurately ripped (confidence 3) [114204C1] (AR v2) Copy OK
All tracks accurately ripped
No errors occurred
End of status report
---- CUETools DB Plugin V2.1.3
[CTDB TOCID: h043KKdvxk2TyHd1.5WfAaT6zbc-] found, Submit result: h043KKdvxk2TyHd1.5WfAaT6zbc- has been confirmed[71169628] (11/11) Accurately ripped
==== Log checksum D2AF4BCB96F3D2E64B1E760C075A9F4EBB9A739FDE57CBCAB43BAD63DD95B191 ====

CD3

Exact Audio Copy V1.0 beta 3 from 29. August 2011
EAC extraction logfile from 21. June 2012, 11:48
Sergiu Celibidache, Munchner Philharmoniker / Celibidache - Sacred Music & Opera (Cd3)
Used drive : TSSTcorpCDDVDW SH-222BB Adapter: 2 ID: 0
Read mode : SecureUtilize accurate stream : YesDefeat audio cache : YesMake use of C2 pointers : No
Read offset correction : 6Overread into Lead-In and Lead-Out : NoFill up missing offset samples with silence : YesDelete leading and trailing silent blocks : NoNull samples used in CRC calculations : YesUsed interface : Native Win32 interface for Win NT & 2000Gap handling : Appended to previous track
Used output format : User Defined EncoderSelected bitrate : 192 kBit/sQuality : HighAdd ID3 tag : NoCommand line compressor : C:\Program Files (x86)\FLAC\flac.exeAdditional command line options : -T "artist=%artist%" -T "title=%title%" -T "album=%albumtitle%" -T "date=%year%" -T "tracknumber=%tracknr%" -T "genre=%genre%" -T "comment=%comment%" -T "composer=%composer%" -8 %source%
TOC of the extracted CD
Track | Start | Length | Start sector | End sector --------------------------------------------------------- 1 | 0:00.00 | 0:39.69 | 0 | 2993 2 | 0:39.69 | 7:51.30 | 2994 | 38348 3 | 8:31.24 | 3:16.21 | 38349 | 53069 4 | 11:47.45 | 2:03.58 | 53070 | 62352 5 | 13:51.28 | 4:57.62 | 62353 | 84689 6 | 18:49.15 | 3:18.01 | 84690 | 99540 7 | 22:07.16 | 6:14.18 | 99541 | 127608 8 | 28:21.34 | 4:03.50 | 127609 | 145883 9 | 32:25.09 | 4:06.04 | 145884 | 164337 10 | 36:31.13 | 4:32.25 | 164338 | 184762 11 | 41:03.38 | 4:49.09 | 184763 | 206446 12 | 45:52.47 | 1:53.39 | 206447 | 214960 13 | 47:46.11 | 6:46.34 | 214961 | 245444 14 | 54:32.45 | 4:35.71 | 245445 | 266140 15 | 59:08.41 | 7:55.08 | 266141 | 301773 16 | 67:03.49 | 1:34.45 | 301774 | 308868
Track 1
Filename H:\EAC NEW Rips\01 - Applause.wav
Pre-gap length 0:00:02.00
Peak level 88.4 % Extraction speed 2.3 X Track quality 100.0 % Test CRC 003D7985 Copy CRC 003D7985 Accurately ripped (confidence 2) [8E66B5B4] (AR v2) Copy OK
Track 2
Filename H:\EAC NEW Rips\02 - Mozart, Requiem in D minor KV626 - Introitus- Requiem.wav
Peak level 89.1 % Extraction speed 4.7 X Track quality 100.0 % Test CRC 0DAF460B Copy CRC 0DAF460B Accurately ripped (confidence 2) [F1FC4159] (AR v2) Copy OK
Track 3
Filename H:\EAC NEW Rips\03 - Mozart, Requiem in D minor KV626 - Kyrie:Kyrie.wav
Peak level 80.8 % Extraction speed 4.7 X Track quality 100.0 % Test CRC 3AA7185C Copy CRC 3AA7185C Accurately ripped (confidence 2) [27175043] (AR v2) Copy OK
Track 4
Filename H:\EAC NEW Rips\04 - Mozart, Requiem in D minor KV626 - Sequentia- I. Dies irae.wav
Peak level 96.6 % Extraction speed 4.5 X Track quality 100.0 % Test CRC BF5DCBCC Copy CRC BF5DCBCC Accurately ripped (confidence 2) [243760D6] (AR v2) Copy OK
Track 5
Filename H:\EAC NEW Rips\05 - Mozart, Requiem in D minor KV626 - Sequentia- II. Tuba mirum.wav
Peak level 46.4 % Extraction speed 4.6 X Track quality 99.9 % Test CRC 3F26D74E Copy CRC 3F26D74E Accurately ripped (confidence 16) [EF8B91F2] (AR v1) Copy OK
Track 6
Filename H:\EAC NEW Rips\06 - Mozart, Requiem in D minor KV626 - Sequentia- III. Rex tremendae.wav
Peak level 95.6 % Extraction speed 5.5 X Track quality 100.0 % Test CRC 07976330 Copy CRC 07976330 Accurately ripped (confidence 2) [28713D7E] (AR v2) Copy OK
Track 7
Filename H:\EAC NEW Rips\07 - Mozart, Requiem in D minor KV626 - Sequentia- IV. Recordare.wav
Peak level 59.5 % Extraction speed 6.3 X Track quality 100.0 % Test CRC CB1773D6 Copy CRC CB1773D6 Accurately ripped (confidence 2) [F48B4085] (AR v2) Copy OK
Track 8
Filename H:\EAC NEW Rips\08 - Mozart, Requiem in D minor KV626 - Sequentia- V. Confutatis.wav
Peak level 70.0 % Extraction speed 5.2 X Track quality 99.9 % Test CRC CF34491A Copy CRC CF34491A Accurately ripped (confidence 2) [893A1AE9] (AR v2) Copy OK
Track 9
Filename H:\EAC NEW Rips\09 - Mozart, Requiem in D minor KV626 - Sequentia- VI. Lacrimosa.wav
Peak level 98.7 % Extraction speed 6.6 X Track quality 100.0 % Test CRC 27A941B4 Copy CRC 27A941B4 Accurately ripped (confidence 2) [78D382B3] (AR v2) Copy OK
Track 10
Filename H:\EAC NEW Rips\10 - Mozart, Requiem in D minor KV626 - Offertorium- I. Domine jeus.wav
Peak level 87.9 % Extraction speed 7.0 X Track quality 100.0 % Test CRC 84A9FD34 Copy CRC 84A9FD34 Accurately ripped (confidence 2) [E109DA7A] (AR v2) Copy OK
Track 11
Filename H:\EAC NEW Rips\11 - Mozart, Requiem in D minor KV626 - Offertorium- II. Hostias.wav
Peak level 93.6 % Extraction speed 7.2 X Track quality 100.0 % Test CRC 94F64102 Copy CRC 94F64102 Accurately ripped (confidence 2) [08822F06] (AR v2) Copy OK
Track 12
Filename H:\EAC NEW Rips\12 - Mozart, Requiem in D minor KV626 - Sanctus.wav
Peak level 99.9 % Extraction speed 4.3 X Track quality 99.9 % Test CRC F5B988FC Copy CRC F5B988FC Accurately ripped (confidence 16) [6F813BD4] (AR v1) Copy OK
Track 13
Filename H:\EAC NEW Rips\13 - Mozart, Requiem in D minor KV626 - Benedictus.wav
Peak level 85.2 % Extraction speed 7.9 X Track quality 100.0 % Test CRC 900E9E69 Copy CRC 900E9E69 Accurately ripped (confidence 2) [97ECEEED] (AR v2) Copy OK
Track 14
Filename H:\EAC NEW Rips\14 - Mozart, Requiem in D minor KV626 - Agnus Dei.wav
Peak level 75.3 % Extraction speed 7.9 X Track quality 100.0 % Test CRC EBC90DEE Copy CRC EBC90DEE Accurately ripped (confidence 2) [045715A9] (AR v2) Copy OK
Track 15
Filename H:\EAC NEW Rips\15 - Mozart, Requiem in D minor KV626 - Communio- Lux aeterna.wav
Peak level 94.0 % Extraction speed 7.5 X Track quality 99.9 % Test CRC FF6A5BC4 Copy CRC FF6A5BC4 Accurately ripped (confidence 2) [8DD54969] (AR v2) Copy OK
Track 16
Filename H:\EAC NEW Rips\16 - Applause.wav
Peak level 76.9 % Extraction speed 4.4 X Track quality 99.8 % Test CRC 29BA0E61 Copy CRC 29BA0E61 Accurately ripped (confidence 2) [35D37117] (AR v2) Copy OK
All tracks accurately ripped
No errors occurred
End of status report
---- CUETools DB Plugin V2.1.3
[CTDB TOCID: sbrB_nUNp3UYRiN.aPN81KkWGyI-] found, Submit result: sbrB_nUNp3UYRiN.aPN81KkWGyI- has been confirmed[e5148904] (10/11) Accurately ripped[7f77ab5c] (01/11) No match
==== Log checksum ADF2D3CA4F353A6E571E694EEB693E05AF05E182939F445D97247F8135229C90 ====

CD4

Exact Audio Copy V1.0 beta 3 from 29. August 2011
EAC extraction logfile from 21. June 2012, 12:57
Sergiu Celibidache, Munchner Philharmoniker / Celibidache - Sacred Music & Opera (Cd4)
Used drive : TSSTcorpCDDVDW SH-222BB Adapter: 2 ID: 0
Read mode : SecureUtilize accurate stream : YesDefeat audio cache : YesMake use of C2 pointers : No
Read offset correction : 6Overread into Lead-In and Lead-Out : NoFill up missing offset samples with silence : YesDelete leading and trailing silent blocks : NoNull samples used in CRC calculations : YesUsed interface : Native Win32 interface for Win NT & 2000Gap handling : Appended to previous track
Used output format : User Defined EncoderSelected bitrate : 192 kBit/sQuality : HighAdd ID3 tag : NoCommand line compressor : C:\Program Files (x86)\FLAC\flac.exeAdditional command line options : -T "artist=%artist%" -T "title=%title%" -T "album=%albumtitle%" -T "date=%year%" -T "tracknumber=%tracknr%" -T "genre=%genre%" -T "comment=%comment%" -T "composer=%composer%" -8 %source%
TOC of the extracted CD
Track | Start | Length | Start sector | End sector --------------------------------------------------------- 1 | 0:00.00 | 0:56.41 | 0 | 4240 2 | 0:56.41 | 10:27.41 | 4241 | 51306 3 | 11:24.07 | 2:35.07 | 51307 | 62938 4 | 13:59.14 | 4:07.65 | 62939 | 81528 5 | 18:07.04 | 6:38.42 | 81529 | 111420 6 | 24:45.46 | 4:35.28 | 111421 | 132073 7 | 29:20.74 | 4:47.74 | 132074 | 153672 8 | 34:08.73 | 4:38.40 | 153673 | 174562 9 | 38:47.38 | 4:03.70 | 174563 | 192857 10 | 42:51.33 | 6:15.49 | 192858 | 221031 11 | 49:07.07 | 7:56.38 | 221032 | 256769 12 | 57:03.45 | 5:01.41 | 256770 | 279385 13 | 62:05.11 | 6:13.48 | 279386 | 307408
Track 1
Filename H:\EAC NEW Rips\01 - Applause.wav
Pre-gap length 0:00:02.00
Peak level 56.8 % Extraction speed 2.6 X Track quality 100.0 % Test CRC A73C69E4 Copy CRC A73C69E4 Accurately ripped (confidence 8) [A9060950] (AR v1) Copy OK
Track 2
Filename H:\EAC NEW Rips\02 - Verdi, Messa da Requiem - I. REQUIEM AETERNAM- Requiem.wav
Peak level 79.6 % Extraction speed 4.9 X Track quality 100.0 % Test CRC AD08B53B Copy CRC AD08B53B Accurately ripped (confidence 8) [C3324DDA] (AR v1) Copy OK
Track 3
Filename H:\EAC NEW Rips\03 - Verdi, Messa da Requiem - II. DIES IRAE- Dies irae.wav
Peak level 87.0 % Extraction speed 4.7 X Track quality 100.0 % Test CRC 639B9E8D Copy CRC 639B9E8D Accurately ripped (confidence 9) [2DC270AF] (AR v1) Copy OK
Track 4
Filename H:\EAC NEW Rips\04 - Verdi, Messa da Requiem - II. DIES IRAE- Tuba mirum.wav
Peak level 92.3 % Extraction speed 5.3 X Track quality 100.0 % Test CRC EF68EB70 Copy CRC EF68EB70 Accurately ripped (confidence 9) [02923D80] (AR v1) Copy OK
Track 5
Filename H:\EAC NEW Rips\05 - Verdi, Messa da Requiem - II. DIES IRAE- Liber scriptus.wav
Peak level 76.4 % Extraction speed 6.1 X Track quality 100.0 % Test CRC 97B46952 Copy CRC 97B46952 Accurately ripped (confidence 8) [D877E606] (AR v1) Copy OK
Track 6
Filename H:\EAC NEW Rips\06 - Verdi, Messa da Requiem - II. DIES IRAE- Quid sum miser.wav
Peak level 56.8 % Extraction speed 6.2 X Track quality 100.0 % Test CRC 5945167C Copy CRC 5945167C Accurately ripped (confidence 9) [966A7C9B] (AR v1) Copy OK
Track 7
Filename H:\EAC NEW Rips\07 - Verdi, Messa da Requiem - II. DIES IRAE- Rex tremendae majestatis.wav
Peak level 92.1 % Extraction speed 6.5 X Track quality 100.0 % Test CRC 9BDABB0F Copy CRC 9BDABB0F Accurately ripped (confidence 8) [04CC15FE] (AR v1) Copy OK
Track 8
Filename H:\EAC NEW Rips\08 - Verdi, Messa da Requiem - II. DIES IRAE- Recordare.wav
Peak level 53.6 % Extraction speed 5.6 X Track quality 99.9 % Test CRC CEB91B09 Copy CRC CEB91B09 Accurately ripped (confidence 8) [8047085E] (AR v1) Copy OK
Track 9
Filename H:\EAC NEW Rips\09 - Verdi, Messa da Requiem - II. DIES IRAE- Ingemisco.wav
Peak level 37.1 % Extraction speed 6.9 X Track quality 100.0 % Test CRC E7530B70 Copy CRC E7530B70 Accurately ripped (confidence 8) [68E826D4] (AR v1) Copy OK
Track 10
Filename H:\EAC NEW Rips\10 - Verdi, Messa da Requiem - II. DIES IRAE- Confutatis.wav
Peak level 100.0 % Extraction speed 7.5 X Track quality 100.0 % Test CRC 5D22460A Copy CRC 5D22460A Accurately ripped (confidence 8) [979892BB] (AR v1) Copy OK
Track 11
Filename H:\EAC NEW Rips\11 - Verdi, Messa da Requiem - II. DIES IRAE- Lacrimosa.wav
Peak level 73.9 % Extraction speed 8.0 X Track quality 100.0 % Test CRC D7DAD0DB Copy CRC D7DAD0DB Accurately ripped (confidence 8) [175A4F9C] (AR v1) Copy OK
Track 12
Filename H:\EAC NEW Rips\12 - Verdi, Messa da Requiem - III. OFFERTORIO- Domine Jesu Christe.wav
Peak level 56.6 % Extraction speed 8.0 X Track quality 100.0 % Test CRC F107CB8E Copy CRC F107CB8E Accurately ripped (confidence 8) [070B727A] (AR v1) Copy OK
Track 13
Filename H:\EAC NEW Rips\13 - Verdi, Messa da Requiem - III. OFFERTORIO- Versus. Hostias.wav
Peak level 66.4 % Extraction speed 5.3 X Track quality 100.0 % Test CRC 9B687036 Copy CRC 9B687036 Accurately ripped (confidence 8) [D8F43F48] (AR v1) Copy OK
All tracks accurately ripped
No errors occurred
End of status report
---- CUETools DB Plugin V2.1.3
[CTDB TOCID: rQ75nW_iokbJZOY1egV3qKOvj80-] found, Submit result: rQ75nW_iokbJZOY1egV3qKOvj80- has been confirmed[cfb19da4] (9/9) Accurately ripped
==== Log checksum 0A492FD4962C6AF674B437665185F3B21461356FB87D78E678989AB38506D2F4 ====

CD5

Exact Audio Copy V1.0 beta 3 from 29. August 2011
EAC extraction logfile from 21. June 2012, 14:51
Sergiu Celibidache, Munchner Philharmoniker / Celibidache - Sacred Music & Opera (Cd5)
Used drive : TSSTcorpCDDVDW SH-222BB Adapter: 2 ID: 0
Read mode : SecureUtilize accurate stream : YesDefeat audio cache : YesMake use of C2 pointers : No
Read offset correction : 6Overread into Lead-In and Lead-Out : NoFill up missing offset samples with silence : YesDelete leading and trailing silent blocks : NoNull samples used in CRC calculations : YesUsed interface : Native Win32 interface for Win NT & 2000Gap handling : Appended to previous track
Used output format : User Defined EncoderSelected bitrate : 192 kBit/sQuality : HighAdd ID3 tag : NoCommand line compressor : C:\Program Files (x86)\FLAC\flac.exeAdditional command line options : -T "artist=%artist%" -T "title=%title%" -T "album=%albumtitle%" -T "date=%year%" -T "tracknumber=%tracknr%" -T "genre=%genre%" -T "comment=%comment%" -T "composer=%composer%" -8 %source%
TOC of the extracted CD
Track | Start | Length | Start sector | End sector --------------------------------------------------------- 1 | 0:00.00 | 3:44.66 | 0 | 16865 2 | 3:44.66 | 6:35.65 | 16866 | 46555 3 | 10:20.56 | 7:36.21 | 46556 | 80776 4 | 17:57.02 | 2:54.05 | 80777 | 93831 5 | 20:51.07 | 2:40.58 | 93832 | 105889 6 | 23:31.65 | 3:46.47 | 105890 | 122886 7 | 27:18.37 | 7:18.00 | 122887 | 155736 8 | 34:36.37 | 1:30.41 | 155737 | 162527 9 | 36:07.03 | 13:52.24 | 162528 | 224951 10 | 49:59.27 | 15:50.08 | 224952 | 296209
Track 1
Filename H:\EAC NEW Rips\01 - Verdi, Messa da Requiem - IV. SANCTUS.wav
Pre-gap length 0:00:02.00
Peak level 79.4 % Extraction speed 4.0 X Track quality 100.0 % Test CRC 48FF9005 Copy CRC 48FF9005 Accurately ripped (confidence 1) [6F78A44A] (AR v2) Copy OK
Track 2
Filename H:\EAC NEW Rips\02 - Verdi, Messa da Requiem - V. AGNUS DEI.wav
Peak level 14.1 % Extraction speed 4.9 X Track quality 100.0 % Test CRC A5E7F4C5 Copy CRC A5E7F4C5 Accurately ripped (confidence 1) [EE521151] (AR v2) Copy OK
Track 3
Filename H:\EAC NEW Rips\03 - Verdi, Messa da Requiem - VI. LUX ETERNA.wav
Peak level 39.8 % Extraction speed 5.6 X Track quality 100.0 % Test CRC 54B9A765 Copy CRC 54B9A765 Accurately ripped (confidence 1) [7C692733] (AR v2) Copy OK
Track 4
Filename H:\EAC NEW Rips\04 - Verdi, Messa da Requiem - VII. LIBERA ME- Libera me.wav
Peak level 54.5 % Extraction speed 5.3 X Track quality 100.0 % Test CRC 6940A9BF Copy CRC 6940A9BF Accurately ripped (confidence 1) [064B4913] (AR v2) Copy OK
Track 5
Filename H:\EAC NEW Rips\05 - Verdi, Messa da Requiem - VII. LIBERA ME- Dies irae.wav
Peak level 98.3 % Extraction speed 5.4 X Track quality 100.0 % Test CRC 3953F198 Copy CRC 3953F198 Accurately ripped (confidence 1) [0C9590F9] (AR v2) Copy OK
Track 6
Filename H:\EAC NEW Rips\06 - Verdi, Messa da Requiem - VII. LIBERA ME- Requiem aeternam.wav
Peak level 26.3 % Extraction speed 5.9 X Track quality 100.0 % Test CRC ACDC8DF7 Copy CRC ACDC8DF7 Accurately ripped (confidence 1) [49E516FE] (AR v2) Copy OK
Track 7
Filename H:\EAC NEW Rips\07 - Verdi, Messa da Requiem - VII. LIBERA ME- Libera me.wav
Peak level 88.5 % Extraction speed 6.9 X Track quality 100.0 % Test CRC 646D37F0 Copy CRC 646D37F0 Accurately ripped (confidence 1) [74614B7C] (AR v2) Copy OK
Track 8
Filename H:\EAC NEW Rips\08 - Applause.wav
Peak level 38.7 % Extraction speed 5.4 X Track quality 100.0 % Test CRC C32EEC7B Copy CRC C32EEC7B Accurately ripped (confidence 1) [7C9A9B18] (AR v2) Copy OK
Track 9
Filename H:\EAC NEW Rips\09 - Brahms, Ein deutsches Requiem - I. Selig sind, die da Leid tragen.wav
Pre-gap length 0:00:05.00
Peak level 87.3 % Extraction speed 7.3 X Track quality 99.9 % Test CRC BA36BB95 Copy CRC BA36BB95 Accurately ripped (confidence 1) [807D29D1] (AR v2) Copy OK
Track 10
Filename H:\EAC NEW Rips\10 - Brahms, Ein deutsches Requiem - II. Denn alles Fleisch, es ist wie Gras.wav
Peak level 87.4 % Extraction speed 8.7 X Track quality 100.0 % Test CRC A8E59535 Copy CRC A8E59535 Accurately ripped (confidence 1) [7A44D14D] (AR v2) Copy OK
All tracks accurately ripped
No errors occurred
End of status report
---- CUETools DB Plugin V2.1.3
[CTDB TOCID: wrwUygoTrDqgmzXXmOZvGRkMnl0-] found, Submit result: wrwUygoTrDqgmzXXmOZvGRkMnl0- has been confirmed[09ac28af] (5/5) Accurately ripped
==== Log checksum 367FAAE3FBA708EE1FA5E34221C23EB0A35A220CE0CFFDDACD3424D2934B6718 ====

CD6

Exact Audio Copy V1.0 beta 3 from 29. August 2011
EAC extraction logfile from 21. June 2012, 15:51
Sergiu Celibidache, Munchner Philharmoniker / Celibidache - Sacred Music & Opera (Cd6)
Used drive : TSSTcorpCDDVDW SH-222BB Adapter: 2 ID: 0
Read mode : SecureUtilize accurate stream : YesDefeat audio cache : YesMake use of C2 pointers : No
Read offset correction : 6Overread into Lead-In and Lead-Out : NoFill up missing offset samples with silence : YesDelete leading and trailing silent blocks : NoNull samples used in CRC calculations : YesUsed interface : Native Win32 interface for Win NT & 2000Gap handling : Appended to previous track
Used output format : User Defined EncoderSelected bitrate : 192 kBit/sQuality : HighAdd ID3 tag : NoCommand line compressor : C:\Program Files (x86)\FLAC\flac.exeAdditional command line options : -T "artist=%artist%" -T "title=%title%" -T "album=%albumtitle%" -T "date=%year%" -T "tracknumber=%tracknr%" -T "genre=%genre%" -T "comment=%comment%" -T "composer=%composer%" -8 %source%
TOC of the extracted CD
Track | Start | Length | Start sector | End sector --------------------------------------------------------- 1 | 0:00.00 | 12:22.15 | 0 | 55664 2 | 12:22.15 | 6:03.52 | 55665 | 82941 3 | 18:25.67 | 9:37.09 | 82942 | 126225 4 | 28:03.01 | 14:20.33 | 126226 | 190758 5 | 42:23.34 | 15:26.26 | 190759 | 260234
Track 1
Filename H:\EAC NEW Rips\01 - Brahms, Ein deutsches Requiem - III. Herr, lehre doch mich.wav
Pre-gap length 0:00:02.00
Peak level 87.3 % Extraction speed 2.0 X Track quality 100.0 % Test CRC E55D5428 Copy CRC E55D5428 Accurately ripped (confidence 1) [B0C3B739] (AR v2) Copy OK
Track 2
Filename H:\EAC NEW Rips\02 - Brahms, Ein deutsches Requiem - IV. Wie lieblich sind deine Wohnungen.wav
Peak level 87.4 % Extraction speed 2.3 X Track quality 100.0 % Test CRC 700A8BB7 Copy CRC 700A8BB7 Accurately ripped (confidence 1) [20F23D9E] (AR v2) Copy OK
Track 3
Filename H:\EAC NEW Rips\03 - Brahms, Ein deutsches Requiem - V. Ihr habt nun Traurigkeit.wav
Peak level 57.3 % Extraction speed 2.7 X Track quality 100.0 % Test CRC B1D29015 Copy CRC B1D29015 Accurately ripped (confidence 1) [CC61858B] (AR v2) Copy OK
Track 4
Filename H:\EAC NEW Rips\04 - Brahms, Ein deutsches Requiem - VI. Den wir haben hier keine bleibende Statt.wav
Peak level 87.3 % Extraction speed 3.2 X Track quality 100.0 % Test CRC B230CD25 Copy CRC B230CD25 Accurately ripped (confidence 1) [6A727F37] (AR v2) Copy OK
Track 5
Filename H:\EAC NEW Rips\05 - Brahms, Ein deutsches Requiem - VII. Selig sind die Toten.wav
Peak level 87.3 % Extraction speed 3.6 X Track quality 100.0 % Test CRC 8894DF62 Copy CRC 8894DF62 Accurately ripped (confidence 1) [0C3E93BF] (AR v2) Copy OK
All tracks accurately ripped
No errors occurred
End of status report
---- CUETools DB Plugin V2.1.3
[CTDB TOCID: dK_2fPBpePP8F7._ASGnx_MQ8GA-] found, Submit result: dK_2fPBpePP8F7._ASGnx_MQ8GA- has been confirmed[3f277def] (8/8) Accurately ripped
==== Log checksum D09E4D0E691D069A100606D7F24F90150F30E7E6F8679FF5216B73D97D54A7E0 ====

CD7

Exact Audio Copy V1.0 beta 3 from 29. August 2011
EAC extraction logfile from 21. June 2012, 16:48
Sergiu Celibidache & Munchner Philharmoniker / Celibidache - Sacred Music & Opera (Cd7)
Used drive : TSSTcorpCDDVDW SH-222BB Adapter: 2 ID: 0
Read mode : SecureUtilize accurate stream : YesDefeat audio cache : YesMake use of C2 pointers : No
Read offset correction : 6Overread into Lead-In and Lead-Out : NoFill up missing offset samples with silence : YesDelete leading and trailing silent blocks : NoNull samples used in CRC calculations : YesUsed interface : Native Win32 interface for Win NT & 2000Gap handling : Appended to previous track
Used output format : User Defined EncoderSelected bitrate : 192 kBit/sQuality : HighAdd ID3 tag : NoCommand line compressor : C:\Program Files (x86)\FLAC\flac.exeAdditional command line options : -T "artist=%artist%" -T "title=%title%" -T "album=%albumtitle%" -T "date=%year%" -T "tracknumber=%tracknr%" -T "genre=%genre%" -T "comment=%comment%" -T "composer=%composer%" -8 %source%
TOC of the extracted CD
Track | Start | Length | Start sector | End sector --------------------------------------------------------- 1 | 0:00.00 | 0:43.15 | 0 | 3239 2 | 0:43.15 | 7:56.23 | 3240 | 38962 3 | 8:39.38 | 10:43.69 | 38963 | 87256 4 | 19:23.32 | 3:08.16 | 87257 | 101372 5 | 22:31.48 | 4:48.19 | 101373 | 122991 6 | 27:19.67 | 6:02.16 | 122992 | 150157 7 | 33:22.08 | 8:05.37 | 150158 | 186569 8 | 41:27.45 | 3:23.12 | 186570 | 201806 9 | 44:50.57 | 1:34.36 | 201807 | 208892 10 | 46:25.18 | 3:52.55 | 208893 | 226347 11 | 50:17.73 | 7:27.01 | 226348 | 259873 12 | 57:44.74 | 12:10.26 | 259874 | 314649 13 | 69:55.25 | 1:07.17 | 314650 | 319691
Track 1
Filename H:\EAC NEW Rips\01 - Applause.wav
Pre-gap length 0:00:02.00
Peak level 61.4 % Extraction speed 2.5 X Track quality 100.0 % Test CRC B968D73A Copy CRC B968D73A Accurately ripped (confidence 3) [CE05E961] (AR v2) Copy OK
Track 2
Filename H:\EAC NEW Rips\02 - Faure, Requiem op. 48 - I. Introit et Kyrie.wav
Peak level 99.9 % Extraction speed 4.8 X Track quality 100.0 % Test CRC B621496C Copy CRC B621496C Accurately ripped (confidence 3) [E40AA1C4] (AR v2) Copy OK
Track 3
Filename H:\EAC NEW Rips\03 - Faure, Requiem op. 48 - II. Offertoire.wav
Peak level 90.9 % Extraction speed 5.8 X Track quality 100.0 % Test CRC 4848C398 Copy CRC 4848C398 Accurately ripped (confidence 3) [C1722B4A] (AR v2) Copy OK
Track 4
Filename H:\EAC NEW Rips\04 - Faure, Requiem op. 48 - III. Sanctus.wav
Peak level 93.2 % Extraction speed 4.3 X Track quality 99.9 % Test CRC D6CA5791 Copy CRC D6CA5791 Accurately ripped (confidence 3) [38F6CCBB] (AR v2) Copy OK
Track 5
Filename H:\EAC NEW Rips\05 - Faure, Requiem op. 48 - IV. Pie Jesu.wav
Peak level 56.1 % Extraction speed 6.2 X Track quality 100.0 % Test CRC B31F5067 Copy CRC B31F5067 Accurately ripped (confidence 3) [7DDAE909] (AR v2) Copy OK
Track 6
Filename H:\EAC NEW Rips\06 - Faure, Requiem op. 48 - V. Agnus Dei.wav
Peak level 96.9 % Extraction speed 5.8 X Track quality 99.9 % Test CRC 038CED62 Copy CRC 038CED62 Accurately ripped (confidence 3) [1703738A] (AR v2) Copy OK
Track 7
Filename H:\EAC NEW Rips\07 - Faure, Requiem op. 48 - VI. Libera me.wav
Peak level 99.9 % Extraction speed 7.3 X Track quality 100.0 % Test CRC 175F533E Copy CRC 175F533E Accurately ripped (confidence 3) [5A163638] (AR v2) Copy OK
Track 8
Filename H:\EAC NEW Rips\08 - Faure, Requiem op. 48 - VII. In paradisum.wav
Peak level 98.0 % Extraction speed 5.4 X Track quality 99.9 % Test CRC 48529EFB Copy CRC 48529EFB Accurately ripped (confidence 3) [06C9CA20] (AR v2) Copy OK
Track 9
Filename H:\EAC NEW Rips\09 - Applause.wav
Peak level 98.5 % Extraction speed 5.9 X Track quality 100.0 % Test CRC 2ABFF905 Copy CRC 2ABFF905 Accurately ripped (confidence 3) [A5B35EB1] (AR v2) Copy OK
Track 10
Filename H:\EAC NEW Rips\10 - Stravinsky, Symphony of Psalms - I. Exaudi orationem meam, Domine.wav
Pre-gap length 0:00:07.12
Peak level 98.1 % Extraction speed 5.9 X Track quality 99.9 % Test CRC 1DF091A8 Copy CRC 1DF091A8 Accurately ripped (confidence 2) [593698B0] (AR v2) Copy OK
Track 11
Filename H:\EAC NEW Rips\11 - Stravinsky, Symphony of Psalms - II. Exspectans exspectavi Dominum.wav
Peak level 98.1 % Extraction speed 8.1 X Track quality 100.0 % Test CRC 02E9C06F Copy CRC 02E9C06F Accurately ripped (confidence 3) [9ABF67D7] (AR v2) Copy OK
Track 12
Filename H:\EAC NEW Rips\12 - Stravinsky, Symphony of Psalms - III. Alleluia- Laudate Dominum.wav
Peak level 98.1 % Extraction speed 8.8 X Track quality 100.0 % Test CRC 231D7567 Copy CRC 231D7567 Accurately ripped (confidence 3) [1084A7F8] (AR v2) Copy OK
Track 13
Filename H:\EAC NEW Rips\13 - Applause.wav
Peak level 57.3 % Extraction speed 1.3 X Track quality 99.7 % Test CRC 9F205917 Copy CRC 9F205917 Accurately ripped (confidence 3) [7B09EFB8] (AR v2) Copy OK
All tracks accurately ripped
No errors occurred
End of status report
---- CUETools DB Plugin V2.1.3
[CTDB TOCID: mLqg56aLJHbmm1Tsm8wtwxXeMDE-] found, Submit result: mLqg56aLJHbmm1Tsm8wtwxXeMDE- has been confirmed[3452ac37] (8/8) Accurately ripped
==== Log checksum 04237C852F0C45DC65739D36CD0C3A9A3533FB28D1D1D81013333E9283E371E3 ====

CD8

Exact Audio Copy V1.0 beta 3 from 29. August 2011
EAC extraction logfile from 2. July 2012, 11:35
Sergiu Celibidache, Munchner Philharmoniker / Celibidache - Sacred Music & Opera (Cd8)
Used drive : TSSTcorpCDDVDW SH-222BB Adapter: 2 ID: 0
Read mode : SecureUtilize accurate stream : YesDefeat audio cache : YesMake use of C2 pointers : No
Read offset correction : 6Overread into Lead-In and Lead-Out : NoFill up missing offset samples with silence : YesDelete leading and trailing silent blocks : NoNull samples used in CRC calculations : YesUsed interface : Native Win32 interface for Win NT & 2000Gap handling : Appended to previous track
Used output format : User Defined EncoderSelected bitrate : 192 kBit/sQuality : HighAdd ID3 tag : NoCommand line compressor : C:\Program Files (x86)\FLAC\flac.exeAdditional command line options : -T "artist=%artist%" -T "title=%title%" -T "album=%albumtitle%" -T "date=%year%" -T "tracknumber=%tracknr%" -T "genre=%genre%" -T "comment=%comment%" -T "composer=%composer%" -8 %source%
TOC of the extracted CD
Track | Start | Length | Start sector | End sector --------------------------------------------------------- 1 | 0:00.00 | 0:42.63 | 0 | 3212 2 | 0:42.63 | 14:19.66 | 3213 | 67703 3 | 15:02.54 | 1:10.63 | 67704 | 73016 4 | 16:13.42 | 13:49.58 | 73017 | 135249 5 | 30:03.25 | 0:36.08 | 135250 | 137957 6 | 30:39.33 | 6:34.32 | 137958 | 167539 7 | 37:13.65 | 1:07.44 | 167540 | 172608 8 | 38:21.34 | 10:53.27 | 172609 | 221610 9 | 49:14.61 | 1:14.71 | 221611 | 227231 10 | 50:29.57 | 8:54.02 | 227232 | 267283 11 | 59:23.59 | 1:04.17 | 267284 | 272100 12 | 60:28.01 | 7:40.48 | 272101 | 306648 13 | 68:08.49 | 0:35.40 | 306649 | 309313
Track 1
Filename H:\EAC NEW Rips\01 - Applause.wav
Pre-gap length 0:00:02.00
Peak level 63.8 % Extraction speed 1.3 X Track quality 99.7 % Test CRC CA324E6C Copy CRC CA324E6C Accurately ripped (confidence 3) [DF8CDCFF] (AR v2) Copy OK
Track 2
Filename H:\EAC NEW Rips\02 - Rossin, Guillaume Tell.wav
Peak level 100.0 % Extraction speed 4.8 X Track quality 99.9 % Test CRC AAA4308B Copy CRC AAA4308B Accurately ripped (confidence 3) [C8C1BE84] (AR v2) Copy OK
Track 3
Filename H:\EAC NEW Rips\03 - Applause.wav
Peak level 73.6 % Extraction speed 4.0 X Track quality 100.0 % Test CRC 1B362745 Copy CRC 1B362745 Accurately ripped (confidence 3) [1B001F21] (AR v2) Copy OK
Track 4
Filename H:\EAC NEW Rips\04 - Rossini, Semiramide.wav
Pre-gap length 0:00:12.74
Peak level 100.0 % Extraction speed 6.5 X Track quality 100.0 % Test CRC FB18963B Copy CRC FB18963B Accurately ripped (confidence 3) [ACEB4953] (AR v2) Copy OK
Track 5
Filename H:\EAC NEW Rips\05 - Applause.wav
Peak level 63.0 % Extraction speed 3.5 X Track quality 100.0 % Test CRC 8E1A7F6D Copy CRC 8E1A7F6D Accurately ripped (confidence 3) [53130A08] (AR v2) Copy OK
Track 6
Filename H:\EAC NEW Rips\06 - Rossini, The Silken Ladder.wav
Pre-gap length 0:00:14.28
Peak level 89.0 % Extraction speed 5.9 X Track quality 99.9 % Test CRC 5EAF7710 Copy CRC 5EAF7710 Accurately ripped (confidence 3) [81063750] (AR v2) Copy OK
Track 7
Filename H:\EAC NEW Rips\07 - Applause.wav
Peak level 89.0 % Extraction speed 4.9 X Track quality 100.0 % Test CRC 75313622 Copy CRC 75313622 Accurately ripped (confidence 3) [79F00D3A] (AR v2) Copy OK
Track 8
Filename H:\EAC NEW Rips\08 - Rossini, The Thieving Magpie.wav
Pre-gap length 0:00:14.62
Peak level 100.0 % Extraction speed 7.0 X Track quality 99.9 % Test CRC 3149B597 Copy CRC 3149B597 Accurately ripped (confidence 3) [BE3AFF26] (AR v2) Copy OK
Track 9
Filename H:\EAC NEW Rips\09 - Applause.wav
Peak level 99.9 % Extraction speed 5.5 X Track quality 100.0 % Test CRC C3A496DB Copy CRC C3A496DB Accurately ripped (confidence 3) [B7D51BB0] (AR v2) Copy OK
Track 10
Filename H:\EAC NEW Rips\10 - Verdi, La forza del destino.wav
Pre-gap length 0:00:14.66
Peak level 100.0 % Extraction speed 8.1 X Track quality 100.0 % Test CRC F2C5ADA2 Copy CRC F2C5ADA2 Accurately ripped (confidence 3) [E1623606] (AR v2) Copy OK
Track 11
Filename H:\EAC NEW Rips\11 - Applause.wav
Peak level 86.0 % Extraction speed 5.7 X Track quality 100.0 % Test CRC 08CB16BC Copy CRC 08CB16BC Accurately ripped (confidence 3) [294EB1D6] (AR v2) Copy OK
Track 12
Filename H:\EAC NEW Rips\12 - Mozart, Don Giovanni.wav
Pre-gap length 0:00:16.89
Peak level 93.4 % Extraction speed 8.5 X Track quality 100.0 % Test CRC 3C90C2BC Copy CRC 3C90C2BC Accurately ripped (confidence 3) [1F5C3302] (AR v2) Copy OK
Track 13
Filename H:\EAC NEW Rips\13 - Applause.wav
Peak level 83.7 % Extraction speed 2.3 X Track quality 99.6 % Test CRC 5CF77D8C Copy CRC 5CF77D8C Accurately ripped (confidence 3) [E1C9F7F0] (AR v2) Copy OK
All tracks accurately ripped
No errors occurred
End of status report
---- CUETools DB Plugin V2.1.3
[CTDB TOCID: sZJZ.Qo_wKX7YuoG7SZYo9EcScs-] found, Submit result: sZJZ.Qo_wKX7YuoG7SZYo9EcScs- has been confirmed[a500647e] (09/10) Accurately ripped[02707d11] (01/10) No match
==== Log checksum A617036852881919227511AB7F7F698468E7009D9BEA131E26F5A880B169B5C9 ====

CD9

Exact Audio Copy V1.0 beta 3 from 29. August 2011
EAC extraction logfile from 2. July 2012, 12:27
Sergiu Celibidache, Munchner Philharmoniker / Celibidache - Sacred Music & Opera (Cd9)
Used drive : TSSTcorpCDDVDW SH-222BB Adapter: 2 ID: 0
Read mode : SecureUtilize accurate stream : YesDefeat audio cache : YesMake use of C2 pointers : No
Read offset correction : 6Overread into Lead-In and Lead-Out : NoFill up missing offset samples with silence : YesDelete leading and trailing silent blocks : NoNull samples used in CRC calculations : YesUsed interface : Native Win32 interface for Win NT & 2000Gap handling : Appended to previous track
Used output format : User Defined EncoderSelected bitrate : 192 kBit/sQuality : HighAdd ID3 tag : NoCommand line compressor : C:\Program Files (x86)\FLAC\flac.exeAdditional command line options : -T "artist=%artist%" -T "title=%title%" -T "album=%albumtitle%" -T "date=%year%" -T "tracknumber=%tracknr%" -T "genre=%genre%" -T "comment=%comment%" -T "composer=%composer%" -8 %source%
TOC of the extracted CD
Track | Start | Length | Start sector | End sector --------------------------------------------------------- 1 | 0:00.00 | 10:20.01 | 0 | 46500 2 | 10:20.01 | 0:45.40 | 46501 | 49915 3 | 11:05.41 | 12:23.01 | 49916 | 105641 4 | 23:28.42 | 0:53.36 | 105642 | 109652 5 | 24:22.03 | 13:53.51 | 109653 | 172178 6 | 38:15.54 | 0:44.43 | 172179 | 175521 7 | 39:00.22 | 11:49.10 | 175522 | 228706 8 | 50:49.32 | 0:59.17 | 228707 | 233148 9 | 51:48.49 | 15:36.00 | 233149 | 303348 10 | 67:24.49 | 1:04.44 | 303349 | 308192 11 | 68:29.18 | 10:49.27 | 308193 | 356894 12 | 79:18.45 | 0:29.45 | 356895 | 359114
Track 1
Filename H:\EAC NEW Rips\01 - Berlioz, Le Carnaval Romain Op.9.wav
Pre-gap length 0:00:02.00
Peak level 77.5 % Extraction speed 5.5 X Track quality 100.0 % Test CRC F2EC0F29 Copy CRC F2EC0F29 Accurately ripped (confidence 4) [8DF4E345] (AR v2) Copy OK
Track 2
Filename H:\EAC NEW Rips\02 - Applause.wav
Peak level 36.4 % Extraction speed 3.5 X Track quality 100.0 % Test CRC 9AF1B9B0 Copy CRC 9AF1B9B0 Accurately ripped (confidence 3) [691A15A0] (AR v2) Copy OK
Track 3
Filename H:\EAC NEW Rips\03 - Mendelssohn, Die Hebriden Op.26.wav
Pre-gap length 0:00:10.66
Peak level 68.3 % Extraction speed 6.2 X Track quality 99.9 % Test CRC F0E1C21B Copy CRC F0E1C21B Accurately ripped (confidence 4) [8F3439B3] (AR v2) Copy OK
Track 4
Filename H:\EAC NEW Rips\04 - Applause.wav
Peak level 53.2 % Extraction speed 2.5 X Track quality 99.8 % Test CRC 388C7041 Copy CRC 388C7041 Accurately ripped (confidence 3) [CC0741C5] (AR v2) Copy OK
Track 5
Filename H:\EAC NEW Rips\05 - Mendelssohn, Ein Sommernachtstraum Op.21.wav
Pre-gap length 0:00:08.40
Peak level 69.8 % Extraction speed 7.8 X Track quality 100.0 % Test CRC 4C864846 Copy CRC 4C864846 Accurately ripped (confidence 4) [DCF2B8FD] (AR v2) Copy OK
Track 6
Filename H:\EAC NEW Rips\06 - Applause.wav
Peak level 37.2 % Extraction speed 4.8 X Track quality 100.0 % Test CRC B038610B Copy CRC B038610B Accurately ripped (confidence 3) [624BC06F] (AR v2) Copy OK
Track 7
Filename H:\EAC NEW Rips\07 - Schubert, Rosamunde D644.wav
Pre-gap length 0:00:11.66
Peak level 73.2 % Extraction speed 7.9 X Track quality 99.9 % Test CRC 6262D0B4 Copy CRC 6262D0B4 Accurately ripped (confidence 4) [5C876B9E] (AR v2) Copy OK
Track 8
Filename H:\EAC NEW Rips\08 - Applause.wav
Peak level 67.0 % Extraction speed 5.9 X Track quality 100.0 % Test CRC C397EC57 Copy CRC C397EC57 Accurately ripped (confidence 3) [E258FF98] (AR v2) Copy OK
Track 9
Filename H:\EAC NEW Rips\09 - Smetana, Vltava from 'Ma vlast'.wav
Pre-gap length 0:00:13.30
Peak level 100.0 % Extraction speed 9.4 X Track quality 100.0 % Test CRC 55F653B2 Copy CRC 55F653B2 Accurately ripped (confidence 4) [0807CE85] (AR v2) Copy OK
Track 10
Filename H:\EAC NEW Rips\10 - Applause.wav
Peak level 51.4 % Extraction speed 6.5 X Track quality 100.0 % Test CRC EA9D2216 Copy CRC EA9D2216 Accurately ripped (confidence 3) [BDA34C77] (AR v2) Copy OK
Track 11
Filename H:\EAC NEW Rips\11 - Strauss, Die fledermaus.wav
Pre-gap length 0:00:13.66
Peak level 65.2 % Extraction speed 9.0 X Track quality 99.9 % Test CRC 86DF4471 Copy CRC 86DF4471 Accurately ripped (confidence 4) [BE55E687] (AR v2) Copy OK
Track 12
Filename H:\EAC NEW Rips\12 - Applause.wav
Peak level 51.2 % Extraction speed 4.9 X Track quality 100.0 % Test CRC 59001136 Copy CRC 59001136 Accurately ripped (confidence 3) [03415297] (AR v2) Copy OK
All tracks accurately ripped
No errors occurred
End of status report
---- CUETools DB Plugin V2.1.3
[CTDB TOCID: FsoXyiJBr6s.Smz.qIlh7OTjADQ-] found, Submit result: FsoXyiJBr6s.Smz.qIlh7OTjADQ- has been confirmed[0746debb] (11/11) Accurately ripped
==== Log checksum 59BAF90AA01A58E9A658927FAE5B89CFD2BD9F1462E873E2819619BF88FD16F1 ====

CD10

Exact Audio Copy V1.0 beta 3 from 29. August 2011
EAC extraction logfile from 2. July 2012, 13:02
Sergiu Celibidache, Munchner Philharmoniker / Celibidache - Sacred Music & Opera (Cd10)
Used drive : TSSTcorpCDDVDW SH-222BB Adapter: 2 ID: 0
Read mode : SecureUtilize accurate stream : YesDefeat audio cache : YesMake use of C2 pointers : No
Read offset correction : 6Overread into Lead-In and Lead-Out : NoFill up missing offset samples with silence : YesDelete leading and trailing silent blocks : NoNull samples used in CRC calculations : YesUsed interface : Native Win32 interface for Win NT & 2000Gap handling : Appended to previous track
Used output format : User Defined EncoderSelected bitrate : 192 kBit/sQuality : HighAdd ID3 tag : NoCommand line compressor : C:\Program Files (x86)\FLAC\flac.exeAdditional command line options : -T "artist=%artist%" -T "title=%title%" -T "album=%albumtitle%" -T "date=%year%" -T "tracknumber=%tracknr%" -T "genre=%genre%" -T "comment=%comment%" -T "composer=%composer%" -8 %source%
TOC of the extracted CD
Track | Start | Length | Start sector | End sector --------------------------------------------------------- 1 | 0:00.00 | 10:45.20 | 0 | 48394 2 | 10:45.20 | 1:06.21 | 48395 | 53365 3 | 11:51.41 | 13:15.58 | 53366 | 113048 4 | 25:07.24 | 1:04.12 | 113049 | 117860 5 | 26:11.36 | 12:26.73 | 117861 | 173883 6 | 38:38.34 | 8:10.63 | 173884 | 210696 7 | 46:49.22 | 1:10.22 | 210697 | 215968
Track 1
Filename H:\EAC NEW Rips\01 - Weber, Oberon Ouverture.wav
Pre-gap length 0:00:02.00
Peak level 94.8 % Extraction speed 2.9 X Track quality 100.0 % Test CRC 3D967C3C Copy CRC 3D967C3C Accurately ripped (confidence 2) [A5BF5792] (AR v2) Copy OK
Track 2
Filename H:\EAC NEW Rips\02 - Applause.wav
Peak level 98.8 % Extraction speed 2.3 X Track quality 100.0 % Test CRC 06877D67 Copy CRC 06877D67 Accurately ripped (confidence 2) [819EBBA1] (AR v2) Copy OK
Track 3
Filename H:\EAC NEW Rips\03 - Wagner, Parsifal - Good Friday Music.wav
Pre-gap length 0:00:12.65
Peak level 98.8 % Extraction speed 3.5 X Track quality 99.9 % Test CRC E460D77E Copy CRC E460D77E Accurately ripped (confidence 2) [9DDA568B] (AR v2) Copy OK
Track 4
Filename H:\EAC NEW Rips\04 - Applause.wav
Peak level 81.8 % Extraction speed 2.7 X Track quality 100.0 % Test CRC 94C22C40 Copy CRC 94C22C40 Accurately ripped (confidence 2) [991160A2] (AR v2) Copy OK
Track 5
Filename H:\EAC NEW Rips\05 - Wagner, Tristan und Isolde - Prelude.wav
Pre-gap length 0:00:10.24
Peak level 96.7 % Extraction speed 4.1 X Track quality 99.9 % Test CRC D70B4D41 Copy CRC D70B4D41 Accurately ripped (confidence 2) [EB43C8F4] (AR v2) Copy OK
Track 6
Filename H:\EAC NEW Rips\06 - Wagner, Tristan und Isolde - Liebestod.wav
Peak level 95.3 % Extraction speed 4.8 X Track quality 100.0 % Test CRC 7536C31F Copy CRC 7536C31F Accurately ripped (confidence 2) [E195605A] (AR v2) Copy OK
Track 7
Filename H:\EAC NEW Rips\07 - Applause.wav
Peak level 66.0 % Extraction speed 3.5 X Track quality 100.0 % Test CRC 398A0D89 Copy CRC 398A0D89 Accurately ripped (confidence 2) [0DB4FF7F] (AR v2) Copy OK
All tracks accurately ripped
No errors occurred
End of status report
---- CUETools DB Plugin V2.1.3
[CTDB TOCID: 0i_g4fkKK5q7jil9sxutk2naFHo-] found, Submit result: 0i_g4fkKK5q7jil9sxutk2naFHo- has been confirmed[daca68ef] (8/8) Accurately ripped
==== Log checksum B74781E34935B663D64D2622D56EDE1E6A269F8099BA6A6819C2B0459938607B ====

CD11

Exact Audio Copy V1.0 beta 3 from 29. August 2011
EAC extraction logfile from 2. July 2012, 13:35
Sergiu Celibidache, Munchner Philharmoniker / Celibidache - Sacred Music & Opera (Cd11)
Used drive : TSSTcorpCDDVDW SH-222BB Adapter: 2 ID: 0
Read mode : SecureUtilize accurate stream : YesDefeat audio cache : YesMake use of C2 pointers : No
Read offset correction : 6Overread into Lead-In and Lead-Out : NoFill up missing offset samples with silence : YesDelete leading and trailing silent blocks : NoNull samples used in CRC calculations : YesUsed interface : Native Win32 interface for Win NT & 2000Gap handling : Appended to previous track
Used output format : User Defined EncoderSelected bitrate : 192 kBit/sQuality : HighAdd ID3 tag : NoCommand line compressor : C:\Program Files (x86)\FLAC\flac.exeAdditional command line options : -T "artist=%artist%" -T "title=%title%" -T "album=%albumtitle%" -T "date=%year%" -T "tracknumber=%tracknr%" -T "genre=%genre%" -T "comment=%comment%" -T "composer=%composer%" -8 %source%
TOC of the extracted CD
Track | Start | Length | Start sector | End sector --------------------------------------------------------- 1 | 0:00.00 | 1:05.55 | 0 | 4929 2 | 1:05.55 | 12:28.37 | 4930 | 61066 3 | 13:34.17 | 0:24.58 | 61067 | 62924 4 | 13:59.00 | 23:47.20 | 62925 | 169969 5 | 37:46.20 | 0:25.55 | 169970 | 171899 6 | 38:12.00 | 9:25.27 | 171900 | 214301 7 | 47:37.27 | 0:27.13 | 214302 | 216339 8 | 48:04.40 | 16:56.72 | 216340 | 292611 9 | 65:01.37 | 1:04.10 | 292612 | 297421
Track 1
Filename H:\EAC NEW Rips\01 - Applaus.wav
Pre-gap length 0:00:02.00
Peak level 44.2 % Extraction speed 1.8 X Track quality 99.8 % Test CRC 6C5444B7 Copy CRC 6C5444B7 Cannot be verified as accurate (confidence 31) [D6FF2AF4], AccurateRip returned [F0FA7EA9] (AR v2) Copy OK
Track 2
Filename H:\EAC NEW Rips\02 - Wagner, Die Meistersinger von Nurnberg - Vorspiel zum ersten Aufzug.wav
Pre-gap length 0:00:00.04
Peak level 98.0 % Extraction speed 5.1 X Track quality 100.0 % Test CRC D23CE819 Copy CRC D23CE819 Cannot be verified as accurate (confidence 33) [5CDFC63F], AccurateRip returned [DA05D50A] (AR v2) Copy OK
Track 3
Filename H:\EAC NEW Rips\03 - Applaus.wav
Pre-gap length 0:00:00.26
Peak level 40.9 % Extraction speed 2.4 X Track quality 100.0 % Test CRC B97C6E5B Copy CRC B97C6E5B Cannot be verified as accurate (confidence 31) [B6D7E7FE], AccurateRip returned [7E053DBC] (AR v2) Copy OK
Track 4
Filename H:\EAC NEW Rips\04 - Wagner, Siegfried-Idyll.wav
Pre-gap length 0:00:05.44
Peak level 65.9 % Extraction speed 6.5 X Track quality 99.9 % Test CRC 5B08F853 Copy CRC 5B08F853 Cannot be verified as accurate (confidence 32) [67C9AC57], AccurateRip returned [FC962792] (AR v2) Copy OK
Track 5
Filename H:\EAC NEW Rips\05 - Applaus.wav
Pre-gap length 0:00:02.00
Peak level 38.2 % Extraction speed 3.1 X Track quality 100.0 % Test CRC F921D688 Copy CRC F921D688 Cannot be verified as accurate (confidence 32) [3E34329B], AccurateRip returned [1D5720A1] (AR v2) Copy OK
Track 6
Filename H:\EAC NEW Rips\06 - Wagner, Gotterdammerung - Trauermarsch (3. Aufzug).wav
Pre-gap length 0:00:05.64
Peak level 98.0 % Extraction speed 7.0 X Track quality 99.9 % Test CRC 3D88608E Copy CRC 3D88608E Cannot be verified as accurate (confidence 32) [0EE61846], AccurateRip returned [4F93773E] (AR v2) Copy OK
Track 7
Filename H:\EAC NEW Rips\07 - Applaus.wav
Pre-gap length 0:00:02.66
Peak level 33.4 % Extraction speed 1.7 X Track quality 99.6 % Test CRC DD7DCE73 Copy CRC DD7DCE73 Cannot be verified as accurate (confidence 32) [4EB6637D], AccurateRip returned [71A0E909] (AR v2) Copy OK
Track 8
Filename H:\EAC NEW Rips\08 - Wagner, Tannhauser - Ouverture.wav
Pre-gap length 0:00:06.00
Peak level 96.7 % Extraction speed 8.8 X Track quality 100.0 % Test CRC EB63083B Copy CRC EB63083B Cannot be verified as accurate (confidence 33) [6D1829F2], AccurateRip returned [6C73720E] (AR v2) Copy OK
Track 9
Filename H:\EAC NEW Rips\09 - Applaus.wav
Pre-gap length 0:00:00.02
Peak level 93.3 % Extraction speed 6.1 X Track quality 100.0 % Test CRC 95AF7069 Copy CRC 95AF7069 Cannot be verified as accurate (confidence 32) [EEF3B6AF], AccurateRip returned [AC520438] (AR v2) Copy OK
No tracks could be verified as accurateYou may have a different pressing from the one(s) in the database
No errors occurred
End of status report
---- CUETools DB Plugin V2.1.3
[CTDB TOCID: ImPmdINbFwWkpBAmgcYI2bSdRY0-] found, Submit result: ImPmdINbFwWkpBAmgcYI2bSdRY0- has been confirmed[51413614] (40/40) Accurately ripped
==== Log checksum 112DDCAC52015E58C6D7A978FFB05D08F885A7CAE6906F46075FA840EA895F59 ====

Содержание индексной карты (.CUE)CD1

REM GENRE SacredREM DATE 2011REM DISCID A30F7C0CREM COMMENT "ExactAudioCopy v1.0b3"CATALOG 0724355784520PERFORMER "Sergiu Celibidache, Munchner Philharmoniker"TITLE "Celibidache - Sacred Music & Opera (Cd1)"FILE "01 - Bach, Mass in B minor - [Kyrie] Chorus- Kyrie eleison.wav" WAVE TRACK 01 AUDIO TITLE "Bach, Mass in B minor - [Kyrie] Chorus: Kyrie eleison" PERFORMER "Sergiu Celibidache, Munchner Philharmoniker" ISRC GBAYC0401685 INDEX 01 00:00:00FILE "02 - Bach, Mass in B minor - [Kyrie] Duet- Christe eleison.wav" WAVE TRACK 02 AUDIO TITLE "Bach, Mass in B minor - [Kyrie] Duet: Christe eleison" PERFORMER "Sergiu Celibidache, Munchner Philharmoniker" ISRC GBAYC0401685 INDEX 01 00:00:00FILE "03 - Bach, Mass in B minor - [Kyrie] Chorus- Kyrie eleison.wav" WAVE TRACK 03 AUDIO TITLE "Bach, Mass in B minor - [Kyrie] Chorus: Kyrie eleison" PERFORMER "Sergiu Celibidache, Munchner Philharmoniker" ISRC GBAYC0401686 INDEX 01 00:00:00FILE "04 - Bach, Mass in B minor - [Gloria] Chorus- Gloria in excelsis.wav" WAVE TRACK 04 AUDIO TITLE "Bach, Mass in B minor - [Gloria] Chorus: Gloria in excelsis" PERFORMER "Sergiu Celibidache, Munchner Philharmoniker" ISRC GBAYC0401689 INDEX 01 00:00:00FILE "05 - Bach, Mass in B minor - [Gloria] Chorus- Et in terra pax.wav" WAVE TRACK 05 AUDIO TITLE "Bach, Mass in B minor - [Gloria] Chorus: Et in terra pax" PERFORMER "Sergiu Celibidache, Munchner Philharmoniker" ISRC GBAYC0401690 INDEX 01 00:00:00FILE "06 - Bach, Mass in B minor - [Gloria] Aria- Laudamus te.wav" WAVE TRACK 06 AUDIO TITLE "Bach, Mass in B minor - [Gloria] Aria: Laudamus te" PERFORMER "Sergiu Celibidache, Munchner Philharmoniker" ISRC GBAYC0401691 INDEX 01 00:00:00FILE "07 - Bach, Mass in B minor - [Gloria] Chorus- Gratias agimus tibi.wav" WAVE TRACK 07 AUDIO TITLE "Bach, Mass in B minor - [Gloria] Chorus: Gratias agimus tibi" PERFORMER "Sergiu Celibidache, Munchner Philharmoniker" ISRC GBAYC0401692 INDEX 01 00:00:00FILE "08 - Bach, Mass in B minor - [Gloria] Duet- Domine Deus.wav" WAVE TRACK 08 AUDIO TITLE "Bach, Mass in B minor - [Gloria] Duet: Domine Deus" PERFORMER "Sergiu Celibidache, Munchner Philharmoniker" ISRC GBAYC0401693 INDEX 01 00:00:00FILE "09 - Bach, Mass in B minor - [Gloria] Chorus- Qui tollis peccata mundi.wav" WAVE TRACK 09 AUDIO TITLE "Bach, Mass in B minor - [Gloria] Chorus: Qui tollis peccata mundi" PERFORMER "Sergiu Celibidache, Munchner Philharmoniker" ISRC GBAYC0401693 INDEX 01 00:00:00FILE "10 - Bach, Mass in B minor - [Gloria] Aria- Qui sedes ad dexteram Patris.wav" WAVE TRACK 10 AUDIO TITLE "Bach, Mass in B minor - [Gloria] Aria: Qui sedes ad dexteram Patris" PERFORMER "Sergiu Celibidache, Munchner Philharmoniker" ISRC GBAYC0401695 INDEX 01 00:00:00FILE "11 - Bach, Mass in B minor - [Gloria] Aria- Quoniam tu solus sanctus.wav" WAVE TRACK 11 AUDIO TITLE "Bach, Mass in B minor - [Gloria] Aria: Quoniam tu solus sanctus" PERFORMER "Sergiu Celibidache, Munchner Philharmoniker" ISRC GBAYC0401695 INDEX 01 00:00:00FILE "12 - Bach, Mass in B minor - [Gloria] Chorus- Cum Sancto Spiritu.wav" WAVE TRACK 12 AUDIO TITLE "Bach, Mass in B minor - [Gloria] Chorus: Cum Sancto Spiritu" PERFORMER "Sergiu Celibidache, Munchner Philharmoniker" ISRC GBAYC0401697 INDEX 01 00:00:00

CD2

REM GENRE SacredREM DATE 2011REM DISCID BD0E7B0FREM COMMENT "ExactAudioCopy v1.0b3"CATALOG 0724355784629PERFORMER "Sergiu Celibidache, Munchner Philharmoniker"TITLE "Celibidache - Sacred Music & Opera (Cd2)"FILE "01 - Bach, Mass in B minor - [Credo] Chorus- Credo in unum Deum.wav" WAVE TRACK 01 AUDIO TITLE "Bach, Mass in B minor - [Credo] Chorus: Credo in unum Deum" PERFORMER "Sergiu Celibidache, Munchner Philharmoniker" ISRC GBAYC0401699 INDEX 01 00:00:00FILE "02 - Bach, Mass in B minor - [Credo] Chorus- Credo in unum Deum, patrem omnipotentem.wav" WAVE TRACK 02 AUDIO TITLE "Bach, Mass in B minor - [Credo] Chorus: Credo in unum Deum, patrem omnipotentem" PERFORMER "Sergiu Celibidache, Munchner Philharmoniker" ISRC GBAYC0401699 INDEX 01 00:00:00FILE "03 - Bach, Mass in B minor - [Credo] Duet- Et in unum Dominum.wav" WAVE TRACK 03 AUDIO TITLE "Bach, Mass in B minor - [Credo] Duet: Et in unum Dominum" PERFORMER "Sergiu Celibidache, Munchner Philharmoniker" ISRC GBAYC0401701 INDEX 01 00:00:00FILE "04 - Bach, Mass in B minor - [Credo] Chorus- Et incarnatus est.wav" WAVE TRACK 04 AUDIO TITLE "Bach, Mass in B minor - [Credo] Chorus: Et incarnatus est" PERFORMER "Sergiu Celibidache, Munchner Philharmoniker" ISRC GBAYC0401702 INDEX 01 00:00:00FILE "05 - Bach, Mass in B minor - [Credo] Chorus- Crucifixus.wav" WAVE TRACK 05 AUDIO TITLE "Bach, Mass in B minor - [Credo] Chorus: Crucifixus" PERFORMER "Sergiu Celibidache, Munchner Philharmoniker" ISRC GBAYC0401703 INDEX 01 00:00:00FILE "06 - Bach, Mass in B minor - [Credo] Chorus- Et resurrexit.wav" WAVE TRACK 06 AUDIO TITLE "Bach, Mass in B minor - [Credo] Chorus: Et resurrexit" PERFORMER "Sergiu Celibidache, Munchner Philharmoniker" ISRC GBAYC0401704 INDEX 01 00:00:00FILE "07 - Bach, Mass in B minor - [Credo] Aria- Et in Spiritum Sanctum.wav" WAVE TRACK 07 AUDIO TITLE "Bach, Mass in B minor - [Credo] Aria: Et in Spiritum Sanctum" PERFORMER "Sergiu Celibidache, Munchner Philharmoniker" ISRC GBAYC0401705 INDEX 01 00:00:00FILE "08 - Bach, Mass in B minor - [Credo] Chorus- Confiteor.wav" WAVE TRACK 08 AUDIO TITLE "Bach, Mass in B minor - [Credo] Chorus: Confiteor" PERFORMER "Sergiu Celibidache, Munchner Philharmoniker" ISRC GBAYC0401706 INDEX 01 00:00:00FILE "09 - Bach, Mass in B minor - [Credo] Chorus- Et exspecto resurrectionem.wav" WAVE TRACK 09 AUDIO TITLE "Bach, Mass in B minor - [Credo] Chorus: Et exspecto resurrectionem" PERFORMER "Sergiu Celibidache, Munchner Philharmoniker" ISRC GBAYC0401707 INDEX 01 00:00:00FILE "10 - Bach, Mass in B minor - [Sanctus] Chorus- Sanctus.wav" WAVE TRACK 10 AUDIO TITLE "Bach, Mass in B minor - [Sanctus] Chorus: Sanctus" PERFORMER "Sergiu Celibidache, Munchner Philharmoniker" ISRC GBAYC0401709 INDEX 01 00:00:00FILE "11 - Bach, Mass in B minor - [Sanctus] Chorus- Osanna in excelsis.wav" WAVE TRACK 11 AUDIO TITLE "Bach, Mass in B minor - [Sanctus] Chorus: Osanna in excelsis" PERFORMER "Sergiu Celibidache, Munchner Philharmoniker" ISRC GBAYC0401709 INDEX 01 00:00:00FILE "12 - Bach, Mass in B minor - [Sanctus] Aria- Benedictus qui venit.wav" WAVE TRACK 12 AUDIO TITLE "Bach, Mass in B minor - [Sanctus] Aria: Benedictus qui venit" PERFORMER "Sergiu Celibidache, Munchner Philharmoniker" ISRC GBAYC0401711 INDEX 01 00:00:00FILE "13 - Bach, Mass in B minor - [Sanctus] Chorus- Osanna (da capo).wav" WAVE TRACK 13 AUDIO TITLE "Bach, Mass in B minor - [Sanctus] Chorus: Osanna (da capo)" PERFORMER "Sergiu Celibidache, Munchner Philharmoniker" ISRC GBAYC0401712 INDEX 01 00:00:00FILE "14 - Bach, Mass in B minor - [Agnus Dei] Aria- Agnus Dei.wav" WAVE TRACK 14 AUDIO TITLE "Bach, Mass in B minor - [Agnus Dei] Aria: Agnus Dei" PERFORMER "Sergiu Celibidache, Munchner Philharmoniker" ISRC GBAYC0401714 INDEX 01 00:00:00FILE "15 - Bach, Mass in B minor - [Agnus Dei] Chorus- Dona nobis pacem.wav" WAVE TRACK 15 AUDIO TITLE "Bach, Mass in B minor - [Agnus Dei] Chorus: Dona nobis pacem" PERFORMER "Sergiu Celibidache, Munchner Philharmoniker" ISRC GBAYC0401715 INDEX 01 00:00:00

CD3

REM GENRE SacredREM DATE 2011REM DISCID D5101610REM COMMENT "ExactAudioCopy v1.0b3"CATALOG 0724355784728PERFORMER "Sergiu Celibidache, Munchner Philharmoniker"TITLE "Celibidache - Sacred Music & Opera (Cd3)"FILE "01 - Applause.wav" WAVE TRACK 01 AUDIO TITLE "Applause" PERFORMER "Sergiu Celibidache, Munchner Philharmoniker" ISRC GBAYC0401587 INDEX 01 00:00:00FILE "02 - Mozart, Requiem in D minor KV626 - Introitus- Requiem.wav" WAVE TRACK 02 AUDIO TITLE "Mozart, Requiem in D minor KV626 - Introitus: Requiem" PERFORMER "Sergiu Celibidache, Munchner Philharmoniker" ISRC GBAYC0401589 INDEX 01 00:00:00FILE "03 - Mozart, Requiem in D minor KV626 - Kyrie:Kyrie.wav" WAVE TRACK 03 AUDIO TITLE "Mozart, Requiem in D minor KV626 - Kyrie:Kyrie" PERFORMER "Sergiu Celibidache, Munchner Philharmoniker" ISRC GBAYC0401590 INDEX 01 00:00:00FILE "04 - Mozart, Requiem in D minor KV626 - Sequentia- I. Dies irae.wav" WAVE TRACK 04 AUDIO TITLE "Mozart, Requiem in D minor KV626 - Sequentia: I. Dies irae" PERFORMER "Sergiu Celibidache, Munchner Philharmoniker" ISRC GBAYC0401592 INDEX 01 00:00:00FILE "05 - Mozart, Requiem in D minor KV626 - Sequentia- II. Tuba mirum.wav" WAVE TRACK 05 AUDIO TITLE "Mozart, Requiem in D minor KV626 - Sequentia: II. Tuba mirum" PERFORMER "Sergiu Celibidache, Munchner Philharmoniker" ISRC GBAYC0401593 INDEX 01 00:00:00FILE "06 - Mozart, Requiem in D minor KV626 - Sequentia- III. Rex tremendae.wav" WAVE TRACK 06 AUDIO TITLE "Mozart, Requiem in D minor KV626 - Sequentia: III. Rex tremendae" PERFORMER "Sergiu Celibidache, Munchner Philharmoniker" ISRC GBAYC0401594 INDEX 01 00:00:00FILE "07 - Mozart, Requiem in D minor KV626 - Sequentia- IV. Recordare.wav" WAVE TRACK 07 AUDIO TITLE "Mozart, Requiem in D minor KV626 - Sequentia: IV. Recordare" PERFORMER "Sergiu Celibidache, Munchner Philharmoniker" ISRC GBAYC0401595 INDEX 01 00:00:00FILE "08 - Mozart, Requiem in D minor KV626 - Sequentia- V. Confutatis.wav" WAVE TRACK 08 AUDIO TITLE "Mozart, Requiem in D minor KV626 - Sequentia: V. Confutatis" PERFORMER "Sergiu Celibidache, Munchner Philharmoniker" ISRC GBAYC0401596 INDEX 01 00:00:00FILE "09 - Mozart, Requiem in D minor KV626 - Sequentia- VI. Lacrimosa.wav" WAVE TRACK 09 AUDIO TITLE "Mozart, Requiem in D minor KV626 - Sequentia: VI. Lacrimosa" PERFORMER "Sergiu Celibidache, Munchner Philharmoniker" ISRC GBAYC0401597 INDEX 01 00:00:00FILE "10 - Mozart, Requiem in D minor KV626 - Offertorium- I. Domine jeus.wav" WAVE TRACK 10 AUDIO TITLE "Mozart, Requiem in D minor KV626 - Offertorium: I. Domine jeus" PERFORMER "Sergiu Celibidache, Munchner Philharmoniker" ISRC GBAYC0401599 INDEX 01 00:00:00FILE "11 - Mozart, Requiem in D minor KV626 - Offertorium- II. Hostias.wav" WAVE TRACK 11 AUDIO TITLE "Mozart, Requiem in D minor KV626 - Offertorium: II. Hostias" PERFORMER "Sergiu Celibidache, Munchner Philharmoniker" ISRC GBAYC0401600 INDEX 01 00:00:00FILE "12 - Mozart, Requiem in D minor KV626 - Sanctus.wav" WAVE TRACK 12 AUDIO TITLE "Mozart, Requiem in D minor KV626 - Sanctus" PERFORMER "Sergiu Celibidache, Munchner Philharmoniker" ISRC GBAYC0401601 INDEX 01 00:00:00FILE "13 - Mozart, Requiem in D minor KV626 - Benedictus.wav" WAVE TRACK 13 AUDIO TITLE "Mozart, Requiem in D minor KV626 - Benedictus" PERFORMER "Sergiu Celibidache, Munchner Philharmoniker" ISRC GBAYC0401602 INDEX 01 00:00:00FILE "14 - Mozart, Requiem in D minor KV626 - Agnus Dei.wav" WAVE TRACK 14 AUDIO TITLE "Mozart, Requiem in D minor KV626 - Agnus Dei" PERFORMER "Sergiu Celibidache, Munchner Philharmoniker" ISRC GBAYC0401603 INDEX 01 00:00:00FILE "15 - Mozart, Requiem in D minor KV626 - Communio- Lux aeterna.wav" WAVE TRACK 15 AUDIO TITLE "Mozart, Requiem in D minor KV626 - Communio: Lux aeterna" PERFORMER "Sergiu Celibidache, Munchner Philharmoniker" ISRC GBAYC0401604 INDEX 01 00:00:00FILE "16 - Applause.wav" WAVE TRACK 16 AUDIO TITLE "Applause" PERFORMER "Sergiu Celibidache, Munchner Philharmoniker" ISRC GBAYC0401604 INDEX 01 00:00:00

CD4

REM GENRE SacredREM DATE 2011REM DISCID C710020DREM COMMENT "ExactAudioCopy v1.0b3"CATALOG 0724355784926PERFORMER "Sergiu Celibidache, Munchner Philharmoniker"TITLE "Celibidache - Sacred Music & Opera (Cd4)"FILE "01 - Applause.wav" WAVE TRACK 01 AUDIO TITLE "Applause" PERFORMER "Sergiu Celibidache, Munchner Philharmoniker" ISRC GBAYC0401562 INDEX 01 00:00:00FILE "02 - Verdi, Messa da Requiem - I. REQUIEM AETERNAM- Requiem.wav" WAVE TRACK 02 AUDIO TITLE "Verdi, Messa da Requiem - I. REQUIEM AETERNAM: Requiem" PERFORMER "Sergiu Celibidache, Munchner Philharmoniker" ISRC GBAYC0401563 INDEX 01 00:00:00FILE "03 - Verdi, Messa da Requiem - II. DIES IRAE- Dies irae.wav" WAVE TRACK 03 AUDIO TITLE "Verdi, Messa da Requiem - II. DIES IRAE: Dies irae" PERFORMER "Sergiu Celibidache, Munchner Philharmoniker" ISRC GBAYC0401565 INDEX 01 00:00:00FILE "04 - Verdi, Messa da Requiem - II. DIES IRAE- Tuba mirum.wav" WAVE TRACK 04 AUDIO TITLE "Verdi, Messa da Requiem - II. DIES IRAE: Tuba mirum" PERFORMER "Sergiu Celibidache, Munchner Philharmoniker" ISRC GBAYC0401566 INDEX 01 00:00:00FILE "05 - Verdi, Messa da Requiem - II. DIES IRAE- Liber scriptus.wav" WAVE TRACK 05 AUDIO TITLE "Verdi, Messa da Requiem - II. DIES IRAE: Liber scriptus" PERFORMER "Sergiu Celibidache, Munchner Philharmoniker" ISRC GBAYC0401566 INDEX 01 00:00:00FILE "06 - Verdi, Messa da Requiem - II. DIES IRAE- Quid sum miser.wav" WAVE TRACK 06 AUDIO TITLE "Verdi, Messa da Requiem - II. DIES IRAE: Quid sum miser" PERFORMER "Sergiu Celibidache, Munchner Philharmoniker" ISRC GBAYC0401567 INDEX 01 00:00:00FILE "07 - Verdi, Messa da Requiem - II. DIES IRAE- Rex tremendae majestatis.wav" WAVE TRACK 07 AUDIO TITLE "Verdi, Messa da Requiem - II. DIES IRAE: Rex tremendae majestatis" PERFORMER "Sergiu Celibidache, Munchner Philharmoniker" ISRC GBAYC0401569 INDEX 01 00:00:00FILE "08 - Verdi, Messa da Requiem - II. DIES IRAE- Recordare.wav" WAVE TRACK 08 AUDIO TITLE "Verdi, Messa da Requiem - II. DIES IRAE: Recordare" PERFORMER "Sergiu Celibidache, Munchner Philharmoniker" ISRC GBAYC0401570 INDEX 01 00:00:00FILE "09 - Verdi, Messa da Requiem - II. DIES IRAE- Ingemisco.wav" WAVE TRACK 09 AUDIO TITLE "Verdi, Messa da Requiem - II. DIES IRAE: Ingemisco" PERFORMER "Sergiu Celibidache, Munchner Philharmoniker" ISRC GBAYC0401571 INDEX 01 00:00:00FILE "10 - Verdi, Messa da Requiem - II. DIES IRAE- Confutatis.wav" WAVE TRACK 10 AUDIO TITLE "Verdi, Messa da Requiem - II. DIES IRAE: Confutatis" PERFORMER "Sergiu Celibidache, Munchner Philharmoniker" ISRC GBAYC0401572 INDEX 01 00:00:00FILE "11 - Verdi, Messa da Requiem - II. DIES IRAE- Lacrimosa.wav" WAVE TRACK 11 AUDIO TITLE "Verdi, Messa da Requiem - II. DIES IRAE: Lacrimosa" PERFORMER "Sergiu Celibidache, Munchner Philharmoniker" ISRC GBAYC0401573 INDEX 01 00:00:00FILE "12 - Verdi, Messa da Requiem - III. OFFERTORIO- Domine Jesu Christe.wav" WAVE TRACK 12 AUDIO TITLE "Verdi, Messa da Requiem - III. OFFERTORIO: Domine Jesu Christe" PERFORMER "Sergiu Celibidache, Munchner Philharmoniker" ISRC GBAYC0401575 INDEX 01 00:00:00FILE "13 - Verdi, Messa da Requiem - III. OFFERTORIO- Versus. Hostias.wav" WAVE TRACK 13 AUDIO TITLE "Verdi, Messa da Requiem - III. OFFERTORIO: Versus. Hostias" PERFORMER "Sergiu Celibidache, Munchner Philharmoniker" ISRC GBAYC0401576 INDEX 01 00:00:00

CD5

REM GENRE ScaredREM DATE 2011REM DISCID 6D0F6D0AREM COMMENT "ExactAudioCopy v1.0b3"CATALOG 5099908562623PERFORMER "Sergiu Celibidache, Munchner Philharmoniker"TITLE "Celibidache - Sacred Music & Opera (Cd5)"FILE "01 - Verdi, Messa da Requiem - IV. SANCTUS.wav" WAVE TRACK 01 AUDIO TITLE "Verdi, Messa da Requiem - IV. SANCTUS" PERFORMER "Sergiu Celibidache, Munchner Philharmoniker" ISRC GBAYC0401577 INDEX 01 00:00:00FILE "02 - Verdi, Messa da Requiem - V. AGNUS DEI.wav" WAVE TRACK 02 AUDIO TITLE "Verdi, Messa da Requiem - V. AGNUS DEI" PERFORMER "Sergiu Celibidache, Munchner Philharmoniker" ISRC GBAYC0401577 INDEX 01 00:00:00FILE "03 - Verdi, Messa da Requiem - VI. LUX ETERNA.wav" WAVE TRACK 03 AUDIO TITLE "Verdi, Messa da Requiem - VI. LUX ETERNA" PERFORMER "Sergiu Celibidache, Munchner Philharmoniker" ISRC GBAYC0401578 INDEX 01 00:00:00FILE "04 - Verdi, Messa da Requiem - VII. LIBERA ME- Libera me.wav" WAVE TRACK 04 AUDIO TITLE "Verdi, Messa da Requiem - VII. LIBERA ME: Libera me" PERFORMER "Sergiu Celibidache, Munchner Philharmoniker" ISRC GBAYC0401581 INDEX 01 00:00:00FILE "05 - Verdi, Messa da Requiem - VII. LIBERA ME- Dies irae.wav" WAVE TRACK 05 AUDIO TITLE "Verdi, Messa da Requiem - VII. LIBERA ME: Dies irae" PERFORMER "Sergiu Celibidache, Munchner Philharmoniker" ISRC GBAYC0401582 INDEX 01 00:00:00FILE "06 - Verdi, Messa da Requiem - VII. LIBERA ME- Requiem aeternam.wav" WAVE TRACK 06 AUDIO TITLE "Verdi, Messa da Requiem - VII. LIBERA ME: Requiem aeternam" PERFORMER "Sergiu Celibidache, Munchner Philharmoniker" ISRC GBAYC0401583 INDEX 01 00:00:00FILE "07 - Verdi, Messa da Requiem - VII. LIBERA ME- Libera me.wav" WAVE TRACK 07 AUDIO TITLE "Verdi, Messa da Requiem - VII. LIBERA ME: Libera me" PERFORMER "Sergiu Celibidache, Munchner Philharmoniker" ISRC GBAYC0401584 INDEX 01 00:00:00FILE "08 - Applause.wav" WAVE TRACK 08 AUDIO TITLE "Applause" PERFORMER "Sergiu Celibidache, Munchner Philharmoniker" ISRC GBAYC0401585 INDEX 01 00:00:00 TRACK 09 AUDIO TITLE "Brahms, Ein deutsches Requiem - I. Selig sind, die da Leid tragen" PERFORMER "Sergiu Celibidache, Munchner Philharmoniker" ISRC GBAYC8100158 INDEX 00 01:25:41FILE "09 - Brahms, Ein deutsches Requiem - I. Selig sind, die da Leid tragen.wav" WAVE INDEX 01 00:00:00FILE "10 - Brahms, Ein deutsches Requiem - II. Denn alles Fleisch, es ist wie Gras.wav" WAVE TRACK 10 AUDIO TITLE "Brahms, Ein deutsches Requiem - II. Denn alles Fleisch, es ist wie Gras" PERFORMER "Sergiu Celibidache, Munchner Philharmoniker" ISRC GBAYC8100159 INDEX 01 00:00:00

CD6

REM GENRE SacredREM DATE 2011REM DISCID 3E0D8D05REM COMMENT "ExactAudioCopy v1.0b3"CATALOG 5099908562722PERFORMER "Sergiu Celibidache, Munchner Philharmoniker"TITLE "Celibidache - Sacred Music & Opera (Cd6)"FILE "01 - Brahms, Ein deutsches Requiem - III. Herr, lehre doch mich.wav" WAVE TRACK 01 AUDIO TITLE "Brahms, Ein deutsches Requiem - III. Herr, lehre doch mich" PERFORMER "Sergiu Celibidache, Munchner Philharmoniker" ISRC GBAYC8100160 INDEX 01 00:00:00FILE "02 - Brahms, Ein deutsches Requiem - IV. Wie lieblich sind deine Wohnungen.wav" WAVE TRACK 02 AUDIO TITLE "Brahms, Ein deutsches Requiem - IV. Wie lieblich sind deine Wohnungen" PERFORMER "Sergiu Celibidache, Munchner Philharmoniker" ISRC GBAYC8100161 INDEX 01 00:00:00FILE "03 - Brahms, Ein deutsches Requiem - V. Ihr habt nun Traurigkeit.wav" WAVE TRACK 03 AUDIO TITLE "Brahms, Ein deutsches Requiem - V. Ihr habt nun Traurigkeit" PERFORMER "Sergiu Celibidache, Munchner Philharmoniker" ISRC GBAYC8100161 INDEX 01 00:00:00FILE "04 - Brahms, Ein deutsches Requiem - VI. Den wir haben hier keine bleibende Statt.wav" WAVE TRACK 04 AUDIO TITLE "Brahms, Ein deutsches Requiem - VI. Den wir haben hier keine bleibende Statt" PERFORMER "Sergiu Celibidache, Munchner Philharmoniker" ISRC GBAYC8100163 INDEX 01 00:00:00FILE "05 - Brahms, Ein deutsches Requiem - VII. Selig sind die Toten.wav" WAVE TRACK 05 AUDIO TITLE "Brahms, Ein deutsches Requiem - VII. Selig sind die Toten" PERFORMER "Sergiu Celibidache, Munchner Philharmoniker" ISRC GBAYC8100163 INDEX 01 00:00:00

CD7

REM GENRE SacredREM DATE 2011REM DISCID B510A60DREM COMMENT "ExactAudioCopy v1.0b3"CATALOG 0724355785121PERFORMER "Sergiu Celibidache & Munchner Philharmoniker"TITLE "Celibidache - Sacred Music & Opera (Cd7)"FILE "01 - Applause.wav" WAVE TRACK 01 AUDIO TITLE "Applause" PERFORMER "Sergiu Celibidache & Munchner Philharmoniker" ISRC GBAYC0401717 INDEX 01 00:00:00FILE "02 - Faure, Requiem op. 48 - I. Introit et Kyrie.wav" WAVE TRACK 02 AUDIO TITLE "Faure, Requiem op. 48 - I. Introit et Kyrie" PERFORMER "Sergiu Celibidache & Munchner Philharmoniker" ISRC GBAYC0401718 INDEX 01 00:00:00FILE "03 - Faure, Requiem op. 48 - II. Offertoire.wav" WAVE TRACK 03 AUDIO TITLE "Faure, Requiem op. 48 - II. Offertoire" PERFORMER "Sergiu Celibidache & Munchner Philharmoniker" ISRC GBAYC0401719 INDEX 01 00:00:00FILE "04 - Faure, Requiem op. 48 - III. Sanctus.wav" WAVE TRACK 04 AUDIO TITLE "Faure, Requiem op. 48 - III. Sanctus" PERFORMER "Sergiu Celibidache & Munchner Philharmoniker" ISRC GBAYC0401720 INDEX 01 00:00:00FILE "05 - Faure, Requiem op. 48 - IV. Pie Jesu.wav" WAVE TRACK 05 AUDIO TITLE "Faure, Requiem op. 48 - IV. Pie Jesu" PERFORMER "Sergiu Celibidache & Munchner Philharmoniker" ISRC GBAYC0401721 INDEX 01 00:00:00FILE "06 - Faure, Requiem op. 48 - V. Agnus Dei.wav" WAVE TRACK 06 AUDIO TITLE "Faure, Requiem op. 48 - V. Agnus Dei" PERFORMER "Sergiu Celibidache & Munchner Philharmoniker" ISRC GBAYC0401722 INDEX 01 00:00:00FILE "07 - Faure, Requiem op. 48 - VI. Libera me.wav" WAVE TRACK 07 AUDIO TITLE "Faure, Requiem op. 48 - VI. Libera me" PERFORMER "Sergiu Celibidache & Munchner Philharmoniker" ISRC GBAYC0401723 INDEX 01 00:00:00FILE "08 - Faure, Requiem op. 48 - VII. In paradisum.wav" WAVE TRACK 08 AUDIO TITLE "Faure, Requiem op. 48 - VII. In paradisum" PERFORMER "Sergiu Celibidache & Munchner Philharmoniker" ISRC GBAYC0401723 INDEX 01 00:00:00FILE "09 - Applause.wav" WAVE TRACK 09 AUDIO TITLE "Applause" PERFORMER "Sergiu Celibidache & Munchner Philharmoniker" ISRC GBAYC0401725 INDEX 01 00:00:00 TRACK 10 AUDIO TITLE "Stravinsky, Symphony of Psalms - I. Exaudi orationem meam, Domine" PERFORMER "Sergiu Celibidache & Munchner Philharmoniker" ISRC GBAYC0401727 INDEX 00 01:27:27FILE "10 - Stravinsky, Symphony of Psalms - I. Exaudi orationem meam, Domine.wav" WAVE INDEX 01 00:00:00FILE "11 - Stravinsky, Symphony of Psalms - II. Exspectans exspectavi Dominum.wav" WAVE TRACK 11 AUDIO TITLE "Stravinsky, Symphony of Psalms - II. Exspectans exspectavi Dominum" PERFORMER "Sergiu Celibidache & Munchner Philharmoniker" ISRC GBAYC0401728 INDEX 01 00:00:00FILE "12 - Stravinsky, Symphony of Psalms - III. Alleluia- Laudate Dominum.wav" WAVE TRACK 12 AUDIO TITLE "Stravinsky, Symphony of Psalms - III. Alleluia: Laudate Dominum" PERFORMER "Sergiu Celibidache & Munchner Philharmoniker" ISRC GBAYC0401729 INDEX 01 00:00:00FILE "13 - Applause.wav" WAVE TRACK 13 AUDIO TITLE "Applause" PERFORMER "Sergiu Celibidache & Munchner Philharmoniker" ISRC GBAYC0401730 INDEX 01 00:00:00

CD8

REM GENRE ClassicalREM DATE 2011REM DISCID A5101C0DREM COMMENT "ExactAudioCopy v1.0b3"CATALOG 0724355785725PERFORMER "Sergiu Celibidache, Munchner Philharmoniker"TITLE "Celibidache - Sacred Music & Opera (Cd8)"FILE "01 - Applause.wav" WAVE TRACK 01 AUDIO TITLE "Applause" PERFORMER "Sergiu Celibidache, Munchner Philharmoniker" ISRC GBAYC0401755 INDEX 01 00:00:00FILE "02 - Rossin, Guillaume Tell.wav" WAVE TRACK 02 AUDIO TITLE "Rossin, Guillaume Tell" PERFORMER "Sergiu Celibidache, Munchner Philharmoniker" ISRC GBAYC0401756 INDEX 01 00:00:00FILE "03 - Applause.wav" WAVE TRACK 03 AUDIO TITLE "Applause" PERFORMER "Sergiu Celibidache, Munchner Philharmoniker" ISRC GBAYC0401758 INDEX 01 00:00:00 TRACK 04 AUDIO TITLE "Rossini, Semiramide " PERFORMER "Sergiu Celibidache, Munchner Philharmoniker" ISRC GBAYC0401759 INDEX 00 00:58:07FILE "04 - Rossini, Semiramide.wav" WAVE INDEX 01 00:00:00FILE "05 - Applause.wav" WAVE TRACK 05 AUDIO TITLE "Applause" PERFORMER "Sergiu Celibidache, Munchner Philharmoniker" ISRC GBAYC0401761 INDEX 01 00:00:00 TRACK 06 AUDIO TITLE "Rossini, The Silken Ladder " PERFORMER "Sergiu Celibidache, Munchner Philharmoniker" ISRC GBAYC0401762 INDEX 00 00:21:62FILE "06 - Rossini, The Silken Ladder.wav" WAVE INDEX 01 00:00:00FILE "07 - Applause.wav" WAVE TRACK 07 AUDIO TITLE "Applause" PERFORMER "Sergiu Celibidache, Munchner Philharmoniker" ISRC GBAYC0401764 INDEX 01 00:00:00 TRACK 08 AUDIO TITLE "Rossini, The Thieving Magpie " PERFORMER "Sergiu Celibidache, Munchner Philharmoniker" ISRC GBAYC0401765 INDEX 00 00:52:72FILE "08 - Rossini, The Thieving Magpie.wav" WAVE INDEX 01 00:00:00FILE "09 - Applause.wav" WAVE TRACK 09 AUDIO TITLE "Applause" PERFORMER "Sergiu Celibidache, Munchner Philharmoniker" ISRC GBAYC0401767 INDEX 01 00:00:00 TRACK 10 AUDIO TITLE "Verdi, La forza del destino " PERFORMER "Sergiu Celibidache, Munchner Philharmoniker" ISRC GBAYC0401768 INDEX 00 01:00:21FILE "10 - Verdi, La forza del destino.wav" WAVE INDEX 01 00:00:00FILE "11 - Applause.wav" WAVE TRACK 11 AUDIO TITLE "Applause" PERFORMER "Sergiu Celibidache, Munchner Philharmoniker" ISRC GBAYC0401770 INDEX 01 00:00:00 TRACK 12 AUDIO TITLE "Mozart, Don Giovanni " PERFORMER "Sergiu Celibidache, Munchner Philharmoniker" ISRC GBAYC0401771 INDEX 00 00:47:25FILE "12 - Mozart, Don Giovanni.wav" WAVE INDEX 01 00:00:00FILE "13 - Applause.wav" WAVE TRACK 13 AUDIO TITLE "Applause" PERFORMER "Sergiu Celibidache, Munchner Philharmoniker" ISRC GBAYC0401772 INDEX 01 00:00:00

CD9

REM GENRE ClassicalREM DATE 2011REM DISCID 8712B40CREM COMMENT "ExactAudioCopy v1.0b3"CATALOG 0724355785824PERFORMER "Sergiu Celibidache, Munchner Philharmoniker"TITLE "Celibidache - Sacred Music & Opera (Cd9)"FILE "01 - Berlioz, Le Carnaval Romain Op.9.wav" WAVE TRACK 01 AUDIO TITLE "Berlioz, Le Carnaval Romain Op.9" PERFORMER "Sergiu Celibidache, Munchner Philharmoniker" ISRC GBAYC0401773 INDEX 01 00:00:00FILE "02 - Applause.wav" WAVE TRACK 02 AUDIO TITLE "Applause" PERFORMER "Sergiu Celibidache, Munchner Philharmoniker" ISRC GBAYC0401774 INDEX 01 00:00:00 TRACK 03 AUDIO TITLE "Mendelssohn, Die Hebriden Op.26" PERFORMER "Sergiu Celibidache, Munchner Philharmoniker" ISRC GBAYC0401775 INDEX 00 00:34:65FILE "03 - Mendelssohn, Die Hebriden Op.26.wav" WAVE INDEX 01 00:00:00FILE "04 - Applause.wav" WAVE TRACK 04 AUDIO TITLE "Applause" PERFORMER "Sergiu Celibidache, Munchner Philharmoniker" ISRC GBAYC0401776 INDEX 01 00:00:00 TRACK 05 AUDIO TITLE "Mendelssohn, Ein Sommernachtstraum Op.21" PERFORMER "Sergiu Celibidache, Munchner Philharmoniker" ISRC GBAYC0401777 INDEX 00 00:45:06FILE "05 - Mendelssohn, Ein Sommernachtstraum Op.21.wav" WAVE INDEX 01 00:00:00FILE "06 - Applause.wav" WAVE TRACK 06 AUDIO TITLE "Applause" PERFORMER "Sergiu Celibidache, Munchner Philharmoniker" ISRC GBAYC0401778 INDEX 01 00:00:00 TRACK 07 AUDIO TITLE "Schubert, Rosamunde D644" PERFORMER "Sergiu Celibidache, Munchner Philharmoniker" ISRC GBAYC0401779 INDEX 00 00:32:68FILE "07 - Schubert, Rosamunde D644.wav" WAVE INDEX 01 00:00:00FILE "08 - Applause.wav" WAVE TRACK 08 AUDIO TITLE "Applause" PERFORMER "Sergiu Celibidache, Munchner Philharmoniker" ISRC GBAYC0401780 INDEX 01 00:00:00 TRACK 09 AUDIO TITLE "Smetana, Vltava from 'Ma vlast'" PERFORMER "Sergiu Celibidache, Munchner Philharmoniker" ISRC GBAYC0401782 INDEX 00 00:45:69FILE "09 - Smetana, Vltava from 'Ma vlast'.wav" WAVE INDEX 01 00:00:00FILE "10 - Applause.wav" WAVE TRACK 10 AUDIO TITLE "Applause" PERFORMER "Sergiu Celibidache, Munchner Philharmoniker" ISRC GBAYC0401783 INDEX 01 00:00:00 TRACK 11 AUDIO TITLE "Strauss, Die fledermaus" PERFORMER "Sergiu Celibidache, Munchner Philharmoniker" ISRC GBAYC0401784 INDEX 00 00:50:69FILE "11 - Strauss, Die fledermaus.wav" WAVE INDEX 01 00:00:00FILE "12 - Applause.wav" WAVE TRACK 12 AUDIO TITLE "Applause" PERFORMER "Sergiu Celibidache, Munchner Philharmoniker" ISRC GBAYC0401785 INDEX 01 00:00:00

CD10

REM GENRE ClassicalREM DATE 2011REM DISCID 500B3F07REM COMMENT "ExactAudioCopy v1.0b3"CATALOG 0724355786029PERFORMER "Sergiu Celibidache, Munchner Philharmoniker"TITLE "Celibidache - Sacred Music & Opera (Cd10)"FILE "01 - Weber, Oberon Ouverture.wav" WAVE TRACK 01 AUDIO TITLE "Weber, Oberon Ouverture " PERFORMER "Sergiu Celibidache, Munchner Philharmoniker" ISRC GBAYC0401787 INDEX 01 00:00:00FILE "02 - Applause.wav" WAVE TRACK 02 AUDIO TITLE "Applause" PERFORMER "Sergiu Celibidache, Munchner Philharmoniker" ISRC GBAYC0401788 INDEX 01 00:00:00 TRACK 03 AUDIO TITLE "Wagner, Parsifal - Good Friday Music " PERFORMER "Sergiu Celibidache, Munchner Philharmoniker" ISRC GBAYC0401790 INDEX 00 00:53:47FILE "03 - Wagner, Parsifal - Good Friday Music.wav" WAVE INDEX 01 00:00:00FILE "04 - Applause.wav" WAVE TRACK 04 AUDIO TITLE "Applause" PERFORMER "Sergiu Celibidache, Munchner Philharmoniker" ISRC GBAYC0401791 INDEX 01 00:00:00 TRACK 05 AUDIO TITLE "Wagner, Tristan und Isolde - Prelude " PERFORMER "Sergiu Celibidache, Munchner Philharmoniker" ISRC GBAYC0401793 INDEX 00 00:53:69FILE "05 - Wagner, Tristan und Isolde - Prelude.wav" WAVE INDEX 01 00:00:00FILE "06 - Wagner, Tristan und Isolde - Liebestod.wav" WAVE TRACK 06 AUDIO TITLE "Wagner, Tristan und Isolde - Liebestod " PERFORMER "Sergiu Celibidache, Munchner Philharmoniker" ISRC GBAYC0401793 INDEX 01 00:00:00FILE "07 - Applause.wav" WAVE TRACK 07 AUDIO TITLE "Applause" PERFORMER "Sergiu Celibidache, Munchner Philharmoniker" ISRC GBAYC0401795 INDEX 01 00:00:00

CD11

REM GENRE ClassicalREM DATE 2011REM DISCID 8D0F7D09REM COMMENT "ExactAudioCopy v1.0b3"CATALOG 0724355652423PERFORMER "Sergiu Celibidache, Munchner Philharmoniker"TITLE "Celibidache - Sacred Music & Opera (Cd11)"FILE "01 - Applaus.wav" WAVE TRACK 01 AUDIO TITLE "Applaus" PERFORMER "Sergiu Celibidache, Munchner Philharmoniker" ISRC GBAYC9300655 INDEX 01 00:00:00 TRACK 02 AUDIO TITLE "Wagner, Die Meistersinger von Nurnberg - Vorspiel zum ersten Aufzug" PERFORMER "Sergiu Celibidache, Munchner Philharmoniker" ISRC GBAYC9300645 INDEX 00 01:05:52FILE "02 - Wagner, Die Meistersinger von Nurnberg - Vorspiel zum ersten Aufzug.wav" WAVE INDEX 01 00:00:00 TRACK 03 AUDIO TITLE "Applaus" PERFORMER "Sergiu Celibidache, Munchner Philharmoniker" ISRC GBAYC9300646 INDEX 00 12:28:17FILE "03 - Applaus.wav" WAVE INDEX 01 00:00:00 TRACK 04 AUDIO TITLE "Wagner, Siegfried-Idyll" PERFORMER "Sergiu Celibidache, Munchner Philharmoniker" ISRC GBAYC9300647 INDEX 00 00:19:25FILE "04 - Wagner, Siegfried-Idyll.wav" WAVE INDEX 01 00:00:00 TRACK 05 AUDIO TITLE "Applaus" PERFORMER "Sergiu Celibidache, Munchner Philharmoniker" ISRC GBAYC9300648 INDEX 00 23:45:20FILE "05 - Applaus.wav" WAVE INDEX 01 00:00:00 TRACK 06 AUDIO TITLE "Wagner, Gotterdammerung - Trauermarsch (3. Aufzug)" PERFORMER "Sergiu Celibidache, Munchner Philharmoniker" ISRC GBAYC9300650 INDEX 00 00:20:07FILE "06 - Wagner, Gotterdammerung - Trauermarsch (3. Aufzug).wav" WAVE INDEX 01 00:00:00 TRACK 07 AUDIO TITLE "Applaus" PERFORMER "Sergiu Celibidache, Munchner Philharmoniker" ISRC GBAYC9300651 INDEX 00 09:22:52FILE "07 - Applaus.wav" WAVE INDEX 01 00:00:00 TRACK 08 AUDIO TITLE "Wagner, Tannhauser - Ouverture" PERFORMER "Sergiu Celibidache, Munchner Philharmoniker" ISRC GBAYC9300653 INDEX 00 00:21:13FILE "08 - Wagner, Tannhauser - Ouverture.wav" WAVE INDEX 01 00:00:00 TRACK 09 AUDIO TITLE "Applaus" PERFORMER "Sergiu Celibidache, Munchner Philharmoniker" ISRC GBAYC9300653 INDEX 00 16:56:70FILE "09 - Applaus.wav" WAVE INDEX 01 00:00:00
[teatrix.ru].t10018.torrent 
Торрент: Зарегистрирован [ 2015-10-25 20:37 ] · 3962342839E3348C6C7817F1CA0237D9F4690BA8

Скачать .torrent

Скачать

30 KB

Статус: проверено
Скачан: 0 раз
Размер: 3.17 GB
terms.php



Быстрый ответ

Имя:

      
Для отправки сообщений необходимо включить JavaScript
Показать сообщения:    

Текущее время: 06-Дек 20:57

Часовой пояс: UTC + 3


Вы можете начинать темы
Вы можете отвечать на сообщения
Вы не можете редактировать свои сообщения
Вы не можете удалять свои сообщения
Вы не можете голосовать в опросах
Вы не можете прикреплять файлы к сообщениям
Вы можете скачивать файлы