(Classical) Фредерик Шопен (Frederic Chopin) - Piano Works: Preludes, Impromptus, Ballades, Valses, Scherzos, Barcaroles, Piano Concertos, Nocturnes, Polonaises (Claudio Arrau, Eliahu Inbal) [Arrau Heritage, 8CD] - 2003, FLAC (image+.cue) lossless


Статистика раздачи [Обновить пиров]
Размер:  2.25 GB   |    Зарегистрирован:  1 год 1 месяц   |    Скачан:  1 раз

Полного источника не было: 17 дней

 
   
 
 
 

[Цитировать]

Frederic Chopin - Piano Works (Claudio Arrau)
Жанр: Classical
Страна-производитель диска: France
Год издания диска: 2003
Издатель (лейбл): PHILIPS
Номер по каталогу: 475 029-2
Дата записи: 1970-1984
Аудиокодек: FLAC
Тип рипа: image+.cue
Битрейт аудио: lossless
Продолжительность: 10:33:50
Источник: web
Наличие сканов в содержимом раздачи: да
Треклист:
Frédéric Chopin

CD1 - Preludes, Impromptus, Krakowiak

Preludes, Op.28
1. No.1 in C
2. No.2 in A minor
3. No.3 in G
4. No.4 in E minor
5. No.5 in D
6. No.6 in B minor
7. No.7 in A
8. No.8 in F sharp minor
9. No.9 in E
10. No.10 in C sharp minor
11. No.11 in B
12. No.12 in G sharp minor
13. No.13 in F sharp
14. No.14 in E flat minor
15. No.15 in D flat
16. No.16 in B flat minor
17. No.17 in A flat
18. No.18 in F minor
19. No.19 in E flat
20. No.20 in C minor
21. No.21 in B flat
22. No.22 in G minor
23. No.23 in F
24. No.24 in D minor
Impromptus
25. No.1 in A flat, Op.29
26. No.2 in F sharp, Op.36
27. No.3 in G flat, Op.51
28. No.4 in C sharp minor, Op.66 'Fantasie-Impromptu'
29. Krakowiak, Concert Rondo in F, Op.14

CD2 - Valses, Preludes

Valses
1. No.1 in E flat, Op.18 'Grande brilliante'
2. No.2 in A flat, Op.34 no.1 'brillante'
3. No.3 in A minor, Op.34 no.2
4. No.4 in F, Op.34 no.3
5. No.5 in A flat, Op.42 'Grande Valse'
6. No.6 in D flat, Op.64 no.1
7. No.7 in C sharp minor, Op.64 no.2
8. No.8 in A flat, Op.64 no.3
9. No.9 in A flat, Op.69 no.1 'de l'adieu'
10. No.10 in B minor, Op.69 no.2
11. No.11 in G flat, Op.70 no.1
12. No.12 in F minor/ A flat, Op.70 no.2
13. No.13 in D flat, Op.70 no.3
14. No.14 in E minor, Op. posth
15. No.15 in A flat, Op. posth.
16. No.16 in E, Op. posth.
17. No.19 in A minor, Op. posth
18. No.18 in E flat, Op. posth.
19. No.17 in E flat, Op. posth.
20. Prelude in C sharp minor, Op.45
21. Prelude in A flat, Op. posth

CD3 - Scherzos, Ballades

Scherzos
1. No.1 in B minor, Op.20
2. No.2 in B flat minor, Op.31
3. No.3 in C sharp minor, Op.39
4. No.4 in E, Op.54
Ballades
5. No.1 in G minor, Op.23
6. No.2 in F, Op.38
7. No.3 in A flat, Op.47
8. No.4 in F minor, Op.52

CD4 - Barcarolle, Fantasy, Nocturnes

1. Barcarolle in F sharp, Op.60
2. Fantasy on Polish Airs in A, Op.13
Nocturnes
3. No.1 in B flat minor, Op.9 no.1
4. No.2 in E flat, Op.9 no.2
5. No.3 in B, Op.9 no.3
6. No.4 in F, Op.15 no.1
7. No.5 in F sharp, Op.15 no.2
8. No.6 in G minor, Op.15 no.3
9. No.7 in C sharp minor, Op.27 no.1
10. No.8 in D flat, Op.27 no.2
11. No.9 in B, Op.32 no.1
12. No.10 in A flat, Op.32 no.2

CD5 - Nocturnes, Polonaise-Fantaisie

Nocturnes
1. No.11 in G minor, Op.37 no.1
2. No.12 in G, Op.37 no.2
3. No.13 in C minor, Op.48 no.1
4. No.14 in F sharp minor, Op.48 no.2
5. No.15 in F minor, Op.55 no.1
6. No.16 in E flat, Op.55 no.2
7. No.17 in B, Op.62 no.1
8. No.18 in E, Op.62 no.2
9. No.19 in E minor, Op.72 no.1
10. No.20 in C sharp minor, Op.posth.
11. No.21 in C minor, Op.posth.
12. Polonaise No.7 in A flat, Op.61 'Polonaise-Fantaisie'

CD6 - Piano Concerto No.1, Andante spianato, Variations

Piano Concerto No.1 in E minor, Op.11
1. I. Allegro maestoso
2. II. Romance : Larghetto
3. III. Rondo : Vivace
4. Andante spianato et Grande Polonaise brillante en mi bemol majeur, op. 22
5. Variations en si bemol majeur sur 'Lа ci darem la mano' pour piano et orchestra, op.2

CD7 - Piano Concerto No.2, Fantaisie, Impromptus, Barcarolle

Piano Concerto No.2 in F minor, Op.21
1. I. Maestoso
2. II. Larghetto
3. III. Allegro vivace
4. Fantaisie in F minor, Op.49
Impromptus
5. No.1 in A flat, Op.29
6. No.2 in F sharp, Op.36
7. No.3 in G flat, Op.51
8. No.4 in C sharp minor, Op.66 'Fantaisie-Impromptu'
9. Barcarolle in F sharp, Op.60

CD8 - Scherzos, Ballades

Scherzos
1. No.1 in B minor, Op.20
2. No.2 in B flat minor, Op.31
3. No.3 in C sharp minor, Op.39
4. No.4 in E, Op.54
Ballades
5. No.1 in G minor, Op.23
6. No.2 in F, Op.38
7. No.3 in A flat, Op.47
8. No.4 in F minor, Op.52
Исполнители:
Claudio Arrau, piano
London Philharmonic Orchestra
Conductor: Eliahu Inbal

Лог проверки качестваCD1

-----------------------
DON'T MODIFY THIS FILE
-----------------------
PERFORMER: auCDtect Task Manager, ver. 1.5.1RC6 build 1.5.1.7Copyright (c) 2008-2010 y-soft. All rights reservedhttp://y-soft.org
ANALYZER: auCDtect: CD records authenticity detector, version 0.8.2Copyright (c) 2004 Oleg Berngardt. All rights reserved.Copyright (c) 2004 Alexander Djourik. All rights reserved.
FILE: CDImage.flac Size: 302961360 Hash: 49ED8EC700642DB006858731E7AA2971 Accuracy: -m0 Conclusion: CDDA 100% Signature: 73A7DD63CAD2FC83D59DC4829A955BB15CA49E4C

CD2

-----------------------
DON'T MODIFY THIS FILE
-----------------------
PERFORMER: auCDtect Task Manager, ver. 1.5.1RC6 build 1.5.1.7Copyright (c) 2008-2010 y-soft. All rights reservedhttp://y-soft.org
ANALYZER: auCDtect: CD records authenticity detector, version 0.8.2Copyright (c) 2004 Oleg Berngardt. All rights reserved.Copyright (c) 2004 Alexander Djourik. All rights reserved.
FILE: CDImage.flac Size: 260994749 Hash: 17FAECD20DBA75A0EA7D23FCE70FBBF6 Accuracy: -m0 Conclusion: CDDA 87% Signature: 09E12BA233FE4B9772C43CD44E4C0530BE1BE90D

CD3

-----------------------
DON'T MODIFY THIS FILE
-----------------------
PERFORMER: auCDtect Task Manager, ver. 1.5.1RC6 build 1.5.1.7Copyright (c) 2008-2010 y-soft. All rights reservedhttp://y-soft.org
ANALYZER: auCDtect: CD records authenticity detector, version 0.8.2Copyright (c) 2004 Oleg Berngardt. All rights reserved.Copyright (c) 2004 Alexander Djourik. All rights reserved.
FILE: CDImage.flac Size: 279316480 Hash: F1D935155AB3FDDE38F74E0CFC658988 Accuracy: -m0 Conclusion: CDDA 100% Signature: 66E4011119B1963897409744B5F51646FA7CF0A9

CD4

-----------------------
DON'T MODIFY THIS FILE
-----------------------
PERFORMER: auCDtect Task Manager, ver. 1.5.1RC6 build 1.5.1.7Copyright (c) 2008-2010 y-soft. All rights reservedhttp://y-soft.org
ANALYZER: auCDtect: CD records authenticity detector, version 0.8.2Copyright (c) 2004 Oleg Berngardt. All rights reserved.Copyright (c) 2004 Alexander Djourik. All rights reserved.
FILE: CDImage.flac Size: 317165054 Hash: 460638037D19C9E5A2DC4C8267AEEECE Accuracy: -m0 Conclusion: CDDA 100% Signature: 354730E48D744D0620A7555E65C570400BE8A046

CD5

-----------------------
DON'T MODIFY THIS FILE
-----------------------
PERFORMER: auCDtect Task Manager, ver. 1.5.1RC6 build 1.5.1.7Copyright (c) 2008-2010 y-soft. All rights reservedhttp://y-soft.org
ANALYZER: auCDtect: CD records authenticity detector, version 0.8.2Copyright (c) 2004 Oleg Berngardt. All rights reserved.Copyright (c) 2004 Alexander Djourik. All rights reserved.
FILE: CDImage.flac Size: 298417755 Hash: FBF4878F7E43DA81FB125C308D0BA1F5 Accuracy: -m0 Conclusion: CDDA 100% Signature: 2D2F0077511981A311C04696B858213BF53985DA

CD6

-----------------------
DON'T MODIFY THIS FILE
-----------------------
PERFORMER: auCDtect Task Manager, ver. 1.5.1RC6 build 1.5.1.7Copyright (c) 2008-2010 y-soft. All rights reservedhttp://y-soft.org
ANALYZER: auCDtect: CD records authenticity detector, version 0.8.2Copyright (c) 2004 Oleg Berngardt. All rights reserved.Copyright (c) 2004 Alexander Djourik. All rights reserved.
FILE: CDImage.flac Size: 353996318 Hash: 905519F8281632EC15D649FEF94261D4 Accuracy: -m0 Conclusion: CDDA 100% Signature: A518D3B783A4BB85E96CF2A69AD5DDD8A3C8F4AA

CD7

-----------------------
DON'T MODIFY THIS FILE
-----------------------
PERFORMER: auCDtect Task Manager, ver. 1.5.1RC6 build 1.5.1.7Copyright (c) 2008-2010 y-soft. All rights reservedhttp://y-soft.org
ANALYZER: auCDtect: CD records authenticity detector, version 0.8.2Copyright (c) 2004 Oleg Berngardt. All rights reserved.Copyright (c) 2004 Alexander Djourik. All rights reserved.
FILE: CDImage.flac Size: 300261901 Hash: F6C581965EB529E504D3E93A0A9F2839 Accuracy: -m0 Conclusion: CDDA 100% Signature: 4D734BCAE84E893079344C0E8F52CA71EA52FEE1

CD8

-----------------------
DON'T MODIFY THIS FILE
-----------------------
PERFORMER: auCDtect Task Manager, ver. 1.5.1RC6 build 1.5.1.7Copyright (c) 2008-2010 y-soft. All rights reservedhttp://y-soft.org
ANALYZER: auCDtect: CD records authenticity detector, version 0.8.2Copyright (c) 2004 Oleg Berngardt. All rights reserved.Copyright (c) 2004 Alexander Djourik. All rights reserved.
FILE: CDImage.flac Size: 248934506 Hash: EF52F30B09F58728674034FBB3E7888E Accuracy: -m0 Conclusion: CDDA 100% Signature: A13146E56A0A76C3086A66DC5AE95CE100666712

Содержание индексной карты (.CUE)CD1

PERFORMER "Claudio Arrau"TITLE "Chopin - Arrau Heritage"FILE "CDImage.flac" WAVE TRACK 01 AUDIO TITLE "Preludes, Op.28 - No.1 in C" PERFORMER "Claudio Arrau" ISRC NLA507300472 FLAGS DCP INDEX 01 00:00:00 TRACK 02 AUDIO TITLE "Preludes, Op.28 - No.2 in A minor" PERFORMER "Claudio Arrau" ISRC NLA507300473 FLAGS DCP INDEX 00 00:46:39 INDEX 01 00:46:42 TRACK 03 AUDIO TITLE "Preludes, Op.28 - No.3 in G" PERFORMER "Claudio Arrau" ISRC NLA507300474 FLAGS DCP INDEX 00 02:37:70 INDEX 01 02:38:00 TRACK 04 AUDIO TITLE "Preludes, Op.28 - No.4 in E minor" PERFORMER "Claudio Arrau" ISRC NLA507300475 FLAGS DCP INDEX 00 03:45:16 INDEX 01 03:45:17 TRACK 05 AUDIO TITLE "Preludes, Op.28 - No.5 in D" PERFORMER "Claudio Arrau" ISRC NLA507300476 FLAGS DCP INDEX 00 05:47:59 INDEX 01 05:47:62 TRACK 06 AUDIO TITLE "Preludes, Op.28 - No.6 in B minor" PERFORMER "Claudio Arrau" ISRC NLA507300477 FLAGS DCP INDEX 00 06:30:72 INDEX 01 06:31:00 TRACK 07 AUDIO TITLE "Preludes, Op.28 - No.7 in A" PERFORMER "Claudio Arrau" ISRC NLA507300478 FLAGS DCP INDEX 00 08:52:72 INDEX 01 08:53:00 TRACK 08 AUDIO TITLE "Preludes, Op.28 - No.8 in F sharp minor" PERFORMER "Claudio Arrau" ISRC NLA507300479 FLAGS DCP INDEX 00 09:48:73 INDEX 01 09:49:00 TRACK 09 AUDIO TITLE "Preludes, Op.28 - No.9 in E" PERFORMER "Claudio Arrau" ISRC NLA507300480 FLAGS DCP INDEX 00 11:49:74 INDEX 01 11:50:00 TRACK 10 AUDIO TITLE "Preludes, Op.28 - No.10 in C sharp minor" PERFORMER "Claudio Arrau" ISRC NLA507300481 FLAGS DCP INDEX 00 13:18:70 INDEX 01 13:19:00 TRACK 11 AUDIO TITLE "Preludes, Op.28 - No.11 in B" PERFORMER "Claudio Arrau" ISRC NLA507300482 FLAGS DCP INDEX 00 13:54:74 INDEX 01 13:55:00 TRACK 12 AUDIO TITLE "Preludes, Op.28 - No.12 in G sharp minor" PERFORMER "Claudio Arrau" ISRC NLA507300483 FLAGS DCP INDEX 00 14:38:24 INDEX 01 14:38:25 TRACK 13 AUDIO TITLE "Preludes, Op.28 - No.13 in F sharp" PERFORMER "Claudio Arrau" ISRC NLA507300484 FLAGS DCP INDEX 01 15:49:00 TRACK 14 AUDIO TITLE "Preludes, Op.28 - No.14 in E flat minor" PERFORMER "Claudio Arrau" ISRC NLA507300485 FLAGS DCP INDEX 01 19:05:00 TRACK 15 AUDIO TITLE "Preludes, Op.28 - No.15 in D flat" PERFORMER "Claudio Arrau" ISRC NLA507300486 FLAGS DCP INDEX 01 19:56:00 TRACK 16 AUDIO TITLE "Preludes, Op.28 - No.16 in B flat minor" PERFORMER "Claudio Arrau" ISRC NLA507300487 FLAGS DCP INDEX 01 25:30:00 TRACK 17 AUDIO TITLE "Preludes, Op.28 - No.17 in A flat" PERFORMER "Claudio Arrau" ISRC NLA507300488 FLAGS DCP INDEX 00 26:41:73 INDEX 01 26:42:00 TRACK 18 AUDIO TITLE "Preludes, Op.28 - No.18 in F minor" PERFORMER "Claudio Arrau" ISRC NLA507300489 FLAGS DCP INDEX 00 30:10:74 INDEX 01 30:11:00 TRACK 19 AUDIO TITLE "Preludes, Op.28 - No.19 in E flat" PERFORMER "Claudio Arrau" ISRC NLA507300490 FLAGS DCP INDEX 01 31:13:00 TRACK 20 AUDIO TITLE "Preludes, Op.28 - No.20 in C minor" PERFORMER "Claudio Arrau" ISRC NLA507300491 FLAGS DCP INDEX 00 32:36:68 INDEX 01 32:37:00 TRACK 21 AUDIO TITLE "Preludes, Op.28 - No.21 in B flat" PERFORMER "Claudio Arrau" ISRC NLA507300492 FLAGS DCP INDEX 00 34:24:33 INDEX 01 34:24:35 TRACK 22 AUDIO TITLE "Preludes, Op.28 - No.22 in G minor" PERFORMER "Claudio Arrau" ISRC NLA507300493 FLAGS DCP INDEX 00 36:35:73 INDEX 01 36:36:00 TRACK 23 AUDIO TITLE "Preludes, Op.28 - No.23 in F" PERFORMER "Claudio Arrau" ISRC NLA507300494 FLAGS DCP INDEX 00 37:31:73 INDEX 01 37:32:00 TRACK 24 AUDIO TITLE "Preludes, Op.28 - No.24 in D minor" PERFORMER "Claudio Arrau" ISRC NLA507300495 FLAGS DCP INDEX 00 38:35:36 INDEX 01 38:35:37 TRACK 25 AUDIO TITLE "Impromptus No.1 in A flat, Op.29 " PERFORMER "Claudio Arrau" ISRC NLA508014701 FLAGS DCP INDEX 01 41:05:00 TRACK 26 AUDIO TITLE "Impromptus No.2 in F sharp, Op.36" PERFORMER "Claudio Arrau" ISRC NLA508014702 FLAGS DCP INDEX 00 45:57:73 INDEX 01 45:58:00 TRACK 27 AUDIO TITLE "Impromptus No.3 in G flat, Op.51" PERFORMER "Claudio Arrau" ISRC NLA508014703 FLAGS DCP INDEX 01 52:11:00 TRACK 28 AUDIO TITLE "Impromptus No.4 in C sharp minor, Op.66 'Fantasie-Impromptu'" PERFORMER "Claudio Arrau" ISRC NLA508014704 FLAGS DCP INDEX 00 58:40:68 INDEX 01 58:41:00 TRACK 29 AUDIO TITLE "Krakowiak, Concert Rondo in F, Op.14" PERFORMER "Claudio Arrau" ISRC NLA507000035 FLAGS DCP INDEX 00 64:26:70 INDEX 01 64:26:74

CD2

PERFORMER "Claudio Arrau"TITLE "Chopin - Arrau Heritage"FILE "CDImage.flac" WAVE TRACK 01 AUDIO TITLE "Valse No.1 in E flat, Op.18 'Grande Valse brilliante'" PERFORMER "Claudio Arrau" ISRC NLE507300496 FLAGS DCP INDEX 01 00:00:00 TRACK 02 AUDIO TITLE "Valse No.2 in A flat, Op.34 no.1 'Valse brillante'" PERFORMER "Claudio Arrau" ISRC NLE507300496 FLAGS DCP INDEX 01 06:13:00 TRACK 03 AUDIO TITLE "Valse No.3 in A minor, Op.34 no.2" PERFORMER "Claudio Arrau" ISRC NLE507300496 FLAGS DCP INDEX 01 12:29:00 TRACK 04 AUDIO TITLE "Valse No.4 in F, Op.34 no.3" PERFORMER "Claudio Arrau" ISRC NLE507300496 FLAGS DCP INDEX 00 18:56:73 INDEX 01 18:57:00 TRACK 05 AUDIO TITLE "Valse No.5 in A flat, Op.42 'Grande Valse'" PERFORMER "Claudio Arrau" ISRC NLE507300496 FLAGS DCP INDEX 00 21:47:73 INDEX 01 21:48:00 TRACK 06 AUDIO TITLE "Valse No.6 in D flat, Op.64 no.1" PERFORMER "Claudio Arrau" ISRC NLE507300496 FLAGS DCP INDEX 01 26:27:00 TRACK 07 AUDIO TITLE "Valse No.7 in C sharp minor, Op.64 no.2" PERFORMER "Claudio Arrau" ISRC NLE507300496 FLAGS DCP INDEX 01 28:56:00 TRACK 08 AUDIO TITLE "Valse No.8 in A flat, Op.64 no.3" PERFORMER "Claudio Arrau" ISRC NLE507300496 FLAGS DCP INDEX 01 33:18:00 TRACK 09 AUDIO TITLE "Valse No.9 in A flat, Op.69 no.1 'Valse de l'adieu'" PERFORMER "Claudio Arrau" ISRC NLE507300496 FLAGS DCP INDEX 01 37:23:00 TRACK 10 AUDIO TITLE "Valse No.10 in B minor, Op.69 no.2" PERFORMER "Claudio Arrau" ISRC NLE507300496 FLAGS DCP INDEX 00 42:07:74 INDEX 01 42:08:00 TRACK 11 AUDIO TITLE "Valse No.11 in G flat, Op.70 no.1" PERFORMER "Claudio Arrau" ISRC NLE507300496 FLAGS DCP INDEX 01 47:14:00 TRACK 12 AUDIO TITLE "Valse No.12 in F minor/ A flat, Op.70 no.2" PERFORMER "Claudio Arrau" ISRC NLE507300496 FLAGS DCP INDEX 00 49:39:74 INDEX 01 49:40:00 TRACK 13 AUDIO TITLE "Valse No.13 in D flat, Op.70 no.3" PERFORMER "Claudio Arrau" ISRC NLE507300496 FLAGS DCP INDEX 01 53:18:00 TRACK 14 AUDIO TITLE "Valse No.14 in E minor, Op. posth" PERFORMER "Claudio Arrau" ISRC NLE507300496 FLAGS DCP INDEX 00 57:13:70 INDEX 01 57:14:00 TRACK 15 AUDIO TITLE "Valse No.15 in A flat, Op. posth." PERFORMER "Claudio Arrau" ISRC NLE507300496 FLAGS DCP INDEX 00 61:00:63 INDEX 01 61:01:00 TRACK 16 AUDIO TITLE "Valse No.16 in E, Op. posth." PERFORMER "Claudio Arrau" ISRC NLE507300496 FLAGS DCP INDEX 00 62:37:74 INDEX 01 62:38:00 TRACK 17 AUDIO TITLE "Valse No.19 in A minor, Op. posth" PERFORMER "Claudio Arrau" ISRC NLE507300496 FLAGS DCP INDEX 00 65:16:74 INDEX 01 65:17:00 TRACK 18 AUDIO TITLE "Valse No.18 in E flat, Op. posth." PERFORMER "Claudio Arrau" ISRC NLE507300496 FLAGS DCP INDEX 00 67:49:72 INDEX 01 67:50:00 TRACK 19 AUDIO TITLE "Valse No.17 in E flat, Op. posth." PERFORMER "Claudio Arrau" ISRC NLE507300496 FLAGS DCP INDEX 01 69:44:00 TRACK 20 AUDIO TITLE "Prelude in C sharp minor, Op.45" PERFORMER "Claudio Arrau" ISRC NLE507300496 FLAGS DCP INDEX 01 72:44:74 TRACK 21 AUDIO TITLE "Prelude in A flat, Op. posth" PERFORMER "Claudio Arrau" ISRC NLE507300496 FLAGS DCP INDEX 00 78:16:72 INDEX 01 78:16:74

CD3

PERFORMER "Claudio Arrau"TITLE "Chopin - Arrau Heritage"FILE "CDImage.flac" WAVE TRACK 01 AUDIO TITLE "Scherzo No.1 in B minor, Op.20" PERFORMER "Claudio Arrau" ISRC NLA508314901 INDEX 01 00:00:00 TRACK 02 AUDIO TITLE "Scherzo No.2 in B flat minor, Op.31" PERFORMER "Claudio Arrau" ISRC NLA508314902 INDEX 01 11:26:00 TRACK 03 AUDIO TITLE "Scherzo No.3 in C sharp minor, Op.39" PERFORMER "Claudio Arrau" ISRC NLA508314903 INDEX 01 21:52:16 TRACK 04 AUDIO TITLE "Scherzo No.4 in E, Op.54" PERFORMER "Claudio Arrau" ISRC NLA508314904 INDEX 01 29:55:22 TRACK 05 AUDIO TITLE "Ballade No.1 in G minor, Op.23" PERFORMER "Claudio Arrau" ISRC NLA507700417 INDEX 01 42:06:17 TRACK 06 AUDIO TITLE "Ballade No.2 in F, Op.38" PERFORMER "Claudio Arrau" ISRC NLA507700418 INDEX 00 51:25:54 INDEX 01 51:25:59 TRACK 07 AUDIO TITLE "Ballade No.3 in A flat, Op.47" PERFORMER "Claudio Arrau" ISRC NLA507700419 INDEX 01 59:31:58 TRACK 08 AUDIO TITLE "Ballade No.4 in F minor, Op.52" PERFORMER "Claudio Arrau" ISRC NLA507700420 INDEX 01 67:17:60

CD4

PERFORMER "Claudio Arrau"TITLE "Chopin - Arrau Heritage"FILE "CDImage.flac" WAVE TRACK 01 AUDIO TITLE "Barcarolle in F sharp, Op.60" PERFORMER "Claudio Arrau" ISRC NLA508014705 FLAGS DCP INDEX 01 00:00:00 TRACK 02 AUDIO TITLE "Fantasy on Polish Airs in A, Op.13" PERFORMER "Claudio Arrau" ISRC NLA507200013 FLAGS DCP INDEX 01 09:39:16 TRACK 03 AUDIO TITLE "Nocturne No.1 in B flat minor, Op.9 no.1" PERFORMER "Claudio Arrau" ISRC NLA507700422 FLAGS DCP INDEX 00 23:53:11 INDEX 01 23:53:15 TRACK 04 AUDIO TITLE "Nocturne No.2 in E flat, Op.9 no.2" PERFORMER "Claudio Arrau" ISRC NLA507700423 FLAGS DCP INDEX 00 29:47:09 INDEX 01 29:47:12 TRACK 05 AUDIO TITLE "Nocturne No.3 in B, Op.9 no.3" PERFORMER "Claudio Arrau" ISRC NLA507700424 FLAGS DCP INDEX 00 34:39:51 INDEX 01 34:39:52 TRACK 06 AUDIO TITLE "Nocturne No.4 in F, Op.15 no.1" PERFORMER "Claudio Arrau" ISRC NLA507700425 FLAGS DCP INDEX 00 42:00:19 INDEX 01 42:00:20 TRACK 07 AUDIO TITLE "Nocturne No.5 in F sharp, Op.15 no.2" PERFORMER "Claudio Arrau" ISRC NLA507700426 FLAGS DCP INDEX 00 47:09:50 INDEX 01 47:09:56 TRACK 08 AUDIO TITLE "Nocturne No.6 in G minor, Op.15 no.3" PERFORMER "Claudio Arrau" ISRC NLA507700427 FLAGS DCP INDEX 00 51:00:70 INDEX 01 51:00:72 TRACK 09 AUDIO TITLE "Nocturne No.7 in C sharp minor, Op.27 no.1" PERFORMER "Claudio Arrau" ISRC NLA507700428 FLAGS DCP INDEX 00 55:47:17 INDEX 01 55:47:19 TRACK 10 AUDIO TITLE "Nocturne No.8 in D flat, Op.27 no.2" PERFORMER "Claudio Arrau" ISRC NLA507700429 FLAGS DCP INDEX 00 61:18:63 INDEX 01 61:18:65 TRACK 11 AUDIO TITLE "Nocturne No.9 in B, Op.32 no.1" PERFORMER "Claudio Arrau" ISRC NLA507700430 FLAGS DCP INDEX 01 67:42:41 TRACK 12 AUDIO TITLE "Nocturne No.10 in A flat, Op.32 no.2" PERFORMER "Claudio Arrau" ISRC NLA507700431 FLAGS DCP INDEX 00 73:27:72 INDEX 01 73:27:74

CD5

PERFORMER "Claudio Arrau"TITLE "Chopin - Arrau Heritage"FILE "CDImage.flac" WAVE TRACK 01 AUDIO TITLE "Nocturne No.11 in G minor, Op.37 no.1" PERFORMER "Claudio Arrau" ISRC NLA507700432 FLAGS DCP INDEX 01 00:00:00 TRACK 02 AUDIO TITLE "Nocturne No.12 in G, Op.37 no.2" PERFORMER "Claudio Arrau" ISRC NLA507700433 FLAGS DCP INDEX 01 07:16:71 TRACK 03 AUDIO TITLE "Nocturne No.13 in C minor, Op.48 no.1" PERFORMER "Claudio Arrau" ISRC NLA507700434 FLAGS DCP INDEX 01 14:20:74 TRACK 04 AUDIO TITLE "Nocturne No.14 in F sharp minor, Op.48 no.2" PERFORMER "Claudio Arrau" ISRC NLA507700435 FLAGS DCP INDEX 01 20:44:05 TRACK 05 AUDIO TITLE "Nocturne No.15 in F minor, Op.55 no.1" PERFORMER "Claudio Arrau" ISRC NLA507700436 FLAGS DCP INDEX 00 28:36:53 INDEX 01 28:36:54 TRACK 06 AUDIO TITLE "Nocturne No.16 in E flat, Op.55 no.2" PERFORMER "Claudio Arrau" ISRC NLA507700437 FLAGS DCP INDEX 00 34:22:64 INDEX 01 34:22:68 TRACK 07 AUDIO TITLE "Nocturne No.17 in B, Op.62 no.1" PERFORMER "Claudio Arrau" ISRC NLA507700438 FLAGS DCP INDEX 00 39:53:64 INDEX 01 39:53:66 TRACK 08 AUDIO TITLE "Nocturne No.18 in E, Op.62 no.2" PERFORMER "Claudio Arrau" ISRC NLA507700439 FLAGS DCP INDEX 00 47:38:56 INDEX 01 47:38:58 TRACK 09 AUDIO TITLE "Nocturne No.19 in E minor, Op.72 no.1" PERFORMER "Claudio Arrau" ISRC NLA507700440 FLAGS DCP INDEX 00 54:49:71 INDEX 01 54:49:73 TRACK 10 AUDIO TITLE "Nocturne No.20 in C sharp minor, Op.posth." PERFORMER "Claudio Arrau" ISRC NLA507700441 FLAGS DCP INDEX 00 59:04:50 INDEX 01 59:04:52 TRACK 11 AUDIO TITLE "Nocturne No.21 in C minor, Op.posth." PERFORMER "Claudio Arrau" ISRC NLA507700442 FLAGS DCP INDEX 00 63:35:17 INDEX 01 63:35:20 TRACK 12 AUDIO TITLE "Polonaise No.7 in A flat, Op.61 'Polonaise-Fantaisie'" PERFORMER "Claudio Arrau" ISRC NLA508314905 FLAGS DCP INDEX 01 67:15:66

CD6

PERFORMER "Frйdйric Chopin"TITLE "Chopin - Claudio Arrau 6"FILE "CDImage.flac" WAVE TRACK 01 AUDIO TITLE "Concerto pour piano n° 1 en mi mineur, op. 11 - Allegro maestoso" PERFORMER "Frйdйric Chopin" ISRC NLA507000029 INDEX 01 00:00:00 TRACK 02 AUDIO TITLE "Concerto pour piano n° 1 en mi mineur, op. 11 - Romance : Larghetto" PERFORMER "Frйdйric Chopin" ISRC NLA507000030 INDEX 01 20:53:00 TRACK 03 AUDIO TITLE "Concerto pour piano n° 1 en mi mineur, op. 11 - Rondo : Vivace" PERFORMER "Frйdйric Chopin" ISRC NLA507000031 INDEX 01 32:13:00 TRACK 04 AUDIO TITLE "Andante spianato et Grande Polonaise brillante en mi bйmol majeur, op. 22" PERFORMER "Frйdйric Chopin" ISRC NLA507201026 INDEX 01 42:40:00 TRACK 05 AUDIO TITLE "Variations en si bйmol majeur sur 'Lа ci darem la mano' pour piano et orchest..." PERFORMER "Frйdйric Chopin" ISRC NLA507201036 INDEX 00 58:03:36 INDEX 01 58:03:37

CD7

PERFORMER "Claudio Arrau"TITLE "Chopin - Arrau Heritage"FILE "CDImage.flac" WAVE TRACK 01 AUDIO TITLE "Piano Concerto No.2 in F minor, Op.21 - I. Maestoso" PERFORMER "Claudio Arrau" ISRC NLA507000032 FLAGS DCP INDEX 01 00:00:00 TRACK 02 AUDIO TITLE "Piano Concerto No.2 in F minor, Op.21 - II. Larghetto" PERFORMER "Claudio Arrau" ISRC NLA507000033 FLAGS DCP INDEX 01 14:48:00 TRACK 03 AUDIO TITLE "Piano Concerto No.2 in F minor, Op.21 - III. Allegro vivace" PERFORMER "Claudio Arrau" ISRC NLA507000034 FLAGS DCP INDEX 00 24:57:73 INDEX 01 24:58:00 TRACK 04 AUDIO TITLE "Fantaisie in F minor, Op.49" PERFORMER "Claudio Arrau" ISRC NLA507700421 FLAGS DCP INDEX 01 34:20:74 TRACK 05 AUDIO TITLE "Impromptu No.1 in A flat, Op.29" PERFORMER "Claudio Arrau" ISRC DEF055309105 FLAGS DCP INDEX 00 46:47:68 INDEX 01 46:47:73 TRACK 06 AUDIO TITLE "Impromptu No.2 in F sharp, Op.36" PERFORMER "Claudio Arrau" ISRC DEF055309106 FLAGS DCP INDEX 00 51:23:66 INDEX 01 51:23:73 TRACK 07 AUDIO TITLE "Impromptu No.3 in G flat, Op.51" PERFORMER "Claudio Arrau" ISRC DEF055309107 FLAGS DCP INDEX 00 57:49:69 INDEX 01 57:49:73 TRACK 08 AUDIO TITLE "Impromptu No.4 in C sharp minor, Op.66 'Fantaisie-Impromptu'" PERFORMER "Claudio Arrau" ISRC DEF055309108 FLAGS DCP INDEX 00 64:06:60 INDEX 01 64:06:73 TRACK 09 AUDIO TITLE "Barcarolle in F sharp, Op.60" PERFORMER "Claudio Arrau" ISRC DEF055309109 FLAGS DCP INDEX 00 69:52:72 INDEX 01 69:52:73

CD8

PERFORMER "Claudio Arrau"TITLE "Chopin - Arrau Heritage"FILE "CDImage.flac" WAVE TRACK 01 AUDIO TITLE "Scherzo No.1 in B minor, Op.20" PERFORMER "Claudio Arrau" ISRC DEF055309111 FLAGS DCP INDEX 01 00:00:00 TRACK 02 AUDIO TITLE "Scherzo No.2 in B flat minor, Op.31" PERFORMER "Claudio Arrau" ISRC DEF055309112 FLAGS DCP INDEX 01 10:41:71 TRACK 03 AUDIO TITLE "Scherzo No.3 in C sharp minor, Op.39" PERFORMER "Claudio Arrau" ISRC DEF055309113 FLAGS DCP INDEX 00 21:09:30 INDEX 01 21:09:31 TRACK 04 AUDIO TITLE "Scherzo No.4 in E, Op.54" PERFORMER "Claudio Arrau" ISRC DEF055309114 FLAGS DCP INDEX 01 29:13:72 TRACK 05 AUDIO TITLE "Ballade No.1 in G minor, Op.23" PERFORMER "Claudio Arrau" ISRC DEF055309101 FLAGS DCP INDEX 00 41:50:37 INDEX 01 41:50:39 TRACK 06 AUDIO TITLE "Ballade No.2 in F, Op.38" PERFORMER "Claudio Arrau" ISRC DEF055309102 FLAGS DCP INDEX 01 51:07:27 TRACK 07 AUDIO TITLE "Ballade No.3 in A flat, Op.47" PERFORMER "Claudio Arrau" ISRC DEF055309103 FLAGS DCP INDEX 00 59:53:05 INDEX 01 59:53:06 TRACK 08 AUDIO TITLE "Ballade No.4 in F minor, Op.52" PERFORMER "Claudio Arrau" ISRC DEF055309104 FLAGS DCP INDEX 01 67:52:46
[teatrix.ru].t10019.torrent 
Торрент: Зарегистрирован [ 2015-10-25 20:37 ] · FFD1711D65029A80D5EAC0EFC9B4D4896DC6BEC3

Скачать .torrent

Скачать

14 KB

Статус: проверено
Скачан: 1 раз
Размер: 2.25 GB
terms.php



Быстрый ответ

Имя:

      
Для отправки сообщений необходимо включить JavaScript
Показать сообщения:    

Текущее время: 04-Дек 13:16

Часовой пояс: UTC + 3


Вы можете начинать темы
Вы можете отвечать на сообщения
Вы не можете редактировать свои сообщения
Вы не можете удалять свои сообщения
Вы не можете голосовать в опросах
Вы не можете прикреплять файлы к сообщениям
Вы можете скачивать файлы