(Classical) Sir John Barbirolli Edition: Mozart, Purcell, Beethoven, Chopin, Bruch, Brahms, Vieuxtemps, Wieniawski, Schumann, Wagner, Haydn, Чайковский, Глазунов, Saint-Saens, Grieg, Sibelius, Respighi [10CD] - 2007, FLAC (tracks+.cue) lossless


Статистика раздачи [Обновить пиров]
Размер:  2.11 GB   |    Зарегистрирован:  1 год 1 месяц   |    Скачан:  0 раз

Полного источника не было: Никогда

 
   
 
 
 

[Цитировать]

Sir John Barbirolli
Жанр: Classical
Год издания диска: 2007
Издатель (лейбл): Membran
Номер по каталогу: 685801
Дата записи: 1933-1949
Аудиокодек: FLAC
Тип рипа: tracks+.cue
Битрейт аудио: lossless
Продолжительность: 10:38:50
Источник: demonoid (macropus)
Наличие сканов в содержимом раздачи: да (box front + back)
Треклист:

CD1 - Mozart - Piano Concertos Nos. 22 & 27

Wolfgang Amadeus Mozart (1756–1791)
Piano Concerto No. 22 in E flat major, KV 482
1. I. Allegro
2. II. Andante
3. III. Rondo: Allegro
Edwin Fischer (piano), John Barbirolli Chamber Orchestra, rec. 06.06.1935
Piano Concerto No. 27 in B flat major, KV 595
4. I. Allegro
5. II. Larghetto
6. III. Allegro
Robert Casadesus (piano) New York Philharmonic Orchestra, rec. 03.11.1941

CD2 - Mozart - Symphony No. 33; Purcell - Suite for Strings, Flutes & Horns from Operas and Fantasies; Haydn - Symphony No. 83

Wolfgang Amadeus Mozart (1756–1791)
Symphony No. 33 in B major, KV 319
1. I. Allegro assai
2. II. Andante moderato
3. III. Menuetto. Trio
4. IV. Allegro assai
New York Philharmonic Orchestra, rec. 29.11.1936, live at Carnegie Hall, NYC
Henry Purcell (1659–1695)
Suite for Strings, Flutes & Horns from Operas and Fantasies (arr. by J. Barbirolli)
5. I. Andante maestoso. Allegro
(Overture from “The Gordian Knot Untied”)
6. II. Tempo di menuetto
(Minuett from “The Virtuous Wife”)
7. III. Andantino
(Fairest Isle from “King Arthur”)
8. IV. Andantino giocoso
(Air from “Abdelazar”)
9. V. Largo
(Lamento from “Dido and Aeneas”)
10. VI. Allegro
(Allegro from “King Arthur”, second music)
New York Philharmonic Orchestra, rec. 07.02.1938
Joseph Haydn (1732–1809)
Symphony No. 83 in G minor “The Hen”
11. I. Allegro spirituoso
12. II. Andante
13. III. Minuetto. Trio: Allegretto
14. IV. Vivace
Hallé Orchestra, rec. 15.&17.12.1949

CD3 - Beethoven - Symphony No. 4, Violin Concerto

Ludwig van Beethoven (1770–1827)
Symphony No. 4 in B flat major, op. 60
1. I. Adagio. Allegro vivace
2. II. Adagio
3. III. Allegro vivace
4. IV. Allegro ma non troppo
New York Philharmonic Orchestra, rec. 13.12.1936, live at Carnegie Hall, NYC
Violin Concerto in D major, op. 61
5. I. Allegro ma non troppo
6. II. Larghetto
7. III. Rondo: Allegro
Fritz Kreisler (violin), London Philharmonic Orchestra, rec. 1936

CD4 - Berlioz - Symphonie fantastique; Wagner - Die Meistersinger von Nürnberg

Hector Berlioz (1803–1869)
Symphonie fantastique, op. 14 « Épisode de la via d’un artiste »
1. I. Rêveries. Passions (Dreams. Passions) Largo. Allegro agitato e appassionato assai
2. II. Un bal (A ball) Valse : Allegretto non troppo
3. III. Scène aux champs (In the Country) Adagio
4. IV. Marche au supplice (March to the Scaffold) Allegretto non troppo
5. V. Songe d'une nuit du Sabbat (Dream of a witches sabbath) Larghetto. Allegro
Hallé Orchestra, rec. 1947
Richard Wagner (1813–1883)
Die Meistersinger von Nürnberg: Orchestral Suite from Act III (arr. by J. Barbirolli)
6. I. Prelude to Act III
7. II. Dance of the Apprentices
8. III. Entry of the Masters
Hallé Orchestra, rec. 18.09.1944

CD5 - Chopin - Piano Concerto No. 1; Bruch - Violin Concerto

Frederic Chopin (1810–1849)
Piano Concerto No. 1 in E minor, op. 11
1. I. Allegro maestoso
2. II. Romance: Larghetto
3. III. Rondo: Vivace
Arthur Rubinstein (piano), London Symphony Orchestra, rec. 05.04.1937
Max Bruch (1838–1920)
Violin Concerto in G minor
4. I. Prelude: Allegro moderato
5. II. Adagio
6. III. Finale
Nathan Milstein (violin), New York Philharmonic Orchestra, rec. 12.04.1942

CD6 - Schumann - Symphony No. 4; Brahms - Violin Concerto

Robert Schumann (1810–1856)
Symphony No. 4 in D minor, op. 120
1. I. Ziemlich langsam. Lebhaft
2. II. Romanze: Ziemlich langsam
3. III. Scherzo: Lebhaft
4. IV. Langsam. Lebhaft
New York Philharmonic Orchestra, rec. 07.11.1937
Johannes Brahms (1833–1897)
Violin Concerto in D major, op. 77
5. I. Allegro
6. II. Adagio
7. III. Allegro giocoso
Fritz Kreisler (violin), London Philharmonic Orchestra, rec. 1936

CD7 - Mozart - Violin Concerto No. 5; Vieuxtemps - Violin Concerto No. 4; Wieniawski - Violin Concerto No. 2

Wolfgang Amadeus Mozart (1756–1791)
Violin Concerto No. 5 in A major, KV 219
1. I. Allegro aperto
2. II. Adagio
3. III. Rondo: Tempo di Menuetto. Allegro
(Cadenzas: Joseph Joachim)
rec. 23.02.1934
Henri Vieuxtemps (1820–1881)
Violin Concerto No. 4 in D minor, op. 31
4. I. Andante. Moderato. Cadenza
5. II. Adagio religioso
6. III. Scherzo: Vivace
7. IV. Finale: Allegro
rec. 14.03.1935
Henryk Wieniawski (1835–1880)
Violin Concerto No. 2 in D minor, op. 22
8. I. Allegro moderato
9. II. Romance: Andante non troppo
10. III. Allegro con fuoco. Cadenza. Allegro moderato (à la Zingara). Molto moderato
rec. 18.03.1935
Jascha Heifetz (violin), London Philharmonic Orchestra

CD8 - Tchaikovsky - Violin Concerto; Glazunov - Violin Concerto; Saint-Saëns - Havanaise

Pyotr Tchaikovsky (1840–1893)
Violin Concerto in D major, op. 35
1. I. Allegro moderato
2. II. Canzonetta: Andante
3. III. Finale: Allegro vivacissimo
rec. 25.03.1937
Alexander Glazunov (1865–1936)
Violin Concerto in A minor, op. 82
4. I. Moderato
5. II. Andante
6. III. Cadenza
7. IV. Allegro
rec. 28.03.1934
Camille Saint-Saëns (1835–1921)
8. Havanaise, op. 83
rec. 09.04.1937
Jascha Heifetz (violin), London Symphony Orchestra

CD9 - Grieg - Piano Concerto; Sibelius - Symphony No. 2

Edvard Grieg (1843–1907)
Piano Concerto in A minor, op. 16
1. I. Allegro molto moderato
2. II. Adagio
3. III. Allegro moderato molto e marcato. Andante maestoso
Wilhelm Backhaus (piano), New Symphony Orchestra, rec. October 1933
Jean Sibelius (1865–1957)
Symphony No. 2 in D major, op. 43
4. I. Allegretto
5. II. Tempo Andante, ma rubato
6. III. Vivacissimo
7. IV. Allegro moderato
New York Philharmonic Orchestra, rec. 24.06.1940

CD10 - Respighi - Fontane di Roma; Vaughan Williams - Symphony No. 5; Stravinsky - Concerto in D

Ottorino Respighi (1879–1936)
Fontane di Roma (Fountains of Rome)
1. La fontana di Valle Giulia all’alba
2. La fontana di Tritone al mattino
3. La fontana di Trevi al meriggio
4. La fontana di Villa Medici al tramonto
New York Philharmonic Orchestra, rec. 21.02.1939

Ralph Vaughan Williams
(1872–1958)
Symphony No. 5 in D major
5. I. Preludio
6. II. Scherzo
7. III. Romanza
8. IV. Passacaglia
Hallé Orchestra, rec. 17.03.1944
Igor Stravinsky (1882–1971)
Concerto in D
9. I. Vivace
10. II. Arioso: Andantino
11. III. Rondo: Allegro
Hallé Orchestra, rec. 10.03.1948
Исполнители:
Sir John Barbirolli

Лог создания рипаCD1

X Lossless Decoder version 20110528 (134.0)
XLD extraction logfile from 2011-06-06 16:08:58 +1000
Fischer E, Casadesus, Barbirolli / Mozart Piano Concertos CD1
Used drive : OPTIARC DVD RW AD-5680H (revision 3AHB)
Ripper mode : XLD Secure RipperDisable audio cache : OK for the drive with a cache less than 1375KiBMake use of C2 pointers : NORead offset correction : 48Max retry count : 100Gap status : Analyzed, Appended (except HTOA)
TOC of the extracted CD Track | Start | Length | Start sector | End sector --------------------------------------------------------- 1 | 00:00:00 | 12:06:74 | 0 | 54523 2 | 12:06:74 | 08:47:28 | 54524 | 94076 3 | 20:54:27 | 10:27:10 | 94077 | 141111 4 | 31:21:37 | 12:33:34 | 141112 | 197620 5 | 43:54:71 | 08:27:10 | 197621 | 235655 6 | 52:22:06 | 07:48:22 | 235656 | 270777
AccurateRip Summary Disc not found in AccurateRip DB.
All Tracks Album gain : 0.64 dB Peak : 0.881744 Statistics Read error : 0 Jitter error (maybe fixed) : 0 Retry sector count : 0 Damaged sector count : 0
Track 01 Filename : /Volumes/RIPs/Barbirolli - Edition 10 CDs (2006)/CD1/01 - Piano Concerto 22, KV482-I-Allegro.flac Pre-gap length : 00:02:00
Track gain : 0.67 dB Peak : 0.881744 CRC32 hash (test run) : 2D75DC5C CRC32 hash : 2D75DC5C CRC32 hash (skip zero) : 49A16908 AccurateRip signature : D636699C ->Track not present in AccurateRip database. Statistics Read error : 0 Jitter error (maybe fixed) : 0 Retry sector count : 0 Damaged sector count : 0
Track 02 Filename : /Volumes/RIPs/Barbirolli - Edition 10 CDs (2006)/CD1/02 - II-Andante.flac Pre-gap length : 00:02:00
Track gain : 6.83 dB Peak : 0.748505 CRC32 hash (test run) : F871A77B CRC32 hash : F871A77B CRC32 hash (skip zero) : 07F1EA29 AccurateRip signature : AD498600 ->Track not present in AccurateRip database. Statistics Read error : 0 Jitter error (maybe fixed) : 0 Retry sector count : 0 Damaged sector count : 0
Track 03 Filename : /Volumes/RIPs/Barbirolli - Edition 10 CDs (2006)/CD1/03 - III-Rondo Allegro.flac Pre-gap length : 00:02:00
Track gain : 1.05 dB Peak : 0.856903 CRC32 hash (test run) : E33596E9 CRC32 hash : E33596E9 CRC32 hash (skip zero) : 382CFC96 AccurateRip signature : CA33642D ->Track not present in AccurateRip database. Statistics Read error : 0 Jitter error (maybe fixed) : 0 Retry sector count : 0 Damaged sector count : 0
Track 04 Filename : /Volumes/RIPs/Barbirolli - Edition 10 CDs (2006)/CD1/04 - Piano Concerto 27, KV595-I-Allegro.flac Pre-gap length : 00:04:00
Track gain : -0.94 dB Peak : 0.798767 CRC32 hash (test run) : 5D874A56 CRC32 hash : 5D874A56 CRC32 hash (skip zero) : 2B854CFE AccurateRip signature : 56808AB2 ->Track not present in AccurateRip database. Statistics Read error : 0 Jitter error (maybe fixed) : 0 Retry sector count : 0 Damaged sector count : 0
Track 05 Filename : /Volumes/RIPs/Barbirolli - Edition 10 CDs (2006)/CD1/05 - II-Larghetto.flac Pre-gap length : 00:02:00
Track gain : 1.82 dB Peak : 0.809753 CRC32 hash (test run) : EA101297 CRC32 hash : EA101297 CRC32 hash (skip zero) : 4D43646A AccurateRip signature : 77C2DB47 ->Track not present in AccurateRip database. Statistics Read error : 0 Jitter error (maybe fixed) : 0 Retry sector count : 0 Damaged sector count : 0
Track 06 Filename : /Volumes/RIPs/Barbirolli - Edition 10 CDs (2006)/CD1/06 - III-Allegro.flac Pre-gap length : 00:02:00
Track gain : 0.69 dB Peak : 0.698822 CRC32 hash (test run) : 46F44267 CRC32 hash : 46F44267 CRC32 hash (skip zero) : 3E574D8C AccurateRip signature : 33E96094 ->Track not present in AccurateRip database. Statistics Read error : 0 Jitter error (maybe fixed) : 0 Retry sector count : 0 Damaged sector count : 0
No errors occurred
End of status report

CD2

X Lossless Decoder version 20110528 (134.0)
XLD extraction logfile from 2011-06-06 15:50:38 +1000
Sir John Barbirolli / Barbirolli - Mozart, Purcell, Haydn CD2
Used drive : OPTIARC DVD RW AD-5680H (revision 3AHB)
Ripper mode : XLD Secure RipperDisable audio cache : OK for the drive with a cache less than 1375KiBMake use of C2 pointers : NORead offset correction : 48Max retry count : 100Gap status : Analyzed, Appended (except HTOA)
TOC of the extracted CD Track | Start | Length | Start sector | End sector --------------------------------------------------------- 1 | 00:00:00 | 06:31:61 | 0 | 29385 2 | 06:31:61 | 05:17:57 | 29386 | 53217 3 | 11:49:43 | 02:35:09 | 53218 | 64851 4 | 14:24:52 | 04:16:05 | 64852 | 84056 5 | 18:40:57 | 04:17:01 | 84057 | 103332 6 | 22:57:58 | 02:03:18 | 103333 | 112575 7 | 25:01:01 | 01:57:68 | 112576 | 121418 8 | 26:58:69 | 01:44:69 | 121419 | 129287 9 | 28:43:63 | 03:34:31 | 129288 | 145368 10 | 32:18:19 | 01:19:69 | 145369 | 151362 11 | 33:38:13 | 07:40:72 | 151363 | 185934 12 | 41:19:10 | 06:52:00 | 185935 | 216834 13 | 48:11:10 | 03:24:07 | 216835 | 232141 14 | 51:35:17 | 03:32:20 | 232142 | 248061
AccurateRip Summary Disc not found in AccurateRip DB.
All Tracks Album gain : 0.07 dB Peak : 0.923859 Statistics Read error : 0 Jitter error (maybe fixed) : 0 Retry sector count : 0 Damaged sector count : 0
Track 01 Filename : /Volumes/RIPs/Barbirolli - Edition 10 CDs (2006)/CD2/01 - Mozartпјљ Symphony No. 33 In B Minor KV 319. I Allegro Assai.flac Pre-gap length : 00:02:00
Track gain : -2.43 dB Peak : 0.904633 CRC32 hash (test run) : BCB67887 CRC32 hash : BCB67887 CRC32 hash (skip zero) : B8946EF1 AccurateRip signature : A26AA73B ->Track not present in AccurateRip database. Statistics Read error : 0 Jitter error (maybe fixed) : 0 Retry sector count : 0 Damaged sector count : 0
Track 02 Filename : /Volumes/RIPs/Barbirolli - Edition 10 CDs (2006)/CD2/02 - Mozartпјљ Symphony No. 33 In B Minor KV 319. II. Andante Moderato.flac Pre-gap length : 00:02:00
Track gain : 3.76 dB Peak : 0.485229 CRC32 hash (test run) : 0F422CF8 CRC32 hash : 0F422CF8 CRC32 hash (skip zero) : 864651B2 AccurateRip signature : EF7A38A9 ->Track not present in AccurateRip database. Statistics Read error : 0 Jitter error (maybe fixed) : 0 Retry sector count : 0 Damaged sector count : 0
Track 03 Filename : /Volumes/RIPs/Barbirolli - Edition 10 CDs (2006)/CD2/03 - Mozartпјљ Symphony No. 33 In B Minor KV 319. III Menueto & Trio.flac Pre-gap length : 00:02:00
Track gain : 1.18 dB Peak : 0.601929 CRC32 hash (test run) : C76B8D00 CRC32 hash : C76B8D00 CRC32 hash (skip zero) : CD44C782 AccurateRip signature : 9AB087E2 ->Track not present in AccurateRip database. Statistics Read error : 0 Jitter error (maybe fixed) : 0 Retry sector count : 0 Damaged sector count : 0
Track 04 Filename : /Volumes/RIPs/Barbirolli - Edition 10 CDs (2006)/CD2/04 - Mozartпјљ Symphony No. 33 In B Minor KV 319. I V Allegro Assai.flac Pre-gap length : 00:02:00
Track gain : -0.51 dB Peak : 0.854584 CRC32 hash (test run) : 16D56698 CRC32 hash : 16D56698 CRC32 hash (skip zero) : FA8CA163 AccurateRip signature : AA3C0D03 ->Track not present in AccurateRip database. Statistics Read error : 0 Jitter error (maybe fixed) : 0 Retry sector count : 0 Damaged sector count : 0
Track 05 Filename : /Volumes/RIPs/Barbirolli - Edition 10 CDs (2006)/CD2/05 - Purcellпјљ Suite For Strings, Flutes & Horns (arr. Barbirolli) I.flac Pre-gap length : 00:04:00
Track gain : -0.12 dB Peak : 0.862732 CRC32 hash (test run) : 9DE6714B CRC32 hash : 9DE6714B CRC32 hash (skip zero) : 9768C00A AccurateRip signature : 5F515957 ->Track not present in AccurateRip database. Statistics Read error : 0 Jitter error (maybe fixed) : 0 Retry sector count : 0 Damaged sector count : 0
Track 06 Filename : /Volumes/RIPs/Barbirolli - Edition 10 CDs (2006)/CD2/06 - Purcellпјљ Suite For Strings, Flutes & Horns (arr. Barbirolli) II.flac
Track gain : 5.64 dB Peak : 0.424713 CRC32 hash (test run) : 46089563 CRC32 hash : 46089563 CRC32 hash (skip zero) : E034C72E AccurateRip signature : 256A2A27 ->Track not present in AccurateRip database. Statistics Read error : 0 Jitter error (maybe fixed) : 0 Retry sector count : 0 Damaged sector count : 0
Track 07 Filename : /Volumes/RIPs/Barbirolli - Edition 10 CDs (2006)/CD2/07 - Purcellпјљ Suite For Strings, Flutes & Horns (arr. Barbirolli) III.flac
Track gain : 2.55 dB Peak : 0.591156 CRC32 hash (test run) : 40C807EA CRC32 hash : 40C807EA CRC32 hash (skip zero) : 61F3D578 AccurateRip signature : 4A0D3D60 ->Track not present in AccurateRip database. Statistics Read error : 0 Jitter error (maybe fixed) : 0 Retry sector count : 0 Damaged sector count : 0
Track 08 Filename : /Volumes/RIPs/Barbirolli - Edition 10 CDs (2006)/CD2/08 - Purcellпјљ Suite For Strings, Flutes & Horns (arr. Barbirolli) IV.flac
Track gain : 2.56 dB Peak : 0.580841 CRC32 hash (test run) : 8ADA156C CRC32 hash : 8ADA156C CRC32 hash (skip zero) : 2E5B75A7 AccurateRip signature : 16B9FFE6 ->Track not present in AccurateRip database. Statistics Read error : 0 Jitter error (maybe fixed) : 0 Retry sector count : 0 Damaged sector count : 0
Track 09 Filename : /Volumes/RIPs/Barbirolli - Edition 10 CDs (2006)/CD2/09 - Purcellпјљ Suite For Strings, Flutes & Horns (arr. Barbirolli) V.flac
Track gain : 7.34 dB Peak : 0.275726 CRC32 hash (test run) : 070F31FF CRC32 hash : 070F31FF CRC32 hash (skip zero) : B03A89AF AccurateRip signature : 11D8DC9F ->Track not present in AccurateRip database. Statistics Read error : 0 Jitter error (maybe fixed) : 0 Retry sector count : 0 Damaged sector count : 0
Track 10 Filename : /Volumes/RIPs/Barbirolli - Edition 10 CDs (2006)/CD2/10 - Purcellпјљ Suite For Strings, Flutes & Horns (arr. Barbirolli) VI.flac Pre-gap length : 00:02:00
Track gain : -1.47 dB Peak : 0.760254 CRC32 hash (test run) : ECDC4A3D CRC32 hash : ECDC4A3D CRC32 hash (skip zero) : 408071A0 AccurateRip signature : 98CFE738 ->Track not present in AccurateRip database. Statistics Read error : 0 Jitter error (maybe fixed) : 0 Retry sector count : 0 Damaged sector count : 0
Track 11 Filename : /Volumes/RIPs/Barbirolli - Edition 10 CDs (2006)/CD2/11 - Haydnпјљ Symphony No. 83 En GMinor "The Hen" I Allegro Spirituoso.flac Pre-gap length : 00:04:00
Track gain : 0.22 dB Peak : 0.789459 CRC32 hash (test run) : 17E6BD1C CRC32 hash : 17E6BD1C CRC32 hash (skip zero) : 613386B1 AccurateRip signature : F82CEF6E ->Track not present in AccurateRip database. Statistics Read error : 0 Jitter error (maybe fixed) : 0 Retry sector count : 0 Damaged sector count : 0
Track 12 Filename : /Volumes/RIPs/Barbirolli - Edition 10 CDs (2006)/CD2/12 - Haydnпјљ Symphony No. 83 En GMinor "The Hen" II Andante.flac Pre-gap length : 00:02:00
Track gain : 2.06 dB Peak : 0.632660 CRC32 hash (test run) : 54C3C83A CRC32 hash : 54C3C83A CRC32 hash (skip zero) : 6C631C1B AccurateRip signature : FB9D063E ->Track not present in AccurateRip database. Statistics Read error : 0 Jitter error (maybe fixed) : 0 Retry sector count : 0 Damaged sector count : 0
Track 13 Filename : /Volumes/RIPs/Barbirolli - Edition 10 CDs (2006)/CD2/13 - Haydnпјљ Symphony No. 83 En GMinor "The Hen" III Menuettoпјљ Allegro & Trio.flac Pre-gap length : 00:02:00
Track gain : -0.48 dB Peak : 0.738983 CRC32 hash (test run) : 4E57A90F CRC32 hash : 4E57A90F CRC32 hash (skip zero) : 5671A40C AccurateRip signature : C98ECA3C ->Track not present in AccurateRip database. Statistics Read error : 0 Jitter error (maybe fixed) : 0 Retry sector count : 0 Damaged sector count : 0
Track 14 Filename : /Volumes/RIPs/Barbirolli - Edition 10 CDs (2006)/CD2/14 - Haydnпјљ Symphony No. 83 En GMinor "The Hen" IV Vivace.flac Pre-gap length : 00:02:00
Track gain : 0.48 dB Peak : 0.923859 CRC32 hash (test run) : DD297C72 CRC32 hash : DD297C72 CRC32 hash (skip zero) : 8BC57283 AccurateRip signature : CA466633 ->Track not present in AccurateRip database. Statistics Read error : 0 Jitter error (maybe fixed) : 0 Retry sector count : 0 Damaged sector count : 0
No errors occurred
End of status report

CD3

X Lossless Decoder version 20110528 (134.0)
XLD extraction logfile from 2011-06-06 16:27:52 +1000
Kreisler, Barbirolli / Beethoven - Sym 4, Violin Concerto CD3
Used drive : OPTIARC DVD RW AD-5680H (revision 3AHB)
Ripper mode : XLD Secure RipperDisable audio cache : OK for the drive with a cache less than 1375KiBMake use of C2 pointers : NORead offset correction : 48Max retry count : 100Gap status : Analyzed, Appended (except HTOA)
TOC of the extracted CD Track | Start | Length | Start sector | End sector --------------------------------------------------------- 1 | 00:00:00 | 10:54:47 | 0 | 49096 2 | 10:54:47 | 10:13:10 | 49097 | 95081 3 | 21:07:57 | 05:15:00 | 95082 | 118706 4 | 26:22:57 | 06:53:28 | 118707 | 149709 5 | 33:16:10 | 22:32:20 | 149710 | 251129 6 | 55:48:30 | 10:26:56 | 251130 | 298135 7 | 66:15:11 | 09:46:67 | 298136 | 342152
AccurateRip Summary Disc not found in AccurateRip DB.
All Tracks Album gain : 0.45 dB Peak : 1.000000 Statistics Read error : 0 Jitter error (maybe fixed) : 0 Retry sector count : 0 Damaged sector count : 0
Track 01 Filename : /Volumes/RIPs/Barbirolli - Edition 10 CDs (2006)/CD3/01 - Beethoven - Sym 4 -I-Adagio Allegro vivace.flac Pre-gap length : 00:02:00
Track gain : -1.33 dB Peak : 0.923828 CRC32 hash (test run) : F4C1047D CRC32 hash : F4C1047D CRC32 hash (skip zero) : B8BC256B AccurateRip signature : EEECEB20 ->Track not present in AccurateRip database. Statistics Read error : 0 Jitter error (maybe fixed) : 0 Retry sector count : 0 Damaged sector count : 0
Track 02 Filename : /Volumes/RIPs/Barbirolli - Edition 10 CDs (2006)/CD3/02 - II-Adagio.flac Pre-gap length : 00:02:00
Track gain : 1.89 dB Peak : 0.686951 CRC32 hash (test run) : 833355CB CRC32 hash : 833355CB CRC32 hash (skip zero) : 07A24DD1 AccurateRip signature : BC9A69F7 ->Track not present in AccurateRip database. Statistics Read error : 0 Jitter error (maybe fixed) : 0 Retry sector count : 0 Damaged sector count : 0
Track 03 Filename : /Volumes/RIPs/Barbirolli - Edition 10 CDs (2006)/CD3/03 - III-Allegro vivace.flac Pre-gap length : 00:02:00
Track gain : -0.82 dB Peak : 0.850555 CRC32 hash (test run) : CFA99EB7 CRC32 hash : CFA99EB7 CRC32 hash (skip zero) : 882A5BA7 AccurateRip signature : A71D62C1 ->Track not present in AccurateRip database. Statistics Read error : 0 Jitter error (maybe fixed) : 0 Retry sector count : 0 Damaged sector count : 0
Track 04 Filename : /Volumes/RIPs/Barbirolli - Edition 10 CDs (2006)/CD3/04 - IV-Allegro ma non troppo.flac
Track gain : -1.43 dB Peak : 0.948120 CRC32 hash (test run) : 3EC09E4C CRC32 hash : 3EC09E4C CRC32 hash (skip zero) : E1E4551E AccurateRip signature : C7FCCE85 ->Track not present in AccurateRip database. Statistics Read error : 0 Jitter error (maybe fixed) : 0 Retry sector count : 0 Damaged sector count : 0
Track 05 Filename : /Volumes/RIPs/Barbirolli - Edition 10 CDs (2006)/CD3/05 - Violin Concerto op61-I-Allegro ma non troppo.flac Pre-gap length : 00:02:00
Track gain : 2.68 dB Peak : 0.874054 CRC32 hash (test run) : 6BB693B7 CRC32 hash : 6BB693B7 CRC32 hash (skip zero) : 464E10DB AccurateRip signature : C48E99C0 ->Track not present in AccurateRip database. Statistics Read error : 0 Jitter error (maybe fixed) : 0 Retry sector count : 0 Damaged sector count : 0
Track 06 Filename : /Volumes/RIPs/Barbirolli - Edition 10 CDs (2006)/CD3/06 - II-Larghetto.flac Pre-gap length : 00:02:00
Track gain : 8.15 dB Peak : 0.567749 CRC32 hash (test run) : 2AD89182 CRC32 hash : 2AD89182 CRC32 hash (skip zero) : 01BF5C04 AccurateRip signature : 8049EB7B ->Track not present in AccurateRip database. Statistics Read error : 0 Jitter error (maybe fixed) : 0 Retry sector count : 0 Damaged sector count : 0
Track 07 Filename : /Volumes/RIPs/Barbirolli - Edition 10 CDs (2006)/CD3/07 - III-Rondo Allegro.flac
Track gain : -0.57 dB Peak : 1.000000 CRC32 hash (test run) : BA5C53A2 CRC32 hash : BA5C53A2 CRC32 hash (skip zero) : 3350BF17 AccurateRip signature : 5AC10483 ->Track not present in AccurateRip database. Statistics Read error : 0 Jitter error (maybe fixed) : 0 Retry sector count : 0 Damaged sector count : 0
No errors occurred
End of status report

CD4

X Lossless Decoder version 20110528 (134.0)
XLD extraction logfile from 2011-06-06 16:49:17 +1000
Barbirolli, Halle Orchestra / Barbirolli - Wagner Berlioz CD4
Used drive : OPTIARC DVD RW AD-5680H (revision 3AHB)
Ripper mode : XLD Secure RipperDisable audio cache : OK for the drive with a cache less than 1375KiBMake use of C2 pointers : NORead offset correction : 48Max retry count : 100Gap status : Analyzed, Appended (except HTOA)
TOC of the extracted CD Track | Start | Length | Start sector | End sector --------------------------------------------------------- 1 | 00:00:00 | 13:50:36 | 0 | 62285 2 | 13:50:36 | 06:26:08 | 62286 | 91243 3 | 20:16:44 | 15:50:42 | 91244 | 162535 4 | 36:07:11 | 04:32:58 | 162536 | 182993 5 | 40:39:69 | 09:33:38 | 182994 | 226006 6 | 50:13:32 | 06:41:36 | 226007 | 256117 7 | 56:54:68 | 02:59:63 | 256118 | 269605 8 | 59:54:56 | 05:50:14 | 269606 | 295869
AccurateRip Summary Disc not found in AccurateRip DB.
All Tracks Album gain : 2.01 dB Peak : 0.977783 Statistics Read error : 0 Jitter error (maybe fixed) : 0 Retry sector count : 0 Damaged sector count : 0
Track 01 Filename : /Volumes/RIPs/Barbirolli - Edition 10 CDs (2006)/CD4/01 - Berlioz - Sym fantastique-I-Reveries.flac Pre-gap length : 00:02:00
Track gain : 0.65 dB Peak : 0.718689 CRC32 hash (test run) : BAB5E6F8 CRC32 hash : BAB5E6F8 CRC32 hash (skip zero) : AD6BECA3 AccurateRip signature : 8434484D ->Track not present in AccurateRip database. Statistics Read error : 0 Jitter error (maybe fixed) : 0 Retry sector count : 0 Damaged sector count : 0
Track 02 Filename : /Volumes/RIPs/Barbirolli - Edition 10 CDs (2006)/CD4/02 - II-Un bal.flac Pre-gap length : 00:02:00
Track gain : 1.94 dB Peak : 0.929932 CRC32 hash (test run) : 7FE80527 CRC32 hash : 7FE80527 CRC32 hash (skip zero) : 9E14FF8A AccurateRip signature : 87C5D8B6 ->Track not present in AccurateRip database. Statistics Read error : 0 Jitter error (maybe fixed) : 0 Retry sector count : 0 Damaged sector count : 0
Track 03 Filename : /Volumes/RIPs/Barbirolli - Edition 10 CDs (2006)/CD4/03 - III-Scene aux champs.flac Pre-gap length : 00:02:00
Track gain : 5.74 dB Peak : 0.730011 CRC32 hash (test run) : 33DA64CC CRC32 hash : 33DA64CC CRC32 hash (skip zero) : B591FF74 AccurateRip signature : E4C1F431 ->Track not present in AccurateRip database. Statistics Read error : 0 Jitter error (maybe fixed) : 0 Retry sector count : 0 Damaged sector count : 0
Track 04 Filename : /Volumes/RIPs/Barbirolli - Edition 10 CDs (2006)/CD4/04 - IV-Marche au supplice.flac Pre-gap length : 00:02:00
Track gain : 1.46 dB Peak : 0.977783 CRC32 hash (test run) : 00C01DA4 CRC32 hash : 00C01DA4 CRC32 hash (skip zero) : E5F9D816 AccurateRip signature : 944A3503 ->Track not present in AccurateRip database. Statistics Read error : 0 Jitter error (maybe fixed) : 0 Retry sector count : 0 Damaged sector count : 0
Track 05 Filename : /Volumes/RIPs/Barbirolli - Edition 10 CDs (2006)/CD4/05 - V-Songe nuit Sabbat.flac Pre-gap length : 00:02:00
Track gain : 1.00 dB Peak : 0.680420 CRC32 hash (test run) : CEFC63EA CRC32 hash : CEFC63EA CRC32 hash (skip zero) : B5657BE3 AccurateRip signature : C90DF10B ->Track not present in AccurateRip database. Statistics Read error : 0 Jitter error (maybe fixed) : 0 Retry sector count : 0 Damaged sector count : 0
Track 06 Filename : /Volumes/RIPs/Barbirolli - Edition 10 CDs (2006)/CD4/06 - Wagner - Meistersinger Nurnberg Suite-I-Prelude to Act III.flac Pre-gap length : 00:04:00
Track gain : 12.21 dB Peak : 0.301605 CRC32 hash (test run) : E4530345 CRC32 hash : E4530345 CRC32 hash (skip zero) : 389B84F0 AccurateRip signature : A11B3908 ->Track not present in AccurateRip database. Statistics Read error : 0 Jitter error (maybe fixed) : 0 Retry sector count : 0 Damaged sector count : 0
Track 07 Filename : /Volumes/RIPs/Barbirolli - Edition 10 CDs (2006)/CD4/07 - II-Dance of the Apprentices.flac
Track gain : 2.74 dB Peak : 0.564514 CRC32 hash (test run) : 9EA242F5 CRC32 hash : 9EA242F5 CRC32 hash (skip zero) : AEB7BB61 AccurateRip signature : 8E94FC89 ->Track not present in AccurateRip database. Statistics Read error : 0 Jitter error (maybe fixed) : 0 Retry sector count : 0 Damaged sector count : 0
Track 08 Filename : /Volumes/RIPs/Barbirolli - Edition 10 CDs (2006)/CD4/08 - III-Entry of the Masters.flac
Track gain : 0.05 dB Peak : 0.771027 CRC32 hash (test run) : AA636ED1 CRC32 hash : AA636ED1 CRC32 hash (skip zero) : 59CB4373 AccurateRip signature : 518D8ECF ->Track not present in AccurateRip database. Statistics Read error : 0 Jitter error (maybe fixed) : 0 Retry sector count : 0 Damaged sector count : 0
No errors occurred
End of status report

CD5

X Lossless Decoder version 20110528 (134.0)
XLD extraction logfile from 2011-06-06 17:08:47 +1000
Barbirolli, Rubinstein, Milstein / Barbirolli - Chopin Bruch CD5
Used drive : OPTIARC DVD RW AD-5680H (revision 3AHB)
Ripper mode : XLD Secure RipperDisable audio cache : OK for the drive with a cache less than 1375KiBMake use of C2 pointers : NORead offset correction : 48Max retry count : 100Gap status : Analyzed, Appended (except HTOA)
TOC of the extracted CD Track | Start | Length | Start sector | End sector --------------------------------------------------------- 1 | 00:00:00 | 15:38:07 | 0 | 70356 2 | 15:38:07 | 09:22:73 | 70357 | 112579 3 | 25:01:05 | 08:13:72 | 112580 | 149626 4 | 33:15:02 | 08:14:49 | 149627 | 186725 5 | 41:29:51 | 08:36:65 | 186726 | 225490 6 | 50:06:41 | 07:09:39 | 225491 | 257704
AccurateRip Summary Disc not found in AccurateRip DB.
All Tracks Album gain : 2.61 dB Peak : 0.942322 Statistics Read error : 0 Jitter error (maybe fixed) : 0 Retry sector count : 0 Damaged sector count : 0
Track 01 Filename : /Volumes/RIPs/Barbirolli - Edition 10 CDs (2006)/CD5/01 - Chopin - Piano Concerto 1-I-Allegro maestoso.flac Pre-gap length : 00:02:00
Track gain : 1.69 dB Peak : 0.942322 CRC32 hash (test run) : 639DD0A5 CRC32 hash : 639DD0A5 CRC32 hash (skip zero) : 886BDA8D AccurateRip signature : 34BF924C ->Track not present in AccurateRip database. Statistics Read error : 0 Jitter error (maybe fixed) : 0 Retry sector count : 0 Damaged sector count : 0
Track 02 Filename : /Volumes/RIPs/Barbirolli - Edition 10 CDs (2006)/CD5/02 - II-Romance Larghetto.flac Pre-gap length : 00:02:00
Track gain : 8.87 dB Peak : 0.422760 CRC32 hash (test run) : 411304AE CRC32 hash : 411304AE CRC32 hash (skip zero) : 300EF072 AccurateRip signature : A819D3BD ->Track not present in AccurateRip database. Statistics Read error : 0 Jitter error (maybe fixed) : 0 Retry sector count : 0 Damaged sector count : 0
Track 03 Filename : /Volumes/RIPs/Barbirolli - Edition 10 CDs (2006)/CD5/03 - III-Rondo Vivace.flac Pre-gap length : 00:02:00
Track gain : 7.08 dB Peak : 0.809113 CRC32 hash (test run) : B2F8F1BF CRC32 hash : B2F8F1BF CRC32 hash (skip zero) : EB9F4BE9 AccurateRip signature : 011D0C3E ->Track not present in AccurateRip database. Statistics Read error : 0 Jitter error (maybe fixed) : 0 Retry sector count : 0 Damaged sector count : 0
Track 04 Filename : /Volumes/RIPs/Barbirolli - Edition 10 CDs (2006)/CD5/04 - Bruch - Violin Concerto in G minor-I-Prelude Allegro moderato.flac Pre-gap length : 00:04:00
Track gain : 0.99 dB Peak : 0.637482 CRC32 hash (test run) : FA0F3795 CRC32 hash : FA0F3795 CRC32 hash (skip zero) : A20E9C47 AccurateRip signature : 1AE48BB4 ->Track not present in AccurateRip database. Statistics Read error : 0 Jitter error (maybe fixed) : 0 Retry sector count : 0 Damaged sector count : 0
Track 05 Filename : /Volumes/RIPs/Barbirolli - Edition 10 CDs (2006)/CD5/05 - II-Adagio.flac
Track gain : 3.27 dB Peak : 0.477356 CRC32 hash (test run) : 48F113EB CRC32 hash : 48F113EB CRC32 hash (skip zero) : 7D898288 AccurateRip signature : 1EDDC9EE ->Track not present in AccurateRip database. Statistics Read error : 0 Jitter error (maybe fixed) : 0 Retry sector count : 0 Damaged sector count : 0
Track 06 Filename : /Volumes/RIPs/Barbirolli - Edition 10 CDs (2006)/CD5/06 - III-Finale.flac
Track gain : 1.99 dB Peak : 0.571106 CRC32 hash (test run) : 00A0E217 CRC32 hash : 00A0E217 CRC32 hash (skip zero) : 87FFAE3D AccurateRip signature : 3832F7F7 ->Track not present in AccurateRip database. Statistics Read error : 0 Jitter error (maybe fixed) : 0 Retry sector count : 0 Damaged sector count : 0
No errors occurred
End of status report

CD6

X Lossless Decoder version 20110528 (134.0)
XLD extraction logfile from 2011-06-06 18:17:24 +1000
Barbirolli, Kreisler / Barbirolli - Schumann Brahms CD6
Used drive : OPTIARC DVD RW AD-5680H (revision 3AHB)
Ripper mode : XLD Secure RipperDisable audio cache : OK for the drive with a cache less than 1375KiBMake use of C2 pointers : NORead offset correction : 48Max retry count : 100Gap status : Analyzed, Appended (except HTOA)
TOC of the extracted CD Track | Start | Length | Start sector | End sector --------------------------------------------------------- 1 | 00:00:00 | 10:00:62 | 0 | 45061 2 | 10:00:62 | 04:41:01 | 45062 | 66137 3 | 14:41:63 | 05:00:38 | 66138 | 88675 4 | 19:42:26 | 10:03:29 | 88676 | 133929 5 | 29:45:55 | 20:44:53 | 133930 | 227282 6 | 50:30:33 | 08:19:31 | 227283 | 264738 7 | 58:49:64 | 07:52:55 | 264739 | 300193
AccurateRip Summary Disc not found in AccurateRip DB.
All Tracks Album gain : 0.31 dB Peak : 0.979126 Statistics Read error : 0 Jitter error (maybe fixed) : 0 Retry sector count : 0 Damaged sector count : 0
Track 01 Filename : /Volumes/RIPs/Barbirolli - Edition 10 CDs (2006)/CD6/01 - Svhumann - Sym 4 in D minor op20-I-Ziemlich langsam Lebhaft.flac Pre-gap length : 00:02:00
Track gain : -0.72 dB Peak : 0.816284 CRC32 hash (test run) : 34929053 CRC32 hash : 34929053 CRC32 hash (skip zero) : B67EA269 AccurateRip signature : 50458D88 ->Track not present in AccurateRip database. Statistics Read error : 0 Jitter error (maybe fixed) : 0 Retry sector count : 0 Damaged sector count : 0
Track 02 Filename : /Volumes/RIPs/Barbirolli - Edition 10 CDs (2006)/CD6/02 - II-Romanze Ziemlich langsam.flac Pre-gap length : 00:02:00
Track gain : 2.68 dB Peak : 0.850189 CRC32 hash (test run) : EDCD5105 CRC32 hash : EDCD5105 CRC32 hash (skip zero) : 75730542 AccurateRip signature : CE48C84B ->Track not present in AccurateRip database. Statistics Read error : 0 Jitter error (maybe fixed) : 0 Retry sector count : 0 Damaged sector count : 0
Track 03 Filename : /Volumes/RIPs/Barbirolli - Edition 10 CDs (2006)/CD6/03 - III-Scherzo Lebhaft.flac Pre-gap length : 00:02:00
Track gain : -0.31 dB Peak : 0.858276 CRC32 hash (test run) : 7E5E5443 CRC32 hash : 7E5E5443 CRC32 hash (skip zero) : 7FC793A8 AccurateRip signature : DF21F056 ->Track not present in AccurateRip database. Statistics Read error : 0 Jitter error (maybe fixed) : 0 Retry sector count : 0 Damaged sector count : 0
Track 04 Filename : /Volumes/RIPs/Barbirolli - Edition 10 CDs (2006)/CD6/04 - IV-Langsam Lebhaft.flac
Track gain : -1.27 dB Peak : 0.979126 CRC32 hash (test run) : 6AE4693E CRC32 hash : 6AE4693E CRC32 hash (skip zero) : 49E62C7D AccurateRip signature : 9CA3754A ->Track not present in AccurateRip database. Statistics Read error : 0 Jitter error (maybe fixed) : 0 Retry sector count : 0 Damaged sector count : 0
Track 05 Filename : /Volumes/RIPs/Barbirolli - Edition 10 CDs (2006)/CD6/05 - Brahms - Violin Concerto in D major op 77-I-Allegro.flac Pre-gap length : 00:04:00
Track gain : 6.12 dB Peak : 0.517303 CRC32 hash (test run) : 65E1B58F CRC32 hash : 65E1B58F CRC32 hash (skip zero) : FC8CD66F AccurateRip signature : D89FF4C3 ->Track not present in AccurateRip database. Statistics Read error : 0 Jitter error (maybe fixed) : 0 Retry sector count : 0 Damaged sector count : 0
Track 06 Filename : /Volumes/RIPs/Barbirolli - Edition 10 CDs (2006)/CD6/06 - II-Adagio.flac Pre-gap length : 00:02:00
Track gain : 6.28 dB Peak : 0.543518 CRC32 hash (test run) : 88BF87EF CRC32 hash : 88BF87EF CRC32 hash (skip zero) : 962A3F4A AccurateRip signature : B0FC92E0 ->Track not present in AccurateRip database. Statistics Read error : 0 Jitter error (maybe fixed) : 0 Retry sector count : 0 Damaged sector count : 0
Track 07 Filename : /Volumes/RIPs/Barbirolli - Edition 10 CDs (2006)/CD6/07 - III-Allegro giocoso.flac Pre-gap length : 00:02:00
Track gain : -1.01 dB Peak : 0.966553 CRC32 hash (test run) : 69ED547C CRC32 hash : 69ED547C CRC32 hash (skip zero) : 0525F2A5 AccurateRip signature : 40555522 ->Track not present in AccurateRip database. Statistics Read error : 0 Jitter error (maybe fixed) : 0 Retry sector count : 0 Damaged sector count : 0
No errors occurred
End of status report

CD7

X Lossless Decoder version 20110528 (134.0)
XLD extraction logfile from 2011-06-06 18:53:11 +1000
Barbirolli, Heifetz / Barbirolli - Mozart Vieuxtemps Wieniawski CD7
Used drive : OPTIARC DVD RW AD-5680H (revision 3AHB)
Ripper mode : XLD Secure RipperDisable audio cache : OK for the drive with a cache less than 1375KiBMake use of C2 pointers : NORead offset correction : 48Max retry count : 100Gap status : Analyzed, Appended (except HTOA)
TOC of the extracted CD Track | Start | Length | Start sector | End sector --------------------------------------------------------- 1 | 00:00:00 | 09:53:37 | 0 | 44511 2 | 09:53:37 | 10:46:60 | 44512 | 93021 3 | 20:40:22 | 06:40:45 | 93022 | 123066 4 | 27:20:67 | 06:30:34 | 123067 | 152350 5 | 33:51:26 | 06:11:69 | 152351 | 180244 6 | 40:03:20 | 04:11:45 | 180245 | 199114 7 | 44:14:65 | 06:02:63 | 199115 | 226327 8 | 50:17:53 | 07:46:00 | 226328 | 261277 9 | 58:03:53 | 05:17:48 | 261278 | 285100 10 | 63:21:26 | 05:33:53 | 285101 | 310128
AccurateRip Summary Disc not found in AccurateRip DB.
All Tracks Album gain : 3.78 dB Peak : 0.991486 Statistics Read error : 0 Jitter error (maybe fixed) : 0 Retry sector count : 0 Damaged sector count : 0
Track 01 Filename : /Volumes/RIPs/Barbirolli - Edition 10 CDs (2006)/CD7/01 - Mozart - Violin Concerto 5 KV219-I-Allegro aperto.flac Pre-gap length : 00:02:00
Track gain : 2.57 dB Peak : 0.663086 CRC32 hash (test run) : 012623DF CRC32 hash : 012623DF CRC32 hash (skip zero) : 18B58420 AccurateRip signature : B51C2237 ->Track not present in AccurateRip database. Statistics Read error : 0 Jitter error (maybe fixed) : 0 Retry sector count : 0 Damaged sector count : 0
Track 02 Filename : /Volumes/RIPs/Barbirolli - Edition 10 CDs (2006)/CD7/02 - II-Adagio.flac Pre-gap length : 00:02:00
Track gain : 9.24 dB Peak : 0.321991 CRC32 hash (test run) : 43D9791A CRC32 hash : 43D9791A CRC32 hash (skip zero) : 29F948E4 AccurateRip signature : 8EDE7035 ->Track not present in AccurateRip database. Statistics Read error : 0 Jitter error (maybe fixed) : 0 Retry sector count : 0 Damaged sector count : 0
Track 03 Filename : /Volumes/RIPs/Barbirolli - Edition 10 CDs (2006)/CD7/03 - III-Rondo Tempo di Menutto Allegro.flac Pre-gap length : 00:02:00
Track gain : 2.31 dB Peak : 0.707336 CRC32 hash (test run) : A527BC19 CRC32 hash : A527BC19 CRC32 hash (skip zero) : BFA67AFE AccurateRip signature : E753C3C7 ->Track not present in AccurateRip database. Statistics Read error : 0 Jitter error (maybe fixed) : 0 Retry sector count : 0 Damaged sector count : 0
Track 04 Filename : /Volumes/RIPs/Barbirolli - Edition 10 CDs (2006)/CD7/04 - Vieuxtemps - Violin Concerto 4 op31-I-Andante Moderato Cadenz.flac Pre-gap length : 00:05:00
Track gain : 1.89 dB Peak : 0.945587 CRC32 hash (test run) : 9EC1CC0A CRC32 hash : 9EC1CC0A CRC32 hash (skip zero) : 78EC95E9 AccurateRip signature : 3EBAB4F7 ->Track not present in AccurateRip database. Statistics Read error : 0 Jitter error (maybe fixed) : 0 Retry sector count : 0 Damaged sector count : 0
Track 05 Filename : /Volumes/RIPs/Barbirolli - Edition 10 CDs (2006)/CD7/05 - II-Adagio religioso.flac
Track gain : 3.84 dB Peak : 0.720825 CRC32 hash (test run) : F5A87904 CRC32 hash : F5A87904 CRC32 hash (skip zero) : D745FC19 AccurateRip signature : 70E55A9F ->Track not present in AccurateRip database. Statistics Read error : 0 Jitter error (maybe fixed) : 0 Retry sector count : 0 Damaged sector count : 0
Track 06 Filename : /Volumes/RIPs/Barbirolli - Edition 10 CDs (2006)/CD7/06 - III-Scherzo Vivace.flac Pre-gap length : 00:02:00
Track gain : 3.74 dB Peak : 0.553802 CRC32 hash (test run) : 9AF4A1BD CRC32 hash : 9AF4A1BD CRC32 hash (skip zero) : 97AC4837 AccurateRip signature : 5A016761 ->Track not present in AccurateRip database. Statistics Read error : 0 Jitter error (maybe fixed) : 0 Retry sector count : 0 Damaged sector count : 0
Track 07 Filename : /Volumes/RIPs/Barbirolli - Edition 10 CDs (2006)/CD7/07 - IV-Finale Allegro.flac Pre-gap length : 00:02:00
Track gain : 3.04 dB Peak : 0.578613 CRC32 hash (test run) : 7F3ED1E4 CRC32 hash : 7F3ED1E4 CRC32 hash (skip zero) : 9DA9E77B AccurateRip signature : DF6AB5CB ->Track not present in AccurateRip database. Statistics Read error : 0 Jitter error (maybe fixed) : 0 Retry sector count : 0 Damaged sector count : 0
Track 08 Filename : /Volumes/RIPs/Barbirolli - Edition 10 CDs (2006)/CD7/08 - Wieniawski - Violin Concerto 2 op22-I-Allegro moderato.flac Pre-gap length : 00:05:00
Track gain : 4.03 dB Peak : 0.840393 CRC32 hash (test run) : 3045B195 CRC32 hash : 3045B195 CRC32 hash (skip zero) : 97702803 AccurateRip signature : 68A8B411 ->Track not present in AccurateRip database. Statistics Read error : 0 Jitter error (maybe fixed) : 0 Retry sector count : 0 Damaged sector count : 0
Track 09 Filename : /Volumes/RIPs/Barbirolli - Edition 10 CDs (2006)/CD7/09 - II-Romnace Andante non troppo.flac
Track gain : 10.59 dB Peak : 0.455261 CRC32 hash (test run) : DC5AC015 CRC32 hash : DC5AC015 CRC32 hash (skip zero) : 7113503C AccurateRip signature : D7D26828 ->Track not present in AccurateRip database. Statistics Read error : 0 Jitter error (maybe fixed) : 0 Retry sector count : 0 Damaged sector count : 0
Track 10 Filename : /Volumes/RIPs/Barbirolli - Edition 10 CDs (2006)/CD7/10 - III-Allegro con fuoco Cadenza Allegro moderato.flac Pre-gap length : 00:02:00
Track gain : 4.57 dB Peak : 0.991486 CRC32 hash (test run) : C6129278 CRC32 hash : C6129278 CRC32 hash (skip zero) : A7A10B76 AccurateRip signature : AF634703 ->Track not present in AccurateRip database. Statistics Read error : 0 Jitter error (maybe fixed) : 0 Retry sector count : 0 Damaged sector count : 0
No errors occurred
End of status report

CD8

X Lossless Decoder version 20110528 (134.0)
XLD extraction logfile from 2011-06-06 19:20:50 +1000
Barbirolli, Heifetz / Barbirolli - Tchaikovsky, Glazunov CD8
Used drive : OPTIARC DVD RW AD-5680H (revision 3AHB)
Ripper mode : XLD Secure RipperDisable audio cache : OK for the drive with a cache less than 1375KiBMake use of C2 pointers : NORead offset correction : 48Max retry count : 100Gap status : Analyzed, Appended (except HTOA)
TOC of the extracted CD Track | Start | Length | Start sector | End sector --------------------------------------------------------- 1 | 00:00:00 | 16:49:46 | 0 | 75720 2 | 16:49:46 | 06:02:09 | 75721 | 102879 3 | 22:51:55 | 08:34:57 | 102880 | 141486 4 | 31:26:37 | 04:22:52 | 141487 | 161188 5 | 35:49:14 | 07:32:34 | 161189 | 195122 6 | 43:21:48 | 02:19:74 | 195123 | 205621 7 | 45:41:47 | 05:47:40 | 205622 | 231686 8 | 51:29:12 | 09:06:73 | 231687 | 272709
AccurateRip Summary Disc not found in AccurateRip DB.
All Tracks Album gain : 2.59 dB Peak : 0.971985 Statistics Read error : 0 Jitter error (maybe fixed) : 0 Retry sector count : 0 Damaged sector count : 0
Track 01 Filename : /Volumes/RIPs/Barbirolli - Edition 10 CDs (2006)/CD8/01 - Violin Concerto in D major Op. 35 - I. Allegro moderato.flac Pre-gap length : 00:02:00
Track gain : 2.36 dB Peak : 0.871643 CRC32 hash (test run) : 18E341D6 CRC32 hash : 18E341D6 CRC32 hash (skip zero) : 47995C4F AccurateRip signature : B01CCFEE ->Track not present in AccurateRip database. Statistics Read error : 0 Jitter error (maybe fixed) : 0 Retry sector count : 0 Damaged sector count : 0
Track 02 Filename : /Volumes/RIPs/Barbirolli - Edition 10 CDs (2006)/CD8/02 - Violin Concerto in D major Op. 35 - II. Canzonetta. Andante.flac Pre-gap length : 00:02:00
Track gain : 11.56 dB Peak : 0.248932 CRC32 hash (test run) : D9B53864 CRC32 hash : D9B53864 CRC32 hash (skip zero) : 244EF3E2 AccurateRip signature : BB182B19 ->Track not present in AccurateRip database. Statistics Read error : 0 Jitter error (maybe fixed) : 0 Retry sector count : 0 Damaged sector count : 0
Track 03 Filename : /Volumes/RIPs/Barbirolli - Edition 10 CDs (2006)/CD8/03 - Violin Concerto in D major Op. 35 - II. Finale Allegro Vivascimmo.flac
Track gain : 7.24 dB Peak : 0.531555 CRC32 hash (test run) : 9177E1CD CRC32 hash : 9177E1CD CRC32 hash (skip zero) : EE9F6DAA AccurateRip signature : 2BF542AA ->Track not present in AccurateRip database. Statistics Read error : 0 Jitter error (maybe fixed) : 0 Retry sector count : 0 Damaged sector count : 0
Track 04 Filename : /Volumes/RIPs/Barbirolli - Edition 10 CDs (2006)/CD8/04 - Violin Concerto in A minor Op. 82 - I. Moderato.flac Pre-gap length : 00:04:00
Track gain : 4.24 dB Peak : 0.719269 CRC32 hash (test run) : A5859576 CRC32 hash : A5859576 CRC32 hash (skip zero) : 03581549 AccurateRip signature : DA80BD57 ->Track not present in AccurateRip database. Statistics Read error : 0 Jitter error (maybe fixed) : 0 Retry sector count : 0 Damaged sector count : 0
Track 05 Filename : /Volumes/RIPs/Barbirolli - Edition 10 CDs (2006)/CD8/05 - Violin Concerto in A minor Op. 82 - II. Andante.flac
Track gain : 2.50 dB Peak : 0.815063 CRC32 hash (test run) : C92172E3 CRC32 hash : C92172E3 CRC32 hash (skip zero) : C22D1702 AccurateRip signature : E6FE1FF2 ->Track not present in AccurateRip database. Statistics Read error : 0 Jitter error (maybe fixed) : 0 Retry sector count : 0 Damaged sector count : 0
Track 06 Filename : /Volumes/RIPs/Barbirolli - Edition 10 CDs (2006)/CD8/06 - Violin Concerto in A minor Op. 82 - III. Cadenza.flac
Track gain : 5.57 dB Peak : 0.326996 CRC32 hash (test run) : CF728867 CRC32 hash : CF728867 CRC32 hash (skip zero) : 57AF7F4E AccurateRip signature : F6B11ACB ->Track not present in AccurateRip database. Statistics Read error : 0 Jitter error (maybe fixed) : 0 Retry sector count : 0 Damaged sector count : 0
Track 07 Filename : /Volumes/RIPs/Barbirolli - Edition 10 CDs (2006)/CD8/07 - Violin Concerto in A minor Op. 82 - IV. Animando.flac
Track gain : -1.03 dB Peak : 0.971985 CRC32 hash (test run) : F38F833D CRC32 hash : F38F833D CRC32 hash (skip zero) : B897A22B AccurateRip signature : EBE24F8A ->Track not present in AccurateRip database. Statistics Read error : 0 Jitter error (maybe fixed) : 0 Retry sector count : 0 Damaged sector count : 0
Track 08 Filename : /Volumes/RIPs/Barbirolli - Edition 10 CDs (2006)/CD8/08 - Havanaise Op. 83.flac Pre-gap length : 00:04:00
Track gain : 0.93 dB Peak : 0.738861 CRC32 hash (test run) : 56E5768C CRC32 hash : 56E5768C CRC32 hash (skip zero) : 9E78CFE3 AccurateRip signature : 196A556D ->Track not present in AccurateRip database. Statistics Read error : 0 Jitter error (maybe fixed) : 0 Retry sector count : 0 Damaged sector count : 0
No errors occurred
End of status report

CD9

X Lossless Decoder version 20110528 (134.0)
XLD extraction logfile from 2011-06-06 19:40:00 +1000
Barbirolli, Backhaus / Barbirolli - Grieg, Sibelius CD9
Used drive : OPTIARC DVD RW AD-5680H (revision 3AHB)
Ripper mode : XLD Secure RipperDisable audio cache : OK for the drive with a cache less than 1375KiBMake use of C2 pointers : NORead offset correction : 48Max retry count : 100Gap status : Analyzed, Appended (except HTOA)
TOC of the extracted CD Track | Start | Length | Start sector | End sector --------------------------------------------------------- 1 | 00:00:00 | 12:11:61 | 0 | 54885 2 | 12:11:61 | 04:53:49 | 54886 | 76909 3 | 17:05:35 | 09:09:50 | 76910 | 118134 4 | 26:15:10 | 08:20:61 | 118135 | 155695 5 | 34:35:71 | 12:32:27 | 155696 | 212122 6 | 47:08:23 | 05:41:05 | 212123 | 237702 7 | 52:49:28 | 12:21:45 | 237703 | 293322
AccurateRip Summary Disc not found in AccurateRip DB.
All Tracks Album gain : 0.13 dB Peak : 0.967346 Statistics Read error : 0 Jitter error (maybe fixed) : 0 Retry sector count : 0 Damaged sector count : 0
Track 01 Filename : /Volumes/RIPs/Barbirolli - Edition 10 CDs (2006)/CD9/01 - Grieg - Piano Concerto op16-I-Allegro molto moderato.flac Pre-gap length : 00:02:00
Track gain : 2.29 dB Peak : 0.883087 CRC32 hash (test run) : 468F9A95 CRC32 hash : 468F9A95 CRC32 hash (skip zero) : 44B3D575 AccurateRip signature : 9874FC01 ->Track not present in AccurateRip database. Statistics Read error : 0 Jitter error (maybe fixed) : 0 Retry sector count : 0 Damaged sector count : 0
Track 02 Filename : /Volumes/RIPs/Barbirolli - Edition 10 CDs (2006)/CD9/02 - II-Adagio.flac Pre-gap length : 00:02:00
Track gain : 5.91 dB Peak : 0.524811 CRC32 hash (test run) : DAFA237C CRC32 hash : DAFA237C CRC32 hash (skip zero) : 8CFCF65E AccurateRip signature : C8105D70 ->Track not present in AccurateRip database. Statistics Read error : 0 Jitter error (maybe fixed) : 0 Retry sector count : 0 Damaged sector count : 0
Track 03 Filename : /Volumes/RIPs/Barbirolli - Edition 10 CDs (2006)/CD9/03 - III-Allegro moderato molto e marcato.flac Pre-gap length : 00:02:00
Track gain : -1.22 dB Peak : 0.967346 CRC32 hash (test run) : 0C02C1EA CRC32 hash : 0C02C1EA CRC32 hash (skip zero) : 9034708C AccurateRip signature : 477C4857 ->Track not present in AccurateRip database. Statistics Read error : 0 Jitter error (maybe fixed) : 0 Retry sector count : 0 Damaged sector count : 0
Track 04 Filename : /Volumes/RIPs/Barbirolli - Edition 10 CDs (2006)/CD9/04 - Sibelius - Sym 2 op43-I-Allegretto.flac Pre-gap length : 00:05:00
Track gain : 0.37 dB Peak : 0.673737 CRC32 hash (test run) : E8F1A403 CRC32 hash : E8F1A403 CRC32 hash (skip zero) : 0371D900 AccurateRip signature : F724B1E3 ->Track not present in AccurateRip database. Statistics Read error : 0 Jitter error (maybe fixed) : 0 Retry sector count : 0 Damaged sector count : 0
Track 05 Filename : /Volumes/RIPs/Barbirolli - Edition 10 CDs (2006)/CD9/05 - II-Tempo andante ma rubato.flac Pre-gap length : 00:02:00
Track gain : 1.57 dB Peak : 0.605804 CRC32 hash (test run) : 57770A0F CRC32 hash : 57770A0F CRC32 hash (skip zero) : 73A3CD2C AccurateRip signature : 75668F6C ->Track not present in AccurateRip database. Statistics Read error : 0 Jitter error (maybe fixed) : 0 Retry sector count : 0 Damaged sector count : 0
Track 06 Filename : /Volumes/RIPs/Barbirolli - Edition 10 CDs (2006)/CD9/06 - III-Vivacissimo.flac Pre-gap length : 00:02:00
Track gain : 1.09 dB Peak : 0.563995 CRC32 hash (test run) : DE4CD256 CRC32 hash : DE4CD256 CRC32 hash (skip zero) : 3F6603B2 AccurateRip signature : EBECB338 ->Track not present in AccurateRip database. Statistics Read error : 0 Jitter error (maybe fixed) : 0 Retry sector count : 0 Damaged sector count : 0
Track 07 Filename : /Volumes/RIPs/Barbirolli - Edition 10 CDs (2006)/CD9/07 - IV-Allegro moderato.flac
Track gain : -1.41 dB Peak : 0.703674 CRC32 hash (test run) : F35BD588 CRC32 hash : F35BD588 CRC32 hash (skip zero) : 76C14756 AccurateRip signature : 5BF23CBB ->Track not present in AccurateRip database. Statistics Read error : 0 Jitter error (maybe fixed) : 0 Retry sector count : 0 Damaged sector count : 0
No errors occurred
End of status report

CD10

X Lossless Decoder version 20110528 (134.0)
XLD extraction logfile from 2011-06-06 20:00:02 +1000
Barbirolli / Barbirolli - Respighi, Vaughan Williams, Stravinsky CD10
Used drive : OPTIARC DVD RW AD-5680H (revision 3AHB)
Ripper mode : XLD Secure RipperDisable audio cache : OK for the drive with a cache less than 1375KiBMake use of C2 pointers : NORead offset correction : 48Max retry count : 100Gap status : Analyzed, Appended (except HTOA)
TOC of the extracted CD Track | Start | Length | Start sector | End sector --------------------------------------------------------- 1 | 00:00:00 | 03:51:30 | 0 | 17354 2 | 03:51:30 | 02:16:12 | 17355 | 27566 3 | 06:07:42 | 03:29:49 | 27567 | 43290 4 | 09:37:16 | 05:14:09 | 43291 | 66849 5 | 14:51:25 | 11:19:12 | 66850 | 117786 6 | 26:10:37 | 04:20:34 | 117787 | 137320 7 | 30:30:71 | 11:12:48 | 137321 | 187768 8 | 41:43:44 | 09:12:03 | 187769 | 229171 9 | 50:55:47 | 05:42:59 | 229172 | 254880 10 | 56:38:31 | 03:21:35 | 254881 | 269990 11 | 59:59:66 | 03:05:01 | 269991 | 283866
AccurateRip Summary Disc not found in AccurateRip DB.
All Tracks Album gain : 2.75 dB Peak : 0.942841 Statistics Read error : 0 Jitter error (maybe fixed) : 0 Retry sector count : 0 Damaged sector count : 0
Track 01 Filename : /Volumes/RIPs/Barbirolli - Edition 10 CDs (2006)/CD10/01 - Respighi - Fontane di Roma-I-Valle Giulia all alba.flac Pre-gap length : 00:02:00
Track gain : 10.75 dB Peak : 0.323975 CRC32 hash (test run) : 3E5AE6E0 CRC32 hash : 3E5AE6E0 CRC32 hash (skip zero) : 5DDBF56C AccurateRip signature : FB414F0D ->Track not present in AccurateRip database. Statistics Read error : 0 Jitter error (maybe fixed) : 0 Retry sector count : 0 Damaged sector count : 0
Track 02 Filename : /Volumes/RIPs/Barbirolli - Edition 10 CDs (2006)/CD10/02 - II-Tritone al mattino.flac
Track gain : -0.65 dB Peak : 0.897766 CRC32 hash (test run) : 274E8E77 CRC32 hash : 274E8E77 CRC32 hash (skip zero) : 818DD4F4 AccurateRip signature : 0AF45B97 ->Track not present in AccurateRip database. Statistics Read error : 0 Jitter error (maybe fixed) : 0 Retry sector count : 0 Damaged sector count : 0
Track 03 Filename : /Volumes/RIPs/Barbirolli - Edition 10 CDs (2006)/CD10/03 - III-Trevi al meriggio.flac
Track gain : -1.79 dB Peak : 0.860168 CRC32 hash (test run) : 61AFC490 CRC32 hash : 61AFC490 CRC32 hash (skip zero) : A0F64B83 AccurateRip signature : 37E13DBA ->Track not present in AccurateRip database. Statistics Read error : 0 Jitter error (maybe fixed) : 0 Retry sector count : 0 Damaged sector count : 0
Track 04 Filename : /Volumes/RIPs/Barbirolli - Edition 10 CDs (2006)/CD10/04 - IV-Villa Medici al tramonto.flac
Track gain : 11.24 dB Peak : 0.409973 CRC32 hash (test run) : 3B310FB8 CRC32 hash : 3B310FB8 CRC32 hash (skip zero) : 8869F35A AccurateRip signature : E477C964 ->Track not present in AccurateRip database. Statistics Read error : 0 Jitter error (maybe fixed) : 0 Retry sector count : 0 Damaged sector count : 0
Track 05 Filename : /Volumes/RIPs/Barbirolli - Edition 10 CDs (2006)/CD10/05 - Vaughan-Williams - Sym 5 in D major-I-Preludio.flac Pre-gap length : 00:04:00
Track gain : 2.72 dB Peak : 0.603058 CRC32 hash (test run) : C72EF2CA CRC32 hash : C72EF2CA CRC32 hash (skip zero) : 18518A0D AccurateRip signature : 14363701 ->Track not present in AccurateRip database. Statistics Read error : 0 Jitter error (maybe fixed) : 0 Retry sector count : 0 Damaged sector count : 0
Track 06 Filename : /Volumes/RIPs/Barbirolli - Edition 10 CDs (2006)/CD10/06 - II-Scherzo.flac Pre-gap length : 00:02:00
Track gain : 9.17 dB Peak : 0.499054 CRC32 hash (test run) : A258202A CRC32 hash : A258202A CRC32 hash (skip zero) : 5E827B62 AccurateRip signature : FD4EBA62 ->Track not present in AccurateRip database. Statistics Read error : 0 Jitter error (maybe fixed) : 0 Retry sector count : 0 Damaged sector count : 0
Track 07 Filename : /Volumes/RIPs/Barbirolli - Edition 10 CDs (2006)/CD10/07 - III-Romanza.flac Pre-gap length : 00:02:00
Track gain : 4.92 dB Peak : 0.536835 CRC32 hash (test run) : 7F0E5116 CRC32 hash : 7F0E5116 CRC32 hash (skip zero) : 90371EF3 AccurateRip signature : 21AAE02D ->Track not present in AccurateRip database. Statistics Read error : 0 Jitter error (maybe fixed) : 0 Retry sector count : 0 Damaged sector count : 0
Track 08 Filename : /Volumes/RIPs/Barbirolli - Edition 10 CDs (2006)/CD10/08 - IV-Passacaglia.flac Pre-gap length : 00:02:00
Track gain : 2.40 dB Peak : 0.597290 CRC32 hash (test run) : FCAE1DF1 CRC32 hash : FCAE1DF1 CRC32 hash (skip zero) : 5A429B42 AccurateRip signature : 88148A8A ->Track not present in AccurateRip database. Statistics Read error : 0 Jitter error (maybe fixed) : 0 Retry sector count : 0 Damaged sector count : 0
Track 09 Filename : /Volumes/RIPs/Barbirolli - Edition 10 CDs (2006)/CD10/09 - Stravinsky - Concerto in D-I-Vivace.flac Pre-gap length : 00:04:00
Track gain : 6.53 dB Peak : 0.555511 CRC32 hash (test run) : 2786FD0E CRC32 hash : 2786FD0E CRC32 hash (skip zero) : E72607C9 AccurateRip signature : 5BA8F1FC ->Track not present in AccurateRip database. Statistics Read error : 0 Jitter error (maybe fixed) : 0 Retry sector count : 0 Damaged sector count : 0
Track 10 Filename : /Volumes/RIPs/Barbirolli - Edition 10 CDs (2006)/CD10/10 - II-Arioso Andantino.flac Pre-gap length : 00:02:00
Track gain : 11.94 dB Peak : 0.221344 CRC32 hash (test run) : 1BE28651 CRC32 hash : 1BE28651 CRC32 hash (skip zero) : 885D7B79 AccurateRip signature : E6C2B004 ->Track not present in AccurateRip database. Statistics Read error : 0 Jitter error (maybe fixed) : 0 Retry sector count : 0 Damaged sector count : 0
Track 11 Filename : /Volumes/RIPs/Barbirolli - Edition 10 CDs (2006)/CD10/11 - III-Rondo Allegro.flac Pre-gap length : 00:02:00
Track gain : 5.02 dB Peak : 0.942841 CRC32 hash (test run) : CCEE1038 CRC32 hash : CCEE1038 CRC32 hash (skip zero) : F5EC114E AccurateRip signature : D4797099 ->Track not present in AccurateRip database. Statistics Read error : 0 Jitter error (maybe fixed) : 0 Retry sector count : 0 Damaged sector count : 0
No errors occurred
End of status report

Содержание индексной карты (.CUE)CD1

TITLE "Mozart Piano Concertos CD1"PERFORMER "Fischer E, Casadesus, Barbirolli"REM GENRE "Classical"REM DATE "2006"REM DISCNUMBER 1REM TOTALDISCS 10REM DISCID 520E1A06REM REPLAYGAIN_ALBUM_GAIN 0.64 dBREM REPLAYGAIN_ALBUM_PEAK 0.881744FILE "01 - Piano Concerto 22, KV482-I-Allegro.flac" WAVE TRACK 01 AUDIO TITLE "Piano Concerto 22, KV482-I-Allegro" ISRC DEU240621454 REM REPLAYGAIN_TRACK_GAIN 0.67 dB REM REPLAYGAIN_TRACK_PEAK 0.881744 INDEX 01 00:00:00 TRACK 02 AUDIO TITLE "II-Andante" ISRC DEU240621455 REM REPLAYGAIN_TRACK_GAIN 6.83 dB REM REPLAYGAIN_TRACK_PEAK 0.748505 INDEX 00 12:04:74FILE "02 - II-Andante.flac" WAVE INDEX 01 00:00:00 TRACK 03 AUDIO TITLE "III-Rondo Allegro" ISRC DEU240621456 REM REPLAYGAIN_TRACK_GAIN 1.05 dB REM REPLAYGAIN_TRACK_PEAK 0.856903 INDEX 00 08:45:28FILE "03 - III-Rondo Allegro.flac" WAVE INDEX 01 00:00:00 TRACK 04 AUDIO TITLE "Piano Concerto 27, KV595-I-Allegro" ISRC DEU240621457 REM REPLAYGAIN_TRACK_GAIN -0.94 dB REM REPLAYGAIN_TRACK_PEAK 0.798767 INDEX 00 10:23:10FILE "04 - Piano Concerto 27, KV595-I-Allegro.flac" WAVE INDEX 01 00:00:00 TRACK 05 AUDIO TITLE "II-Larghetto" ISRC DEU240621458 REM REPLAYGAIN_TRACK_GAIN 1.82 dB REM REPLAYGAIN_TRACK_PEAK 0.809753 INDEX 00 12:31:34FILE "05 - II-Larghetto.flac" WAVE INDEX 01 00:00:00 TRACK 06 AUDIO TITLE "III-Allegro" ISRC DEU240621459 REM REPLAYGAIN_TRACK_GAIN 0.69 dB REM REPLAYGAIN_TRACK_PEAK 0.698822 INDEX 00 08:25:10FILE "06 - III-Allegro.flac" WAVE INDEX 01 00:00:00

CD2

TITLE "Barbirolli - Mozart, Purcell, Haydn CD2"PERFORMER "Sir John Barbirolli"REM GENRE "Classical"REM DATE "2001"REM DISCNUMBER 2REM TOTALDISCS 10REM DISCID B30CEB0EREM REPLAYGAIN_ALBUM_GAIN 0.07 dBREM REPLAYGAIN_ALBUM_PEAK 0.923859FILE "01 - Mozart - Symphony No. 33 In B Minor KV 319. I Allegro Assai.flac" WAVE TRACK 01 AUDIO TITLE "Mozart: Symphony No. 33 In B Minor KV 319. I Allegro Assai" ISRC DEU240621460 REM REPLAYGAIN_TRACK_GAIN -2.43 dB REM REPLAYGAIN_TRACK_PEAK 0.904633 INDEX 01 00:00:00 TRACK 02 AUDIO TITLE "Mozart: Symphony No. 33 In B Minor KV 319. II. Andante Moderato" ISRC DEU240621461 REM REPLAYGAIN_TRACK_GAIN 3.76 dB REM REPLAYGAIN_TRACK_PEAK 0.485229 INDEX 00 06:29:61FILE "02 - Mozart - Symphony No. 33 In B Minor KV 319. II. Andante Moderato.flac" WAVE INDEX 01 00:00:00 TRACK 03 AUDIO TITLE "Mozart - Symphony No. 33 In B Minor KV 319. III Menueto & Trio" ISRC DEU240621462 REM REPLAYGAIN_TRACK_GAIN 1.18 dB REM REPLAYGAIN_TRACK_PEAK 0.601929 INDEX 00 05:15:57FILE "03 - Mozart - Symphony No. 33 In B Minor KV 319. III Menueto & Trio.flac" WAVE INDEX 01 00:00:00 TRACK 04 AUDIO TITLE "Mozart: Symphony No. 33 In B Minor KV 319. I V Allegro Assai" ISRC DEU240621463 REM REPLAYGAIN_TRACK_GAIN -0.51 dB REM REPLAYGAIN_TRACK_PEAK 0.854584 INDEX 00 02:33:09FILE "04 - Mozart - Symphony No. 33 In B Minor KV 319. I V Allegro Assai.flac" WAVE INDEX 01 00:00:00 TRACK 05 AUDIO TITLE "Purcell: Suite For Strings, Flutes & Horns (arr. Barbirolli) I" ISRC DEU240621464 REM REPLAYGAIN_TRACK_GAIN -0.12 dB REM REPLAYGAIN_TRACK_PEAK 0.862732 INDEX 00 04:12:05FILE "05 - Purcell - Suite For Strings, Flutes & Horns (arr. Barbirolli) I.flac" WAVE INDEX 01 00:00:00FILE "06 - Purcell - Suite For Strings, Flutes & Horns (arr. Barbirolli) II.flac" WAVE TRACK 06 AUDIO TITLE "Purcell: Suite For Strings, Flutes & Horns (arr. Barbirolli) II" ISRC DEU240621465 REM REPLAYGAIN_TRACK_GAIN 5.64 dB REM REPLAYGAIN_TRACK_PEAK 0.424713 INDEX 01 00:00:00FILE "07 - Purcell - Suite For Strings, Flutes & Horns (arr. Barbirolli) III.flac" WAVE TRACK 07 AUDIO TITLE "Purcell: Suite For Strings, Flutes & Horns (arr. Barbirolli) III" ISRC DEU240621466 REM REPLAYGAIN_TRACK_GAIN 2.55 dB REM REPLAYGAIN_TRACK_PEAK 0.591156 INDEX 01 00:00:00FILE "08 - Purcell - Suite For Strings, Flutes & Horns (arr. Barbirolli) IV.flac" WAVE TRACK 08 AUDIO TITLE "Purcell: Suite For Strings, Flutes & Horns (arr. Barbirolli) IV" ISRC DEU240621467 REM REPLAYGAIN_TRACK_GAIN 2.56 dB REM REPLAYGAIN_TRACK_PEAK 0.580841 INDEX 01 00:00:00FILE "09 - Purcell - Suite For Strings, Flutes & Horns (arr. Barbirolli) V.flac" WAVE TRACK 09 AUDIO TITLE "Purcell: Suite For Strings, Flutes & Horns (arr. Barbirolli) V" ISRC DEU240621468 REM REPLAYGAIN_TRACK_GAIN 7.34 dB REM REPLAYGAIN_TRACK_PEAK 0.275726 INDEX 01 00:00:00 TRACK 10 AUDIO TITLE "Purcell - Suite For Strings, Flutes & Horns (arr. Barbirolli) VI" ISRC DEU240621469 REM REPLAYGAIN_TRACK_GAIN -1.47 dB REM REPLAYGAIN_TRACK_PEAK 0.760254 INDEX 00 03:32:31FILE "10 - Purcellпјљ Suite For Strings, Flutes & Horns (arr. Barbirolli) VI.flac" WAVE INDEX 01 00:00:00 TRACK 11 AUDIO TITLE "Haydn - Symphony No. 83 En GMinor "The Hen" I Allegro Spirituoso" ISRC DEU240621470 REM REPLAYGAIN_TRACK_GAIN 0.22 dB REM REPLAYGAIN_TRACK_PEAK 0.789459 INDEX 00 01:15:69FILE "11 - Haydn - Symphony No. 83 En GMinor "The Hen" I Allegro Spirituoso.flac" WAVE INDEX 01 00:00:00 TRACK 12 AUDIO TITLE "Haydn: Symphony No. 83 En GMinor "The Hen" II Andante" ISRC DEU240621471 REM REPLAYGAIN_TRACK_GAIN 2.06 dB REM REPLAYGAIN_TRACK_PEAK 0.632660 INDEX 00 07:38:72FILE "12 - Haydn - Symphony No. 83 En GMinor "The Hen" II Andante.flac" WAVE INDEX 01 00:00:00 TRACK 13 AUDIO TITLE "Haydn - Symphony No. 83 En GMinor "The Hen" III Menuetto - Allegro & Trio" ISRC DEU240621472 REM REPLAYGAIN_TRACK_GAIN -0.48 dB REM REPLAYGAIN_TRACK_PEAK 0.738983 INDEX 00 06:50:00FILE "13 - Haydn - Symphony No. 83 En GMinor "The Hen" III Menuetto - Allegro & Trio.flac" WAVE INDEX 01 00:00:00 TRACK 14 AUDIO TITLE "Haydn: Symphony No. 83 En GMinor "The Hen" IV Vivace" ISRC DEU240621473 REM REPLAYGAIN_TRACK_GAIN 0.48 dB REM REPLAYGAIN_TRACK_PEAK 0.923859 INDEX 00 03:22:07FILE "14 - Haydn - Symphony No. 83 En GMinor "The Hen" IV Vivace.flac" WAVE INDEX 01 00:00:00

CD3

TITLE "Beethoven - Sym 4, Violin Concerto CD3"PERFORMER "Kreisler, Barbirolli"REM GENRE "Classical"REM DATE "2006"REM DISCNUMBER 3REM TOTALDISCS 10REM DISCID 7711D207REM REPLAYGAIN_ALBUM_GAIN 0.45 dBREM REPLAYGAIN_ALBUM_PEAK 1.000000FILE "01 - Beethoven - Sym 4 -I-Adagio Allegro vivace.flac" WAVE TRACK 01 AUDIO TITLE "Beethoven - Sym 4 -I-Adagio Allegro vivace" SONGWRITER "Beethoven, Ludwig van" ISRC DEU240621474 REM REPLAYGAIN_TRACK_GAIN -1.33 dB REM REPLAYGAIN_TRACK_PEAK 0.923828 INDEX 01 00:00:00 TRACK 02 AUDIO TITLE "II-Adagio" SONGWRITER "Beethoven, Ludwig van" ISRC DEU240621475 REM REPLAYGAIN_TRACK_GAIN 1.89 dB REM REPLAYGAIN_TRACK_PEAK 0.686951 INDEX 00 10:52:47FILE "02 - II-Adagio.flac" WAVE INDEX 01 00:00:00 TRACK 03 AUDIO TITLE "III-Allegro vivace" SONGWRITER "Beethoven, Ludwig van" ISRC DEU240621476 REM REPLAYGAIN_TRACK_GAIN -0.82 dB REM REPLAYGAIN_TRACK_PEAK 0.850555 INDEX 00 10:11:10FILE "03 - III-Allegro vivace.flac" WAVE INDEX 01 00:00:00FILE "04 - IV-Allegro ma non troppo.flac" WAVE TRACK 04 AUDIO TITLE "IV-Allegro ma non troppo" SONGWRITER "Beethoven, Ludwig van" ISRC DEU240621477 REM REPLAYGAIN_TRACK_GAIN -1.43 dB REM REPLAYGAIN_TRACK_PEAK 0.948120 INDEX 01 00:00:00 TRACK 05 AUDIO TITLE "Violin Concerto op61-I-Allegro ma non troppo" SONGWRITER "Beethoven, Ludwig van" ISRC DEU240621478 REM REPLAYGAIN_TRACK_GAIN 2.68 dB REM REPLAYGAIN_TRACK_PEAK 0.874054 INDEX 00 06:51:28FILE "05 - Violin Concerto op61-I-Allegro ma non troppo.flac" WAVE INDEX 01 00:00:00 TRACK 06 AUDIO TITLE "II-Larghetto" SONGWRITER "Beethoven, Ludwig van" ISRC DEU240621479 REM REPLAYGAIN_TRACK_GAIN 8.15 dB REM REPLAYGAIN_TRACK_PEAK 0.567749 INDEX 00 22:30:20FILE "06 - II-Larghetto.flac" WAVE INDEX 01 00:00:00FILE "07 - III-Rondo Allegro.flac" WAVE TRACK 07 AUDIO TITLE "III-Rondo Allegro" SONGWRITER "Beethoven, Ludwig van" ISRC DEU240621480 REM REPLAYGAIN_TRACK_GAIN -0.57 dB REM REPLAYGAIN_TRACK_PEAK 1.000000 INDEX 01 00:00:00

CD4

TITLE "Barbirolli - Wagner Berlioz CD4"PERFORMER "Barbirolli, Halle Orchestra"REM GENRE "Classical"REM DATE "2006"REM DISCNUMBER 4REM TOTALDISCS 10REM DISCID 660F6808REM REPLAYGAIN_ALBUM_GAIN 2.01 dBREM REPLAYGAIN_ALBUM_PEAK 0.977783FILE "01 - Berlioz - Sym fantastique-I-Reveries.flac" WAVE TRACK 01 AUDIO TITLE "Berlioz - Sym fantastique-I-Reveries" ISRC DEU240621481 REM REPLAYGAIN_TRACK_GAIN 0.65 dB REM REPLAYGAIN_TRACK_PEAK 0.718689 INDEX 01 00:00:00 TRACK 02 AUDIO TITLE "II-Un bal" ISRC DEU240621482 REM REPLAYGAIN_TRACK_GAIN 1.94 dB REM REPLAYGAIN_TRACK_PEAK 0.929932 INDEX 00 13:48:36FILE "02 - II-Un bal.flac" WAVE INDEX 01 00:00:00 TRACK 03 AUDIO TITLE "III-Scene aux champs" ISRC DEU240621483 REM REPLAYGAIN_TRACK_GAIN 5.74 dB REM REPLAYGAIN_TRACK_PEAK 0.730011 INDEX 00 06:24:08FILE "03 - III-Scene aux champs.flac" WAVE INDEX 01 00:00:00 TRACK 04 AUDIO TITLE "IV-Marche au supplice" ISRC DEU240621484 REM REPLAYGAIN_TRACK_GAIN 1.46 dB REM REPLAYGAIN_TRACK_PEAK 0.977783 INDEX 00 15:48:42FILE "04 - IV-Marche au supplice.flac" WAVE INDEX 01 00:00:00 TRACK 05 AUDIO TITLE "V-Songe nuit Sabbat" ISRC DEU240621485 REM REPLAYGAIN_TRACK_GAIN 1.00 dB REM REPLAYGAIN_TRACK_PEAK 0.680420 INDEX 00 04:30:58FILE "05 - V-Songe nuit Sabbat.flac" WAVE INDEX 01 00:00:00 TRACK 06 AUDIO TITLE "Wagner - Meistersinger Nurnberg Suite-I-Prelude to Act III" ISRC DEU240621486 REM REPLAYGAIN_TRACK_GAIN 12.21 dB REM REPLAYGAIN_TRACK_PEAK 0.301605 INDEX 00 09:29:38FILE "06 - Wagner - Meistersinger Nurnberg Suite-I-Prelude to Act III.flac" WAVE INDEX 01 00:00:00FILE "07 - II-Dance of the Apprentices.flac" WAVE TRACK 07 AUDIO TITLE "II-Dance of the Apprentices" ISRC DEU240621487 REM REPLAYGAIN_TRACK_GAIN 2.74 dB REM REPLAYGAIN_TRACK_PEAK 0.564514 INDEX 01 00:00:00FILE "08 - III-Entry of the Masters.flac" WAVE TRACK 08 AUDIO TITLE "III-Entry of the Masters" ISRC DEU240621488 REM REPLAYGAIN_TRACK_GAIN 0.05 dB REM REPLAYGAIN_TRACK_PEAK 0.771027 INDEX 01 00:00:00

CD5

TITLE "Barbirolli - Chopin Bruch CD5"PERFORMER "Barbirolli, Rubinstein, Milstein"REM GENRE "Classical"REM DATE "2006"REM DISCNUMBER 5REM TOTALDISCS 10REM DISCID 4D0D6C06REM REPLAYGAIN_ALBUM_GAIN 2.61 dBREM REPLAYGAIN_ALBUM_PEAK 0.942322FILE "01 - Chopin - Piano Concerto 1-I-Allegro maestoso.flac" WAVE TRACK 01 AUDIO TITLE "Chopin - Piano Concerto 1-I-Allegro maestoso" ISRC DEU240621489 REM REPLAYGAIN_TRACK_GAIN 1.69 dB REM REPLAYGAIN_TRACK_PEAK 0.942322 INDEX 01 00:00:00 TRACK 02 AUDIO TITLE "II-Romance Larghetto" ISRC DEU240621490 REM REPLAYGAIN_TRACK_GAIN 8.87 dB REM REPLAYGAIN_TRACK_PEAK 0.422760 INDEX 00 15:36:07FILE "02 - II-Romance Larghetto.flac" WAVE INDEX 01 00:00:00 TRACK 03 AUDIO TITLE "III-Rondo Vivace" ISRC DEU240621491 REM REPLAYGAIN_TRACK_GAIN 7.08 dB REM REPLAYGAIN_TRACK_PEAK 0.809113 INDEX 00 09:20:73FILE "03 - III-Rondo Vivace.flac" WAVE INDEX 01 00:00:00 TRACK 04 AUDIO TITLE "Bruch - Violin Concerto in G minor-I-Prelude Allegro moderato" ISRC DEU240621492 REM REPLAYGAIN_TRACK_GAIN 0.99 dB REM REPLAYGAIN_TRACK_PEAK 0.637482 INDEX 00 08:09:72FILE "04 - Bruch - Violin Concerto in G minor-I-Prelude Allegro moderato.flac" WAVE INDEX 01 00:00:00FILE "05 - II-Adagio.flac" WAVE TRACK 05 AUDIO TITLE "II-Adagio" ISRC DEU240621493 REM REPLAYGAIN_TRACK_GAIN 3.27 dB REM REPLAYGAIN_TRACK_PEAK 0.477356 INDEX 01 00:00:00FILE "06 - III-Finale.flac" WAVE TRACK 06 AUDIO TITLE "III-Finale" ISRC DEU240621494 REM REPLAYGAIN_TRACK_GAIN 1.99 dB REM REPLAYGAIN_TRACK_PEAK 0.571106 INDEX 01 00:00:00

CD6

TITLE "Barbirolli - Schumann Brahms CD6"PERFORMER "Barbirolli, Kreisler"REM GENRE "Classical"REM DATE "2006"REM DISCNUMBER 6REM TOTALDISCS 10REM DISCID 560FA207REM REPLAYGAIN_ALBUM_GAIN 0.31 dBREM REPLAYGAIN_ALBUM_PEAK 0.979126FILE "01 - Svhumann - Sym 4 in D minor op20-I-Ziemlich langsam Lebhaft.flac" WAVE TRACK 01 AUDIO TITLE "Svhumann - Sym 4 in D minor op20-I-Ziemlich langsam Lebhaft" ISRC DEU240621495 REM REPLAYGAIN_TRACK_GAIN -0.72 dB REM REPLAYGAIN_TRACK_PEAK 0.816284 INDEX 01 00:00:00 TRACK 02 AUDIO TITLE "II-Romanze Ziemlich langsam" ISRC DEU240621496 REM REPLAYGAIN_TRACK_GAIN 2.68 dB REM REPLAYGAIN_TRACK_PEAK 0.850189 INDEX 00 09:58:62FILE "02 - II-Romanze Ziemlich langsam.flac" WAVE INDEX 01 00:00:00 TRACK 03 AUDIO TITLE "III-Scherzo Lebhaft" ISRC DEU240621497 REM REPLAYGAIN_TRACK_GAIN -0.31 dB REM REPLAYGAIN_TRACK_PEAK 0.858276 INDEX 00 04:39:01FILE "03 - III-Scherzo Lebhaft.flac" WAVE INDEX 01 00:00:00FILE "04 - IV-Langsam Lebhaft.flac" WAVE TRACK 04 AUDIO TITLE "IV-Langsam Lebhaft" ISRC DEU240621498 REM REPLAYGAIN_TRACK_GAIN -1.27 dB REM REPLAYGAIN_TRACK_PEAK 0.979126 INDEX 01 00:00:00 TRACK 05 AUDIO TITLE "Brahms - Violin Concerto in D major op 77-I-Allegro" ISRC DEU240621499 REM REPLAYGAIN_TRACK_GAIN 6.12 dB REM REPLAYGAIN_TRACK_PEAK 0.517303 INDEX 00 09:59:29FILE "05 - Brahms - Violin Concerto in D major op 77-I-Allegro.flac" WAVE INDEX 01 00:00:00 TRACK 06 AUDIO TITLE "II-Adagio" ISRC DEU240621500 REM REPLAYGAIN_TRACK_GAIN 6.28 dB REM REPLAYGAIN_TRACK_PEAK 0.543518 INDEX 00 20:42:53FILE "06 - II-Adagio.flac" WAVE INDEX 01 00:00:00 TRACK 07 AUDIO TITLE "III-Allegro giocoso" ISRC DEU240621501 REM REPLAYGAIN_TRACK_GAIN -1.01 dB REM REPLAYGAIN_TRACK_PEAK 0.966553 INDEX 00 08:17:31FILE "07 - III-Allegro giocoso.flac" WAVE INDEX 01 00:00:00

CD7

TITLE "Barbirolli - Mozart Vieuxtemps Wieniawski CD7"PERFORMER "Barbirolli, Heifetz"REM GENRE "Classical"REM DATE "2006"REM DISCNUMBER 7REM TOTALDISCS 10REM DISCID 8010270AREM REPLAYGAIN_ALBUM_GAIN 3.78 dBREM REPLAYGAIN_ALBUM_PEAK 0.991486FILE "01 - Mozart - Violin Concerto 5 KV219-I-Allegro aperto.flac" WAVE TRACK 01 AUDIO TITLE "Mozart - Violin Concerto 5 KV219-I-Allegro aperto" ISRC DEU240621502 REM REPLAYGAIN_TRACK_GAIN 2.57 dB REM REPLAYGAIN_TRACK_PEAK 0.663086 INDEX 01 00:00:00 TRACK 02 AUDIO TITLE "II-Adagio" ISRC DEU240621503 REM REPLAYGAIN_TRACK_GAIN 9.24 dB REM REPLAYGAIN_TRACK_PEAK 0.321991 INDEX 00 09:51:37FILE "02 - II-Adagio.flac" WAVE INDEX 01 00:00:00 TRACK 03 AUDIO TITLE "III-Rondo Tempo di Menutto Allegro" ISRC DEU240621504 REM REPLAYGAIN_TRACK_GAIN 2.31 dB REM REPLAYGAIN_TRACK_PEAK 0.707336 INDEX 00 10:44:60FILE "03 - III-Rondo Tempo di Menutto Allegro.flac" WAVE INDEX 01 00:00:00 TRACK 04 AUDIO TITLE "Vieuxtemps - Violin Concerto 4 op31-I-Andante Moderato Cadenz" ISRC DEU240621505 REM REPLAYGAIN_TRACK_GAIN 1.89 dB REM REPLAYGAIN_TRACK_PEAK 0.945587 INDEX 00 06:35:45FILE "04 - Vieuxtemps - Violin Concerto 4 op31-I-Andante Moderato Cadenz.flac" WAVE INDEX 01 00:00:00FILE "05 - II-Adagio religioso.flac" WAVE TRACK 05 AUDIO TITLE "II-Adagio religioso" ISRC DEU240621506 REM REPLAYGAIN_TRACK_GAIN 3.84 dB REM REPLAYGAIN_TRACK_PEAK 0.720825 INDEX 01 00:00:00 TRACK 06 AUDIO TITLE "III-Scherzo Vivace" ISRC DEU240621507 REM REPLAYGAIN_TRACK_GAIN 3.74 dB REM REPLAYGAIN_TRACK_PEAK 0.553802 INDEX 00 06:09:69FILE "06 - III-Scherzo Vivace.flac" WAVE INDEX 01 00:00:00 TRACK 07 AUDIO TITLE "IV-Finale Allegro" ISRC DEU240621508 REM REPLAYGAIN_TRACK_GAIN 3.04 dB REM REPLAYGAIN_TRACK_PEAK 0.578613 INDEX 00 04:09:45FILE "07 - IV-Finale Allegro.flac" WAVE INDEX 01 00:00:00 TRACK 08 AUDIO TITLE "Wieniawski - Violin Concerto 2 op22-I-Allegro moderato" ISRC DEU240621509 REM REPLAYGAIN_TRACK_GAIN 4.03 dB REM REPLAYGAIN_TRACK_PEAK 0.840393 INDEX 00 05:57:63FILE "08 - Wieniawski - Violin Concerto 2 op22-I-Allegro moderato.flac" WAVE INDEX 01 00:00:00FILE "09 - II-Romnace Andante non troppo.flac" WAVE TRACK 09 AUDIO TITLE "II-Romnace Andante non troppo" ISRC DEU240621510 REM REPLAYGAIN_TRACK_GAIN 10.59 dB REM REPLAYGAIN_TRACK_PEAK 0.455261 INDEX 01 00:00:00 TRACK 10 AUDIO TITLE "III-Allegro con fuoco Cadenza Allegro moderato" ISRC DEU240621511 REM REPLAYGAIN_TRACK_GAIN 4.57 dB REM REPLAYGAIN_TRACK_PEAK 0.991486 INDEX 00 05:15:48FILE "10 - III-Allegro con fuoco Cadenza Allegro moderato.flac" WAVE INDEX 01 00:00:00

CD8

TITLE "Barbirolli - Tchaikovsky, Glazunov CD8"PERFORMER "Barbirolli, Heifetz"REM GENRE "Classical"REM DATE "2001"REM DISCNUMBER 8REM TOTALDISCS 10REM DISCID 5D0E3408REM REPLAYGAIN_ALBUM_GAIN 2.59 dBREM REPLAYGAIN_ALBUM_PEAK 0.971985FILE "01 - Violin Concerto in D major Op. 35 - I. Allegro moderato.flac" WAVE TRACK 01 AUDIO TITLE "Violin Concerto in D major Op. 35 - I. Allegro moderato" ISRC DEU240621512 REM REPLAYGAIN_TRACK_GAIN 2.36 dB REM REPLAYGAIN_TRACK_PEAK 0.871643 INDEX 01 00:00:00 TRACK 02 AUDIO TITLE "Violin Concerto in D major Op. 35 - II. Canzonetta. Andante" ISRC DEU240621513 REM REPLAYGAIN_TRACK_GAIN 11.56 dB REM REPLAYGAIN_TRACK_PEAK 0.248932 INDEX 00 16:47:46FILE "02 - Violin Concerto in D major Op. 35 - II. Canzonetta. Andante.flac" WAVE INDEX 01 00:00:00FILE "03 - Violin Concerto in D major Op. 35 - II. Finale Allegro Vivascimmo.flac" WAVE TRACK 03 AUDIO TITLE "Violin Concerto in D major Op. 35 - II. Finale Allegro Vivascimmo" ISRC DEU240621514 REM REPLAYGAIN_TRACK_GAIN 7.24 dB REM REPLAYGAIN_TRACK_PEAK 0.531555 INDEX 01 00:00:00 TRACK 04 AUDIO TITLE "Violin Concerto in A minor Op. 82 - I. Moderato" ISRC DEU240621515 REM REPLAYGAIN_TRACK_GAIN 4.24 dB REM REPLAYGAIN_TRACK_PEAK 0.719269 INDEX 00 08:30:57FILE "04 - Violin Concerto in A minor Op. 82 - I. Moderato.flac" WAVE INDEX 01 00:00:00FILE "05 - Violin Concerto in A minor Op. 82 - II. Andante.flac" WAVE TRACK 05 AUDIO TITLE "Violin Concerto in A minor Op. 82 - II. Andante" ISRC DEU240621516 REM REPLAYGAIN_TRACK_GAIN 2.50 dB REM REPLAYGAIN_TRACK_PEAK 0.815063 INDEX 01 00:00:00FILE "06 - Violin Concerto in A minor Op. 82 - III. Cadenza.flac" WAVE TRACK 06 AUDIO TITLE "Violin Concerto in A minor Op. 82 - III. Cadenza" ISRC DEU240621517 REM REPLAYGAIN_TRACK_GAIN 5.57 dB REM REPLAYGAIN_TRACK_PEAK 0.326996 INDEX 01 00:00:00FILE "07 - Violin Concerto in A minor Op. 82 - IV. Animando.flac" WAVE TRACK 07 AUDIO TITLE "Violin Concerto in A minor Op. 82 - IV. Animando" ISRC DEU240621518 REM REPLAYGAIN_TRACK_GAIN -1.03 dB REM REPLAYGAIN_TRACK_PEAK 0.971985 INDEX 01 00:00:00 TRACK 08 AUDIO TITLE "Havanaise Op. 83" ISRC DEU240621519 REM REPLAYGAIN_TRACK_GAIN 0.93 dB REM REPLAYGAIN_TRACK_PEAK 0.738861 INDEX 00 05:43:40FILE "08 - Havanaise Op. 83.flac" WAVE INDEX 01 00:00:00

CD9

TITLE "Barbirolli - Grieg, Sibelius CD9"PERFORMER "Barbirolli, Backhaus"REM GENRE "Classical"REM DATE "2006"REM DISCNUMBER 9REM TOTALDISCS 10REM DISCID 560F4607REM REPLAYGAIN_ALBUM_GAIN 0.13 dBREM REPLAYGAIN_ALBUM_PEAK 0.967346FILE "01 - Grieg - Piano Concerto op16-I-Allegro molto moderato.flac" WAVE TRACK 01 AUDIO TITLE "Grieg - Piano Concerto op16-I-Allegro molto moderato" ISRC DEU240621520 REM REPLAYGAIN_TRACK_GAIN 2.29 dB REM REPLAYGAIN_TRACK_PEAK 0.883087 INDEX 01 00:00:00 TRACK 02 AUDIO TITLE "II-Adagio" ISRC DEU240621521 REM REPLAYGAIN_TRACK_GAIN 5.91 dB REM REPLAYGAIN_TRACK_PEAK 0.524811 INDEX 00 12:09:61FILE "02 - II-Adagio.flac" WAVE INDEX 01 00:00:00 TRACK 03 AUDIO TITLE "III-Allegro moderato molto e marcato" ISRC DEU240621522 REM REPLAYGAIN_TRACK_GAIN -1.22 dB REM REPLAYGAIN_TRACK_PEAK 0.967346 INDEX 00 04:51:49FILE "03 - III-Allegro moderato molto e marcato.flac" WAVE INDEX 01 00:00:00 TRACK 04 AUDIO TITLE "Sibelius - Sym 2 op43-I-Allegretto" ISRC DEU240621523 REM REPLAYGAIN_TRACK_GAIN 0.37 dB REM REPLAYGAIN_TRACK_PEAK 0.673737 INDEX 00 09:04:50FILE "04 - Sibelius - Sym 2 op43-I-Allegretto.flac" WAVE INDEX 01 00:00:00 TRACK 05 AUDIO TITLE "II-Tempo andante ma rubato" ISRC DEU240621524 REM REPLAYGAIN_TRACK_GAIN 1.57 dB REM REPLAYGAIN_TRACK_PEAK 0.605804 INDEX 00 08:18:61FILE "05 - II-Tempo andante ma rubato.flac" WAVE INDEX 01 00:00:00 TRACK 06 AUDIO TITLE "III-Vivacissimo" ISRC DEU240621525 REM REPLAYGAIN_TRACK_GAIN 1.09 dB REM REPLAYGAIN_TRACK_PEAK 0.563995 INDEX 00 12:30:27FILE "06 - III-Vivacissimo.flac" WAVE INDEX 01 00:00:00FILE "07 - IV-Allegro moderato.flac" WAVE TRACK 07 AUDIO TITLE "IV-Allegro moderato" ISRC DEU240621526 REM REPLAYGAIN_TRACK_GAIN -1.41 dB REM REPLAYGAIN_TRACK_PEAK 0.703674 INDEX 01 00:00:00

CD10

TITLE "Barbirolli - Respighi, Vaughan Williams, Stravinsky CD10"PERFORMER "Barbirolli"REM GENRE "Classical"REM DATE "2006"REM DISCNUMBER 10REM TOTALDISCS 10REM DISCID 8E0EC80BREM REPLAYGAIN_ALBUM_GAIN 2.75 dBREM REPLAYGAIN_ALBUM_PEAK 0.942841FILE "01 - Respighi - Fontane di Roma-I-Valle Giulia all alba.flac" WAVE TRACK 01 AUDIO TITLE "Respighi - Fontane di Roma-I-Valle Giulia all alba" ISRC DEU240621527 REM REPLAYGAIN_TRACK_GAIN 10.75 dB REM REPLAYGAIN_TRACK_PEAK 0.323975 INDEX 01 00:00:00FILE "02 - II-Tritone al mattino.flac" WAVE TRACK 02 AUDIO TITLE "II-Tritone al mattino" ISRC DEU240621528 REM REPLAYGAIN_TRACK_GAIN -0.65 dB REM REPLAYGAIN_TRACK_PEAK 0.897766 INDEX 01 00:00:00FILE "03 - III-Trevi al meriggio.flac" WAVE TRACK 03 AUDIO TITLE "III-Trevi al meriggio" ISRC DEU240621529 REM REPLAYGAIN_TRACK_GAIN -1.79 dB REM REPLAYGAIN_TRACK_PEAK 0.860168 INDEX 01 00:00:00FILE "04 - IV-Villa Medici al tramonto.flac" WAVE TRACK 04 AUDIO TITLE "IV-Villa Medici al tramonto" ISRC DEU240621530 REM REPLAYGAIN_TRACK_GAIN 11.24 dB REM REPLAYGAIN_TRACK_PEAK 0.409973 INDEX 01 00:00:00 TRACK 05 AUDIO TITLE "Vaughan-Williams - Sym 5 in D major-I-Preludio" ISRC DEU240621531 REM REPLAYGAIN_TRACK_GAIN 2.72 dB REM REPLAYGAIN_TRACK_PEAK 0.603058 INDEX 00 05:10:09FILE "05 - Vaughan-Williams - Sym 5 in D major-I-Preludio.flac" WAVE INDEX 01 00:00:00 TRACK 06 AUDIO TITLE "II-Scherzo" ISRC DEU240621532 REM REPLAYGAIN_TRACK_GAIN 9.17 dB REM REPLAYGAIN_TRACK_PEAK 0.499054 INDEX 00 11:17:12FILE "06 - II-Scherzo.flac" WAVE INDEX 01 00:00:00 TRACK 07 AUDIO TITLE "III-Romanza" ISRC DEU240621533 REM REPLAYGAIN_TRACK_GAIN 4.92 dB REM REPLAYGAIN_TRACK_PEAK 0.536835 INDEX 00 04:18:34FILE "07 - III-Romanza.flac" WAVE INDEX 01 00:00:00 TRACK 08 AUDIO TITLE "IV-Passacaglia" ISRC DEU240621534 REM REPLAYGAIN_TRACK_GAIN 2.40 dB REM REPLAYGAIN_TRACK_PEAK 0.597290 INDEX 00 11:10:48FILE "08 - IV-Passacaglia.flac" WAVE INDEX 01 00:00:00 TRACK 09 AUDIO TITLE "Stravinsky - Concerto in D-I-Vivace" ISRC DEU240621535 REM REPLAYGAIN_TRACK_GAIN 6.53 dB REM REPLAYGAIN_TRACK_PEAK 0.555511 INDEX 00 09:08:03FILE "09 - Stravinsky - Concerto in D-I-Vivace.flac" WAVE INDEX 01 00:00:00 TRACK 10 AUDIO TITLE "II-Arioso Andantino" ISRC DEU240621536 REM REPLAYGAIN_TRACK_GAIN 11.94 dB REM REPLAYGAIN_TRACK_PEAK 0.221344 INDEX 00 05:40:59FILE "10 - II-Arioso Andantino.flac" WAVE INDEX 01 00:00:00 TRACK 11 AUDIO TITLE "III-Rondo Allegro" ISRC DEU240621537 REM REPLAYGAIN_TRACK_GAIN 5.02 dB REM REPLAYGAIN_TRACK_PEAK 0.942841 INDEX 00 03:19:35FILE "11 - III-Rondo Allegro.flac" WAVE INDEX 01 00:00:00
[teatrix.ru].t10020.torrent 
Торрент: Зарегистрирован [ 2015-10-25 20:37 ] · 501BA4B7A4F12249800DD3F762A954C81AB09DF1

Скачать .torrent

Скачать

20 KB

Статус: проверено
Скачан: 0 раз
Размер: 2.11 GB
terms.php



Быстрый ответ

Имя:

      
Для отправки сообщений необходимо включить JavaScript
Показать сообщения:    

Текущее время: 11-Дек 01:23

Часовой пояс: UTC + 3


Вы можете начинать темы
Вы можете отвечать на сообщения
Вы не можете редактировать свои сообщения
Вы не можете удалять свои сообщения
Вы не можете голосовать в опросах
Вы не можете прикреплять файлы к сообщениям
Вы можете скачивать файлы