(Classical) Martha Argerich - The Collection 2 - The Concerto Recordings (Прокофьев, Ravel, Chopin, Liszt, Чайковский, Mendelssohn, Schumann, Beethoven, Шостакович, Haydn)(Abbado, Dutoit, Ростропович, Sinopoli)[7CD]- 2009, FLAC (tracks+.cue) lossless


Статистика раздачи [Обновить пиров]
Размер:  1.78 GB   |    Зарегистрирован:  1 год 1 месяц   |    Скачан:  1 раз

Полного источника не было: 15 дней

 
   
 
 
 

[Цитировать]

Martha Argerich - The Collection 2 - The Concerto Recordings
Жанр: Classical
Страна-производитель диска: EU
Год издания диска: 2009
Издатель (лейбл): Deutsche Grammophon
Номер по каталогу: 477 8124
Дата записи: 1967-2004
Аудиокодек: FLAC
Тип рипа: tracks+.cue
Битрейт аудио: lossless
Продолжительность: 7:42:25
Источник: what.cd (inspectorbucket)
Наличие сканов в содержимом раздачи: нет
Треклист:

CD1 - Sergei Prokofiev - Piano Concerto No.3; Maurice Ravel - Piano Concerto

Sergei Prokofiev (1891 - 1953)
Piano Concerto No.3 in C, Op.26
1. I. Andante - Allegro 9:01
2. II. Tema con variazione 9:03
3. III. Allegro ma non troppo 9:01
Maurice Ravel (1875 - 1937)
Piano Concerto in G
4. I. Allegramente 8:09
5. II. Adagio assai 9:03
6. III. Presto 3:55
Recording date: June 1967
Berliner Philharmoniker
Conductor: Claudio Abbado

CD2 - Frederic Chopin - Piano Concerto No.1; Franz Liszt - Piano Concerto No.1; Maurice Ravel - Piano Concerto

Frederic Chopin (1810 - 1849)
Piano Concerto No.1 in E minor, Op.11
1. I. Allegro maestoso 18:57
2. II. Romance (Larghetto) 9:58
3. III. Rondo (Vivace) 9:03
Recording date: February 1968
Franz Liszt (1811 - 1886)
Piano Concerto No.1 in E flat, S.124
4. I. Allegro maestoso 5:09
5. II. Quasi adagio - Allegretto vivace - Allegro animato 8:26
6. III. Allegro marziale animato 4:01
Recording date: February 1968
Maurice Ravel (1875 - 1937)
Piano Concerto in G
7. I. Allegramente 8:43
8. II. Adagio assai 9:33
9. III. Presto 3:57
Recording date: February 1984
London Symphony Orchestra
Conductor: Claudio Abbado

CD3 - Pyotr Tchaikovsky - Piano Concerto No.1; Felix Mendelssohn - Concerto for Violin, Piano and Strings

Pyotr Tchaikovsky (1840 - 1893)
Piano Concerto No.1 in B flat minor, Op.23
1. I. Allegro non troppo e molto maestoso - Allegro con spirito 21:16
2. II. Andantino semplice - Prestissimo - Tempo I 7:31
3. III. Allegro con fuoco 6:52
Recording date: December 1970
Royal Philharmonic Orchestra
Conductor: Charles Dutoit
Felix Mendelssohn (1809 - 1847)
Concerto for Violin, Piano and Strings in D minor
4. I. Allegro 18:27
5. II. Adagio 9:12
6. III. Allegro molto 9:00
Recording date: May 1988
Gidon Kremer, violin
Orpheus Chamber Orchestra

CD4 - Robert Schumann - Piano Concerto; Frederic Chopin - Piano Concerto No.2

Robert Schumann (1810 - 1856)
Piano Concerto in A minor, Op.54
1. I. Allegro affettuoso 14:24
2. II. Intermezzo (Andantino grazioso) 5:09
3. III. Allegro vivace 10:11
Frederic Chopin (1810 - 1849)
Piano Concerto No.2 in F minor, Op.21
4. I. Maestoso 14:02
5. II. Larghetto 8:50
6. III. Allegro vivace 7:56
Recording date: January 1978
National Symphony Orchestra Washington
Conductor: Mstislav Rostropovich

CD5 - Ludwig van Beethoven - Piano Concertos Nos. 1 & 2

Ludwig van Beethoven (1770 - 1827)
Piano Concerto No.1 in C major, Op.15
1. I. Allegro con brio - Cadenza: Ludwig van Beethoven 14:10
2. II. Largo 12:05
3. III. Rondo (Allegro scherzando) 8:58
Piano Concerto No.2 in B flat major, Op.19
4. I. Allegro con brio - Cadenza: Ludwig van Beethoven 14:09
5. II. Adagio 9:53
6. III. Rondo (Molto allegro) 6:03
Recording date: May 1985
Philharmonia Orchestra
Conductor: Giuseppe Sinopoli

CD6 - Dmitri Shostakovich - Concerto for Piano and String Orchestra; Joseph Haydn - Concerto for Harpsichord and Orchestra; Pyotr Tchaikovsky - Piano Concerto No.1

Dmitri Shostakovich (1906 - 1975)
Concerto for Piano and String Orchestra Op.35
1. I. Allegro moderato 6:06
2. II. Lento 8:23
3. III. Moderato 1:43
4. IV. Allegro brio 6:31
Recording date: January 1993
Guy Touvron, Trumpet
Württembergisches Kammerorchester Heilbronn
Conductor: Jörg Faerber
Franz Joseph Haydn (1732 - 1809)
Concerto for Harpsichord and Orchestra in D major, Hob.XVIII:11
5. I. Vivace 7:28
6. II. Un poco Adagio - Cadenza: Wanda Landowska 7:22
7. III. Rondo all'Ungarese: Allegro assai 4:00
Recording date: January 1993
Württembergisches Kammerorchester Heilbronn
Conductor: Jörg Faerber
Pyotr Tchaikovsky (1840 - 1893)
Piano Concerto No.1 in B flat minor, Op.23
8. I. Allegro non troppo e molto maestoso - Allegro con spirito 19:12
9. II. Andantino semplice - Prestissimo - Tempo I 6:30
10. III. Allegro con fuoco 6:19
Recording date: December 1994

Berliner Philharmoniker

Conductor: Claudio Abbado

CD7 - Ludwig van Beethoven - Piano Concertos Nos. 3 & 2

Ludwig van Beethoven (1770 - 1827)
Piano Concerto No.3 in C minor, Op.37
1. I. Allegro con brio - Cadenza: Beethoven 16:11
2. II. Largo 10:21
3. III. Rondo (Allegro) 9:10
Recording date: February 2004
Piano Concerto No.2 in B flat major, Op.19
4. I. Allegro con brio - Cadenza: Ludwig van Beethoven 13:20
5. II. Adagio 8:49
6. III. Rondo (Molto allegro) 6:03
Recording date: March 2000
Mahler Chamber Orchestra
Conductor: Claudio Abbado
Исполнители:
Martha Argerich, piano

Лог создания рипаCD1

X Lossless Decoder version 20111113 (137.1)
XLD extraction logfile from 2011-12-21 21:40:25 +0000
Martha Argerich; Claudio Abbado: Berlin Philharmonic Orchestra / Argerich Collection 2 - The Concerto Recordings [Disc 1]
Used drive : MATSHITA DVD-R UJ-898 (revision HC10)
Ripper mode : XLD Secure RipperDisable audio cache : OK for the drive with a cache less than 1375KiBMake use of C2 pointers : NORead offset correction : 102Max retry count : 20Gap status : Analyzed, Appended (except HTOA)
TOC of the extracted CD Track | Start | Length | Start sector | End sector --------------------------------------------------------- 1 | 00:00:00 | 09:01:00 | 0 | 40574 2 | 09:01:00 | 09:03:00 | 40575 | 81299 3 | 18:04:00 | 09:07:23 | 81300 | 122347 4 | 27:11:23 | 08:08:50 | 122348 | 158997 5 | 35:19:73 | 09:03:00 | 158998 | 199722 6 | 44:22:73 | 03:55:32 | 199723 | 217379
AccurateRip Summary Track 01 : OK (AR2, confidence 5) Track 02 : OK (AR2, confidence 6) Track 03 : OK (AR2, confidence 6) Track 04 : OK (AR2, confidence 6) Track 05 : OK (AR2, confidence 6) Track 06 : OK (AR2, confidence 6) ->All tracks accurately ripped.
All Tracks Album gain : -0.61 dB Peak : 0.993317 Statistics Read error : 0 Jitter error (maybe fixed) : 0 Retry sector count : 0 Damaged sector count : 0
Track 01 Filename : /Users/WYate/Desktop/What.CD Torrents/Martha Argerich; Claudio Abbadoпјљ Berlin Philharmonic Orchestra - Argerich Collection 2 - The Concerto Recordings [Disc 1] (2009) [FLAC]/01 Prokofievпјљ Piano Concerto #3 In C, Op. 26 - 1. Andante, Allegro.flac Pre-gap length : 00:02:00
Track gain : -1.39 dB Peak : 0.982941 CRC32 hash (test run) : 94690DF0 CRC32 hash : 94690DF0 CRC32 hash (skip zero) : 71DCBE24 AccurateRip signature : 724F5305 ->Accurately ripped! (AR2, confidence 5) Statistics Read error : 0 Jitter error (maybe fixed) : 0 Retry sector count : 0 Damaged sector count : 0
Track 02 Filename : /Users/WYate/Desktop/What.CD Torrents/Martha Argerich; Claudio Abbadoпјљ Berlin Philharmonic Orchestra - Argerich Collection 2 - The Concerto Recordings [Disc 1] (2009) [FLAC]/02 Prokofievпјљ Piano Concerto #3 In C, Op. 26 - 2. Theme & Variations.flac
Track gain : -0.79 dB Peak : 0.873474 CRC32 hash (test run) : D7D258B8 CRC32 hash : D7D258B8 CRC32 hash (skip zero) : CA898CD9 AccurateRip signature : 300E1636 ->Accurately ripped! (AR2, confidence 6) Statistics Read error : 0 Jitter error (maybe fixed) : 0 Retry sector count : 0 Damaged sector count : 0
Track 03 Filename : /Users/WYate/Desktop/What.CD Torrents/Martha Argerich; Claudio Abbadoпјљ Berlin Philharmonic Orchestra - Argerich Collection 2 - The Concerto Recordings [Disc 1] (2009) [FLAC]/03 Prokofievпјљ Piano Concerto #3 In C, Op. 26 - 3. Allegro Ma Non Troppo.flac
Track gain : -1.40 dB Peak : 0.993317 CRC32 hash (test run) : 69C8A83B CRC32 hash : 69C8A83B CRC32 hash (skip zero) : 0EC7A4B6 AccurateRip signature : FFE645B3 ->Accurately ripped! (AR2, confidence 6) Statistics Read error : 0 Jitter error (maybe fixed) : 0 Retry sector count : 0 Damaged sector count : 0
Track 04 Filename : /Users/WYate/Desktop/What.CD Torrents/Martha Argerich; Claudio Abbadoпјљ Berlin Philharmonic Orchestra - Argerich Collection 2 - The Concerto Recordings [Disc 1] (2009) [FLAC]/04 Ravelпјљ Piano Concerto In G - 1. Allegramente.flac Pre-gap length : 00:06:27
Track gain : 0.84 dB Peak : 0.926483 CRC32 hash (test run) : 3E1BEE01 CRC32 hash : 3E1BEE01 CRC32 hash (skip zero) : 067657FA AccurateRip signature : 0392F564 ->Accurately ripped! (AR2, confidence 6) Statistics Read error : 0 Jitter error (maybe fixed) : 0 Retry sector count : 0 Damaged sector count : 0
Track 05 Filename : /Users/WYate/Desktop/What.CD Torrents/Martha Argerich; Claudio Abbadoпјљ Berlin Philharmonic Orchestra - Argerich Collection 2 - The Concerto Recordings [Disc 1] (2009) [FLAC]/05 Ravelпјљ Piano Concerto In G - 2. Adagio Assai.flac
Track gain : 8.93 dB Peak : 0.669067 CRC32 hash (test run) : BA62DF33 CRC32 hash : BA62DF33 CRC32 hash (skip zero) : 569BEF49 AccurateRip signature : 01247584 ->Accurately ripped! (AR2, confidence 6) Statistics Read error : 0 Jitter error (maybe fixed) : 0 Retry sector count : 0 Damaged sector count : 0
Track 06 Filename : /Users/WYate/Desktop/What.CD Torrents/Martha Argerich; Claudio Abbadoпјљ Berlin Philharmonic Orchestra - Argerich Collection 2 - The Concerto Recordings [Disc 1] (2009) [FLAC]/06 Ravelпјљ Piano Concerto In G - 3. Presto.flac
Track gain : -1.16 dB Peak : 0.992828 CRC32 hash (test run) : 642EFF8D CRC32 hash : 642EFF8D CRC32 hash (skip zero) : DBFCE512 AccurateRip signature : 5118449F ->Accurately ripped! (AR2, confidence 6) Statistics Read error : 0 Jitter error (maybe fixed) : 0 Retry sector count : 0 Damaged sector count : 0
No errors occurred
End of status report

CD2

X Lossless Decoder version 20111113 (137.1)
XLD extraction logfile from 2011-12-21 21:56:27 +0000
Martha Argerich; Claudio Abbado: London Symphony Orchestra / Argerich Collection 2 - The Concerto Recordings [Disc 2]
Used drive : MATSHITA DVD-R UJ-898 (revision HC10)
Ripper mode : XLD Secure RipperDisable audio cache : OK for the drive with a cache less than 1375KiBMake use of C2 pointers : NORead offset correction : 102Max retry count : 20Gap status : Analyzed, Appended (except HTOA)
TOC of the extracted CD Track | Start | Length | Start sector | End sector --------------------------------------------------------- 1 | 00:00:00 | 18:57:34 | 0 | 85308 2 | 18:57:34 | 09:58:00 | 85309 | 130158 3 | 28:55:34 | 09:07:74 | 130159 | 171257 4 | 38:03:33 | 05:08:65 | 171258 | 194422 5 | 43:12:23 | 08:26:00 | 194423 | 232372 6 | 51:38:23 | 04:06:11 | 232373 | 250833 7 | 55:44:34 | 08:43:35 | 250834 | 290093 8 | 64:27:69 | 09:32:58 | 290094 | 333051 9 | 74:00:52 | 03:56:48 | 333052 | 350799
AccurateRip Summary Track 01 : OK (AR2, confidence 6) Track 02 : OK (AR2, confidence 7) Track 03 : OK (AR2, confidence 7) Track 04 : OK (AR2, confidence 7) Track 05 : OK (AR2, confidence 7) Track 06 : OK (AR2, confidence 7) Track 07 : OK (AR2, confidence 7) Track 08 : OK (AR2, confidence 7) Track 09 : OK (AR2, confidence 7) ->All tracks accurately ripped.
All Tracks Album gain : -0.19 dB Peak : 0.986786 Statistics Read error : 0 Jitter error (maybe fixed) : 0 Retry sector count : 0 Damaged sector count : 0
Track 01 Filename : /Users/WYate/Desktop/What.CD Torrents/Martha Argerich; Claudio Abbadoпјљ London Symphony Orchestra - Argerich Collection 2 - The Concerto Recordings [Disc 2] (1968) [FLAC]/01 Chopinпјљ Piano Concerto #1 In E Minor, Op. 11 - 1. Allegro Maestoso.flac Pre-gap length : 00:02:00
Track gain : -1.80 dB Peak : 0.905762 CRC32 hash (test run) : 2CC0AC4E CRC32 hash : 2CC0AC4E CRC32 hash (skip zero) : 596D8706 AccurateRip signature : EFF0FD1C ->Accurately ripped! (AR2, confidence 6) Statistics Read error : 0 Jitter error (maybe fixed) : 0 Retry sector count : 0 Damaged sector count : 0
Track 02 Filename : /Users/WYate/Desktop/What.CD Torrents/Martha Argerich; Claudio Abbadoпјљ London Symphony Orchestra - Argerich Collection 2 - The Concerto Recordings [Disc 2] (1968) [FLAC]/02 Chopinпјљ Piano Concerto #1 In E Minor, Op. 11 - 2. Romance.flac
Track gain : 4.39 dB Peak : 0.645782 CRC32 hash (test run) : 97E824F8 CRC32 hash : 97E824F8 CRC32 hash (skip zero) : 4E827943 AccurateRip signature : 27073886 ->Accurately ripped! (AR2, confidence 7) Statistics Read error : 0 Jitter error (maybe fixed) : 0 Retry sector count : 0 Damaged sector count : 0
Track 03 Filename : /Users/WYate/Desktop/What.CD Torrents/Martha Argerich; Claudio Abbadoпјљ London Symphony Orchestra - Argerich Collection 2 - The Concerto Recordings [Disc 2] (1968) [FLAC]/03 Chopinпјљ Piano Concerto #1 In E Minor, Op. 11 - 3. RondГІ.flac
Track gain : -0.17 dB Peak : 0.823151 CRC32 hash (test run) : 903A0888 CRC32 hash : 903A0888 CRC32 hash (skip zero) : A184D050 AccurateRip signature : 77F2764D ->Accurately ripped! (AR2, confidence 7) Statistics Read error : 0 Jitter error (maybe fixed) : 0 Retry sector count : 0 Damaged sector count : 0
Track 04 Filename : /Users/WYate/Desktop/What.CD Torrents/Martha Argerich; Claudio Abbadoпјљ London Symphony Orchestra - Argerich Collection 2 - The Concerto Recordings [Disc 2] (1968) [FLAC]/04 Lisztпјљ Piano Concerto #1 In E Flat, S 124 - 1. Allegro Maestoso.flac Pre-gap length : 00:05:16
Track gain : -0.78 dB Peak : 0.867584 CRC32 hash (test run) : 768A0FBE CRC32 hash : 768A0FBE CRC32 hash (skip zero) : D5EDC357 AccurateRip signature : A59F3EA7 ->Accurately ripped! (AR2, confidence 7) Statistics Read error : 0 Jitter error (maybe fixed) : 0 Retry sector count : 0 Damaged sector count : 0
Track 05 Filename : /Users/WYate/Desktop/What.CD Torrents/Martha Argerich; Claudio Abbadoпјљ London Symphony Orchestra - Argerich Collection 2 - The Concerto Recordings [Disc 2] (1968) [FLAC]/05 Lisztпјљ Piano Concerto #1 In E Flat, S 124 - 2. Quasi Adagio; 3. Allegretto Vivace.flac
Track gain : -0.63 dB Peak : 0.949402 CRC32 hash (test run) : 825192C3 CRC32 hash : 825192C3 CRC32 hash (skip zero) : AABB9900 AccurateRip signature : 425C8316 ->Accurately ripped! (AR2, confidence 7) Statistics Read error : 0 Jitter error (maybe fixed) : 0 Retry sector count : 0 Damaged sector count : 0
Track 06 Filename : /Users/WYate/Desktop/What.CD Torrents/Martha Argerich; Claudio Abbadoпјљ London Symphony Orchestra - Argerich Collection 2 - The Concerto Recordings [Disc 2] (1968) [FLAC]/06 Lisztпјљ Piano Concerto #1 In E Flat, S 124 - 4. Allegro Marziale Animato.flac
Track gain : -1.80 dB Peak : 0.986786 CRC32 hash (test run) : A901BED9 CRC32 hash : A901BED9 CRC32 hash (skip zero) : 5287B0C2 AccurateRip signature : 1422C714 ->Accurately ripped! (AR2, confidence 7) Statistics Read error : 0 Jitter error (maybe fixed) : 0 Retry sector count : 0 Damaged sector count : 0
Track 07 Filename : /Users/WYate/Desktop/What.CD Torrents/Martha Argerich; Claudio Abbadoпјљ London Symphony Orchestra - Argerich Collection 2 - The Concerto Recordings [Disc 2] (1988) [FLAC]/07 Ravelпјљ Piano Concerto In G - 1. Allegramente.flac Pre-gap length : 00:05:11
Track gain : 0.59 dB Peak : 0.949524 CRC32 hash (test run) : C6185369 CRC32 hash : C6185369 CRC32 hash (skip zero) : 5374F75B AccurateRip signature : FF6DA90D ->Accurately ripped! (AR2, confidence 7) Statistics Read error : 0 Jitter error (maybe fixed) : 0 Retry sector count : 0 Damaged sector count : 0
Track 08 Filename : /Users/WYate/Desktop/What.CD Torrents/Martha Argerich; Claudio Abbadoпјљ London Symphony Orchestra - Argerich Collection 2 - The Concerto Recordings [Disc 2] (1988) [FLAC]/08 Ravelпјљ Piano Concerto In G - 2. Adagio Assai.flac
Track gain : 10.47 dB Peak : 0.745392 CRC32 hash (test run) : 8F21DE1F CRC32 hash : 8F21DE1F CRC32 hash (skip zero) : 6C6D67BD AccurateRip signature : B7F7A39D ->Accurately ripped! (AR2, confidence 7) Statistics Read error : 0 Jitter error (maybe fixed) : 0 Retry sector count : 0 Damaged sector count : 0
Track 09 Filename : /Users/WYate/Desktop/What.CD Torrents/Martha Argerich; Claudio Abbadoпјљ London Symphony Orchestra - Argerich Collection 2 - The Concerto Recordings [Disc 2] (1988) [FLAC]/09 Ravelпјљ Piano Concerto In G - 3. Presto.flac
Track gain : 0.08 dB Peak : 0.963593 CRC32 hash (test run) : DE1A2117 CRC32 hash : DE1A2117 CRC32 hash (skip zero) : 1C694109 AccurateRip signature : BC6FA86A ->Accurately ripped! (AR2, confidence 7) Statistics Read error : 0 Jitter error (maybe fixed) : 0 Retry sector count : 0 Damaged sector count : 0
No errors occurred
End of status report

CD3

X Lossless Decoder version 20111113 (137.1)
XLD extraction logfile from 2011-12-21 22:17:54 +0000
Various Artists / Argerich Collection 2 - The Concerto Recordings [Disc 3]
Used drive : MATSHITA DVD-R UJ-898 (revision HC10)
Ripper mode : XLD Secure RipperDisable audio cache : OK for the drive with a cache less than 1375KiBMake use of C2 pointers : NORead offset correction : 102Max retry count : 20Gap status : Analyzed, Appended (except HTOA)
TOC of the extracted CD Track | Start | Length | Start sector | End sector --------------------------------------------------------- 1 | 00:00:00 | 21:16:06 | 0 | 95705 2 | 21:16:06 | 07:31:00 | 95706 | 129530 3 | 28:47:06 | 06:56:66 | 129531 | 160796 4 | 35:43:72 | 18:26:64 | 160797 | 243810 5 | 54:10:61 | 09:12:13 | 243811 | 285223 6 | 63:22:74 | 08:59:41 | 285224 | 325689
AccurateRip Summary Track 01 : OK (AR2, confidence 6) Track 02 : OK (AR2, confidence 7) Track 03 : OK (AR2, confidence 7) Track 04 : OK (AR2, confidence 7) Track 05 : OK (AR2, confidence 7) Track 06 : OK (AR2, confidence 7) ->All tracks accurately ripped.
All Tracks Album gain : -1.60 dB Peak : 0.986816 Statistics Read error : 0 Jitter error (maybe fixed) : 0 Retry sector count : 0 Damaged sector count : 0
Track 01 Filename : /Users/WYate/Desktop/What.CD Torrents/Compilations - Argerich Collection 2 - The Concerto Recordings [Disc 3] (1970) [FLAC]/01 Tchaikovskyпјљ Piano Concerto #1 In B Flat Minor, Op. 23 - 1. Allegro Non Troppo E Molto Maestoso.flac Pre-gap length : 00:02:00
Track gain : -3.03 dB Peak : 0.985748 CRC32 hash (test run) : D4BD2764 CRC32 hash : D4BD2764 CRC32 hash (skip zero) : 47FE3843 AccurateRip signature : 8DA1AC02 ->Accurately ripped! (AR2, confidence 6) Statistics Read error : 0 Jitter error (maybe fixed) : 0 Retry sector count : 0 Damaged sector count : 0
Track 02 Filename : /Users/WYate/Desktop/What.CD Torrents/Compilations - Argerich Collection 2 - The Concerto Recordings [Disc 3] (1970) [FLAC]/02 Tchaikovskyпјљ Piano Concerto #1 In B Flat Minor, Op. 23 - 2. Andantino Semplice.flac
Track gain : 8.64 dB Peak : 0.783600 CRC32 hash (test run) : 9622D476 CRC32 hash : 9622D476 CRC32 hash (skip zero) : 0163CA34 AccurateRip signature : 779EA430 ->Accurately ripped! (AR2, confidence 7) Statistics Read error : 0 Jitter error (maybe fixed) : 0 Retry sector count : 0 Damaged sector count : 0
Track 03 Filename : /Users/WYate/Desktop/What.CD Torrents/Compilations - Argerich Collection 2 - The Concerto Recordings [Disc 3] (1970) [FLAC]/03 Tchaikovskyпјљ Piano Concerto #1 In B Flat Minor, Op. 23 - 3. Allegro Con Fuoco.flac
Track gain : -3.14 dB Peak : 0.986816 CRC32 hash (test run) : 0FC55032 CRC32 hash : 0FC55032 CRC32 hash (skip zero) : 1BB0C5AE AccurateRip signature : 0688A59D ->Accurately ripped! (AR2, confidence 7) Statistics Read error : 0 Jitter error (maybe fixed) : 0 Retry sector count : 0 Damaged sector count : 0
Track 04 Filename : /Users/WYate/Desktop/What.CD Torrents/Compilations - Argerich Collection 2 - The Concerto Recordings [Disc 3] (1988) [FLAC]/04 Mendelssohnпјљ Concerto For Violin, Piano & Strings In D Minor - 1. Allegro.flac Pre-gap length : 00:05:01
Track gain : 0.24 dB Peak : 0.925110 CRC32 hash (test run) : 6C82144E CRC32 hash : 6C82144E CRC32 hash (skip zero) : 516BED62 AccurateRip signature : 1BFCCEF1 ->Accurately ripped! (AR2, confidence 7) Statistics Read error : 0 Jitter error (maybe fixed) : 0 Retry sector count : 0 Damaged sector count : 0
Track 05 Filename : /Users/WYate/Desktop/What.CD Torrents/Compilations - Argerich Collection 2 - The Concerto Recordings [Disc 3] (1988) [FLAC]/05 Mendelssohnпјљ Concerto For Violin, Piano & Strings In D Minor - 2. Adagio.flac
Track gain : 6.50 dB Peak : 0.603912 CRC32 hash (test run) : 8BAD0D95 CRC32 hash : 8BAD0D95 CRC32 hash (skip zero) : B5A9F450 AccurateRip signature : 4A24A43C ->Accurately ripped! (AR2, confidence 7) Statistics Read error : 0 Jitter error (maybe fixed) : 0 Retry sector count : 0 Damaged sector count : 0
Track 06 Filename : /Users/WYate/Desktop/What.CD Torrents/Compilations - Argerich Collection 2 - The Concerto Recordings [Disc 3] (1988) [FLAC]/06 Mendelssohnпјљ Concerto For Violin, Piano & Strings In D Minor - 3. Allegro Molto.flac
Track gain : -0.24 dB Peak : 0.942169 CRC32 hash (test run) : 27C7C602 CRC32 hash : 27C7C602 CRC32 hash (skip zero) : 3C3CEC1C AccurateRip signature : 5256F51B ->Accurately ripped! (AR2, confidence 7) Statistics Read error : 0 Jitter error (maybe fixed) : 0 Retry sector count : 0 Damaged sector count : 0
No errors occurred
End of status report

CD4

X Lossless Decoder version 20111113 (137.1)
XLD extraction logfile from 2011-12-21 22:38:16 +0000
Martha Argerich; Mstislav Rostropovich: National Symphony Orchestra / Argerich Collection 2 - The Concerto Recordings [Disc 4]
Used drive : MATSHITA DVD-R UJ-898 (revision HC10)
Ripper mode : XLD Secure RipperDisable audio cache : OK for the drive with a cache less than 1375KiBMake use of C2 pointers : NORead offset correction : 102Max retry count : 20Gap status : Analyzed, Appended (except HTOA)
TOC of the extracted CD Track | Start | Length | Start sector | End sector --------------------------------------------------------- 1 | 00:00:00 | 14:24:33 | 0 | 64832 2 | 14:24:33 | 05:09:15 | 64833 | 88022 3 | 19:33:48 | 10:17:11 | 88023 | 134308 4 | 29:50:59 | 14:01:58 | 134309 | 197441 5 | 43:52:42 | 08:50:00 | 197442 | 237191 6 | 52:42:42 | 07:56:27 | 237192 | 272918
AccurateRip Summary Track 01 : OK (AR2, confidence 6) Track 02 : OK (AR2, confidence 7) Track 03 : OK (AR2, confidence 7) Track 04 : OK (AR2, confidence 7) Track 05 : OK (AR2, confidence 7) Track 06 : OK (AR2, confidence 7) ->All tracks accurately ripped.
All Tracks Album gain : -0.48 dB Peak : 0.993225 Statistics Read error : 0 Jitter error (maybe fixed) : 0 Retry sector count : 0 Damaged sector count : 0
Track 01 Filename : /Users/WYate/Desktop/What.CD Torrents/Martha Argerich; Mstislav Rostropovichпјљ National Symphony Orchestra - Argerich Collection 2 - The Concerto Recordings [Disc 4] (2009) [FLAC]/01 Schumannпјљ Piano Concerto In A Minor, Op. 54 - 1. Allegro Affettuoso.flac Pre-gap length : 00:02:00
Track gain : -0.20 dB Peak : 0.993225 CRC32 hash (test run) : 29603E5C CRC32 hash : 29603E5C CRC32 hash (skip zero) : 595EDDF0 AccurateRip signature : 1CB692D0 ->Accurately ripped! (AR2, confidence 6) Statistics Read error : 0 Jitter error (maybe fixed) : 0 Retry sector count : 0 Damaged sector count : 0
Track 02 Filename : /Users/WYate/Desktop/What.CD Torrents/Martha Argerich; Mstislav Rostropovichпјљ National Symphony Orchestra - Argerich Collection 2 - The Concerto Recordings [Disc 4] (2009) [FLAC]/02 Schumannпјљ Piano Concerto In A Minor, Op. 54 - 2. Intermezzo.flac
Track gain : 8.78 dB Peak : 0.373871 CRC32 hash (test run) : F1236EB6 CRC32 hash : F1236EB6 CRC32 hash (skip zero) : 8287E20F AccurateRip signature : E0638AA3 ->Accurately ripped! (AR2, confidence 7) Statistics Read error : 0 Jitter error (maybe fixed) : 0 Retry sector count : 0 Damaged sector count : 0
Track 03 Filename : /Users/WYate/Desktop/What.CD Torrents/Martha Argerich; Mstislav Rostropovichпјљ National Symphony Orchestra - Argerich Collection 2 - The Concerto Recordings [Disc 4] (2009) [FLAC]/03 Schumannпјљ Piano Concerto In A Minor, Op. 54 - 3. Allegro Vivace.flac
Track gain : -1.21 dB Peak : 0.986786 CRC32 hash (test run) : 6ACDEE4C CRC32 hash : 6ACDEE4C CRC32 hash (skip zero) : BDC43C92 AccurateRip signature : 3F78F0A0 ->Accurately ripped! (AR2, confidence 7) Statistics Read error : 0 Jitter error (maybe fixed) : 0 Retry sector count : 0 Damaged sector count : 0
Track 04 Filename : /Users/WYate/Desktop/What.CD Torrents/Martha Argerich; Mstislav Rostropovichпјљ National Symphony Orchestra - Argerich Collection 2 - The Concerto Recordings [Disc 4] (2009) [FLAC]/04 Chopinпјљ Piano Concerto #2 In F Minor, Op. 21 - 1. Maestoso.flac Pre-gap length : 00:05:49
Track gain : -1.72 dB Peak : 0.989166 CRC32 hash (test run) : 0DE20554 CRC32 hash : 0DE20554 CRC32 hash (skip zero) : BF505B3C AccurateRip signature : AE25F4A4 ->Accurately ripped! (AR2, confidence 7) Statistics Read error : 0 Jitter error (maybe fixed) : 0 Retry sector count : 0 Damaged sector count : 0
Track 05 Filename : /Users/WYate/Desktop/What.CD Torrents/Martha Argerich; Mstislav Rostropovichпјљ National Symphony Orchestra - Argerich Collection 2 - The Concerto Recordings [Disc 4] (2009) [FLAC]/05 Chopinпјљ Piano Concerto #2 In F Minor, Op. 21 - 2. Larghetto.flac
Track gain : 2.45 dB Peak : 0.799927 CRC32 hash (test run) : 992FCFFB CRC32 hash : 992FCFFB CRC32 hash (skip zero) : BE3A070B AccurateRip signature : A603EEC9 ->Accurately ripped! (AR2, confidence 7) Statistics Read error : 0 Jitter error (maybe fixed) : 0 Retry sector count : 0 Damaged sector count : 0
Track 06 Filename : /Users/WYate/Desktop/What.CD Torrents/Martha Argerich; Mstislav Rostropovichпјљ National Symphony Orchestra - Argerich Collection 2 - The Concerto Recordings [Disc 4] (2009) [FLAC]/06 Chopinпјљ Piano Concerto #2 In F Minor, Op. 21 - 3. Allegro Vivace.flac
Track gain : -0.82 dB Peak : 0.916351 CRC32 hash (test run) : 58D7A79B CRC32 hash : 58D7A79B CRC32 hash (skip zero) : E5F76899 AccurateRip signature : DFB4739A ->Accurately ripped! (AR2, confidence 7) Statistics Read error : 0 Jitter error (maybe fixed) : 0 Retry sector count : 0 Damaged sector count : 0
No errors occurred
End of status report

CD5

X Lossless Decoder version 20111113 (137.1)
XLD extraction logfile from 2011-12-21 22:56:35 +0000
Martha Argerich; Giuseppe Sinopoli: Philharmonia Orchestra / Beethoven: Piano Concertos #1 & 2
Used drive : MATSHITA DVD-R UJ-898 (revision HC10)
Ripper mode : XLD Secure RipperDisable audio cache : OK for the drive with a cache less than 1375KiBMake use of C2 pointers : NORead offset correction : 102Max retry count : 20Gap status : Analyzed, Appended (except HTOA)
TOC of the extracted CD Track | Start | Length | Start sector | End sector --------------------------------------------------------- 1 | 00:00:00 | 14:10:29 | 0 | 63778 2 | 14:10:29 | 12:05:00 | 63779 | 118153 3 | 26:15:29 | 09:04:74 | 118154 | 159027 4 | 35:20:28 | 14:09:01 | 159028 | 222703 5 | 49:29:29 | 09:52:38 | 222704 | 267141 6 | 59:21:67 | 06:03:06 | 267142 | 294372
AccurateRip Summary Track 01 : OK (AR2, confidence 7) Track 02 : OK (AR2, confidence 7) Track 03 : OK (AR2, confidence 7) Track 04 : OK (AR2, confidence 6) Track 05 : OK (AR2, confidence 6) Track 06 : OK (AR2, confidence 6) ->All tracks accurately ripped.
All Tracks Album gain : 0.13 dB Peak : 0.979431 Statistics Read error : 0 Jitter error (maybe fixed) : 0 Retry sector count : 0 Damaged sector count : 0
Track 01 Filename : /Users/WYate/Desktop/What.CD Torrents/Martha Argerich; Giuseppe Sinopoliпјљ Philharmonia Orchestra - Beethovenпјљ Piano Concertos #1 & 2 (1985) [FLAC]/01 Beethovenпјљ Piano Concerto #1 In C, Op. 15 - 1. Allegro Con Brio.flac Pre-gap length : 00:02:00
Track gain : -1.30 dB Peak : 0.979431 CRC32 hash (test run) : 9A133FB4 CRC32 hash : 9A133FB4 CRC32 hash (skip zero) : E87B0C51 AccurateRip signature : 003EAFCE ->Accurately ripped! (AR2, confidence 7) Statistics Read error : 0 Jitter error (maybe fixed) : 0 Retry sector count : 0 Damaged sector count : 0
Track 02 Filename : /Users/WYate/Desktop/What.CD Torrents/Martha Argerich; Giuseppe Sinopoliпјљ Philharmonia Orchestra - Beethovenпјљ Piano Concertos #1 & 2 (1985) [FLAC]/02 Beethovenпјљ Piano Concerto #1 In C, Op. 15 - 2. Largo.flac
Track gain : 3.54 dB Peak : 0.714966 CRC32 hash (test run) : AB82D169 CRC32 hash : AB82D169 CRC32 hash (skip zero) : C6FA2C13 AccurateRip signature : D8BE396E ->Accurately ripped! (AR2, confidence 7) Statistics Read error : 0 Jitter error (maybe fixed) : 0 Retry sector count : 0 Damaged sector count : 0
Track 03 Filename : /Users/WYate/Desktop/What.CD Torrents/Martha Argerich; Giuseppe Sinopoliпјљ Philharmonia Orchestra - Beethovenпјљ Piano Concertos #1 & 2 (1985) [FLAC]/03 Beethovenпјљ Piano Concerto #1 In C, Op. 15 - 3. Rondoпјљ Allegro Scherzando.flac
Track gain : -0.17 dB Peak : 0.886169 CRC32 hash (test run) : 159597A8 CRC32 hash : 159597A8 CRC32 hash (skip zero) : D1618821 AccurateRip signature : 6C338D02 ->Accurately ripped! (AR2, confidence 7) Statistics Read error : 0 Jitter error (maybe fixed) : 0 Retry sector count : 0 Damaged sector count : 0
Track 04 Filename : /Users/WYate/Desktop/What.CD Torrents/Martha Argerich; Giuseppe Sinopoliпјљ Philharmonia Orchestra - Beethovenпјљ Piano Concertos #1 & 2 (1985) [FLAC]/04 Beethovenпјљ Piano Concerto #2 In B Flat, Op. 19 - 1. Allegro Con Brio.flac Pre-gap length : 00:06:43
Track gain : 0.64 dB Peak : 0.885834 CRC32 hash (test run) : 9CBCBC90 CRC32 hash : 9CBCBC90 CRC32 hash (skip zero) : A7F5CC54 AccurateRip signature : 400EAF6C ->Accurately ripped! (AR2, confidence 6) Statistics Read error : 0 Jitter error (maybe fixed) : 0 Retry sector count : 0 Damaged sector count : 0
Track 05 Filename : /Users/WYate/Desktop/What.CD Torrents/Martha Argerich; Giuseppe Sinopoliпјљ Philharmonia Orchestra - Beethovenпјљ Piano Concertos #1 & 2 (1985) [FLAC]/05 Beethovenпјљ Piano Concerto #2 In B Flat, Op. 19 - 2. Adagio.flac
Track gain : 1.65 dB Peak : 0.866547 CRC32 hash (test run) : C82EECE7 CRC32 hash : C82EECE7 CRC32 hash (skip zero) : 7C608219 AccurateRip signature : 91148C55 ->Accurately ripped! (AR2, confidence 6) Statistics Read error : 0 Jitter error (maybe fixed) : 0 Retry sector count : 0 Damaged sector count : 0
Track 06 Filename : /Users/WYate/Desktop/What.CD Torrents/Martha Argerich; Giuseppe Sinopoliпјљ Philharmonia Orchestra - Beethovenпјљ Piano Concertos #1 & 2 (1985) [FLAC]/06 Beethovenпјљ Piano Concerto #2 In B Flat, Op. 19 - 3. Rondoпјљ Molto Allegro.flac
Track gain : -1.34 dB Peak : 0.853973 CRC32 hash (test run) : 7AFB084D CRC32 hash : 7AFB084D CRC32 hash (skip zero) : 11387A4F AccurateRip signature : 31855846 ->Accurately ripped! (AR2, confidence 6) Statistics Read error : 0 Jitter error (maybe fixed) : 0 Retry sector count : 0 Damaged sector count : 0
No errors occurred
End of status report

CD6

X Lossless Decoder version 20111113 (137.1)
XLD extraction logfile from 2011-12-21 23:15:40 +0000
Various Artists / Argerich Collection 2 - The Concerto Recordings [Disc 6]
Used drive : MATSHITA DVD-R UJ-898 (revision HC10)
Ripper mode : XLD Secure RipperDisable audio cache : OK for the drive with a cache less than 1375KiBMake use of C2 pointers : NORead offset correction : 102Max retry count : 20Gap status : Analyzed, Appended (except HTOA)
TOC of the extracted CD Track | Start | Length | Start sector | End sector --------------------------------------------------------- 1 | 00:00:00 | 06:06:04 | 0 | 27453 2 | 06:06:04 | 08:22:62 | 27454 | 65165 3 | 14:28:66 | 01:42:70 | 65166 | 72885 4 | 16:11:61 | 06:36:02 | 72886 | 102587 5 | 22:47:63 | 07:28:01 | 102588 | 136188 6 | 30:15:64 | 07:22:00 | 136189 | 169338 7 | 37:37:64 | 04:05:15 | 169339 | 187728 8 | 41:43:04 | 19:12:01 | 187729 | 274129 9 | 60:55:05 | 06:30:00 | 274130 | 303379 10 | 67:25:05 | 06:18:57 | 303380 | 331786
AccurateRip Summary Track 01 : OK (AR2, confidence 7) Track 02 : OK (AR2, confidence 8) Track 03 : OK (AR2, confidence 8) Track 04 : OK (AR2, confidence 8) Track 05 : OK (AR2, confidence 7) Track 06 : OK (AR2, confidence 8) Track 07 : OK (AR2, confidence 8) Track 08 : OK (AR2, confidence 8) Track 09 : OK (AR2, confidence 8) Track 10 : OK (AR2, confidence 7) ->All tracks accurately ripped.
All Tracks Album gain : -1.40 dB Peak : 0.993896 Statistics Read error : 0 Jitter error (maybe fixed) : 0 Retry sector count : 0 Damaged sector count : 0
Track 01 Filename : /Users/WYate/Desktop/What.CD Torrents/Various Artists - Argerich Collection 2 - The Concerto Recordings [Disc 6] (1993) [FLAC]/01 Shostakovichпјљ Piano Concerto #1 In C Minor, Op. 35 - 1. Allegro Moderato.flac Pre-gap length : 00:02:00
Track gain : -0.54 dB Peak : 0.987915 CRC32 hash (test run) : D15C3596 CRC32 hash : D15C3596 CRC32 hash (skip zero) : AC1EA511 AccurateRip signature : F491F6A9 ->Accurately ripped! (AR2, confidence 7) Statistics Read error : 0 Jitter error (maybe fixed) : 0 Retry sector count : 0 Damaged sector count : 0
Track 02 Filename : /Users/WYate/Desktop/What.CD Torrents/Various Artists - Argerich Collection 2 - The Concerto Recordings [Disc 6] (1993) [FLAC]/02 Shostakovichпјљ Piano Concerto #1 In C Minor, Op. 35 - 2. Lento.flac
Track gain : 3.12 dB Peak : 0.787964 CRC32 hash (test run) : FC3B730B CRC32 hash : FC3B730B CRC32 hash (skip zero) : B76FB9B6 AccurateRip signature : E9E6DDF2 ->Accurately ripped! (AR2, confidence 8) Statistics Read error : 0 Jitter error (maybe fixed) : 0 Retry sector count : 0 Damaged sector count : 0
Track 03 Filename : /Users/WYate/Desktop/What.CD Torrents/Various Artists - Argerich Collection 2 - The Concerto Recordings [Disc 6] (1993) [FLAC]/03 Shostakovichпјљ Piano Concerto #1 In C Minor, Op. 35 - 3. Moderato.flac
Track gain : 3.88 dB Peak : 0.580200 CRC32 hash (test run) : FAB4D729 CRC32 hash : FAB4D729 CRC32 hash (skip zero) : 2D6B3475 AccurateRip signature : AB9A6342 ->Accurately ripped! (AR2, confidence 8) Statistics Read error : 0 Jitter error (maybe fixed) : 0 Retry sector count : 0 Damaged sector count : 0
Track 04 Filename : /Users/WYate/Desktop/What.CD Torrents/Various Artists - Argerich Collection 2 - The Concerto Recordings [Disc 6] (1993) [FLAC]/04 Shostakovichпјљ Piano Concerto #1 In C Minor, Op. 35 - 4. Allegro Con Brio.flac
Track gain : -2.43 dB Peak : 0.983093 CRC32 hash (test run) : 1325B49E CRC32 hash : 1325B49E CRC32 hash (skip zero) : F6DB85D4 AccurateRip signature : F3AD1DB2 ->Accurately ripped! (AR2, confidence 8) Statistics Read error : 0 Jitter error (maybe fixed) : 0 Retry sector count : 0 Damaged sector count : 0
Track 05 Filename : /Users/WYate/Desktop/What.CD Torrents/Various Artists - Argerich Collection 2 - The Concerto Recordings [Disc 6] (1993) [FLAC]/05 Haydnпјљ Harpsichord Concerto In D, H 18пјЏ11 - 1. Vivace.flac Pre-gap length : 00:05:17
Track gain : -2.23 dB Peak : 0.971344 CRC32 hash (test run) : B3CE1766 CRC32 hash : B3CE1766 CRC32 hash (skip zero) : 6616C698 AccurateRip signature : DD8DF4BD ->Accurately ripped! (AR2, confidence 7) Statistics Read error : 0 Jitter error (maybe fixed) : 0 Retry sector count : 0 Damaged sector count : 0
Track 06 Filename : /Users/WYate/Desktop/What.CD Torrents/Various Artists - Argerich Collection 2 - The Concerto Recordings [Disc 6] (1993) [FLAC]/06 Haydnпјљ Harpsichord Concerto In D, H 18пјЏ11 - 2. Un Poco Adagio.flac
Track gain : 1.64 dB Peak : 0.725403 CRC32 hash (test run) : F7C629DA CRC32 hash : F7C629DA CRC32 hash (skip zero) : E6C9AFEF AccurateRip signature : BEB83A10 ->Accurately ripped! (AR2, confidence 8) Statistics Read error : 0 Jitter error (maybe fixed) : 0 Retry sector count : 0 Damaged sector count : 0
Track 07 Filename : /Users/WYate/Desktop/What.CD Torrents/Various Artists - Argerich Collection 2 - The Concerto Recordings [Disc 6] (1993) [FLAC]/07 Haydnпјљ Harpsichord Concerto In D, H 18пјЏ11 - 3. Rondo All'Ungherese.flac
Track gain : -1.57 dB Peak : 0.971344 CRC32 hash (test run) : DE404491 CRC32 hash : DE404491 CRC32 hash (skip zero) : 25E91E52 AccurateRip signature : 8B53AC3C ->Accurately ripped! (AR2, confidence 8) Statistics Read error : 0 Jitter error (maybe fixed) : 0 Retry sector count : 0 Damaged sector count : 0
Track 08 Filename : /Users/WYate/Desktop/What.CD Torrents/Various Artists - Argerich Collection 2 - The Concerto Recordings [Disc 6] (1994) [FLAC]/08 Tchaikovskyпјљ Piano Concerto #1 In B Flat Minor, Op. 23 - 1. Allegro Non Troppo E Molto Maestoso.flac Pre-gap length : 00:05:30
Track gain : -1.87 dB Peak : 0.993896 CRC32 hash (test run) : C1518C0D CRC32 hash : C1518C0D CRC32 hash (skip zero) : F05AF95A AccurateRip signature : F1603E7B ->Accurately ripped! (AR2, confidence 8) Statistics Read error : 0 Jitter error (maybe fixed) : 0 Retry sector count : 0 Damaged sector count : 0
Track 09 Filename : /Users/WYate/Desktop/What.CD Torrents/Various Artists - Argerich Collection 2 - The Concerto Recordings [Disc 6] (1994) [FLAC]/09 Tchaikovskyпјљ Piano Concerto #1 In B Flat Minor, Op. 23 - 2. Andantino Semplice.flac
Track gain : 9.64 dB Peak : 0.992218 CRC32 hash (test run) : 428E5DBF CRC32 hash : 428E5DBF CRC32 hash (skip zero) : 0A27FAE1 AccurateRip signature : 913AC049 ->Accurately ripped! (AR2, confidence 8) Statistics Read error : 0 Jitter error (maybe fixed) : 0 Retry sector count : 0 Damaged sector count : 0
Track 10 Filename : /Users/WYate/Desktop/What.CD Torrents/Various Artists - Argerich Collection 2 - The Concerto Recordings [Disc 6] (1994) [FLAC]/10 Tchaikovskyпјљ Piano Concerto #1 In B Flat Minor, Op. 23 - 3. Allegro Con Fuoco.flac
Track gain : -3.13 dB Peak : 0.993866 CRC32 hash (test run) : 41EA721A CRC32 hash : 41EA721A CRC32 hash (skip zero) : 5CB45DE0 AccurateRip signature : AD83BBA6 ->Accurately ripped! (AR2, confidence 7) Statistics Read error : 0 Jitter error (maybe fixed) : 0 Retry sector count : 0 Damaged sector count : 0
No errors occurred
End of status report

CD7

X Lossless Decoder version 20111113 (137.1)
XLD extraction logfile from 2011-12-21 23:54:32 +0000
Martha Argerich; Claudio Abbado: Mahler Chamber Orchestra / Argerich Collection 2 - The Concerto Recordings [Disc 7]
Used drive : MATSHITA DVD-R UJ-898 (revision HC10)
Ripper mode : XLD Secure RipperDisable audio cache : OK for the drive with a cache less than 1375KiBMake use of C2 pointers : NORead offset correction : 102Max retry count : 20Gap status : Analyzed, Appended (except HTOA)
TOC of the extracted CD Track | Start | Length | Start sector | End sector --------------------------------------------------------- 1 | 00:00:00 | 16:11:33 | 0 | 72857 2 | 16:11:33 | 10:20:44 | 72858 | 119401 3 | 26:32:02 | 09:15:73 | 119402 | 161099 4 | 35:48:00 | 13:19:74 | 161100 | 221098 5 | 49:07:74 | 08:48:51 | 221099 | 260749 6 | 57:56:50 | 06:02:73 | 260750 | 287972
AccurateRip Summary Track 01 : OK (AR2, confidence 5) Track 02 : OK (AR2, confidence 6) Track 03 : OK (AR2, confidence 6) Track 04 : OK (AR2, confidence 6) Track 05 : OK (AR2, confidence 6) Track 06 : OK (AR2, confidence 5) ->All tracks accurately ripped.
All Tracks Album gain : 0.05 dB Peak : 0.992371 Statistics Read error : 0 Jitter error (maybe fixed) : 0 Retry sector count : 0 Damaged sector count : 0
Track 01 Filename : /Users/WYate/Desktop/What.CD Torrents/Martha Argerich; Claudio Abbadoпјљ Mahler Chamber Orchestra - Argerich Collection 2 - The Concerto Recordings [Disc 7] (2009) [FLAC]/01 Beethovenпјљ Piano Concerto #3 In C Minor, Op. 37 - 1. Allegro Con Brio.flac Pre-gap length : 00:02:00
Track gain : -0.95 dB Peak : 0.992371 CRC32 hash (test run) : 62912FD8 CRC32 hash : 62912FD8 CRC32 hash (skip zero) : 2BA512A0 AccurateRip signature : 878A2AA6 ->Accurately ripped! (AR2, confidence 5) Statistics Read error : 0 Jitter error (maybe fixed) : 0 Retry sector count : 0 Damaged sector count : 0
Track 02 Filename : /Users/WYate/Desktop/What.CD Torrents/Martha Argerich; Claudio Abbadoпјљ Mahler Chamber Orchestra - Argerich Collection 2 - The Concerto Recordings [Disc 7] (2009) [FLAC]/02 Beethovenпјљ Piano Concerto #3 In C Minor, Op. 37 - 2. Largo.flac
Track gain : 4.01 dB Peak : 0.720184 CRC32 hash (test run) : 64B538C1 CRC32 hash : 64B538C1 CRC32 hash (skip zero) : 7080881A AccurateRip signature : CEEE74D7 ->Accurately ripped! (AR2, confidence 6) Statistics Read error : 0 Jitter error (maybe fixed) : 0 Retry sector count : 0 Damaged sector count : 0
Track 03 Filename : /Users/WYate/Desktop/What.CD Torrents/Martha Argerich; Claudio Abbadoпјљ Mahler Chamber Orchestra - Argerich Collection 2 - The Concerto Recordings [Disc 7] (2009) [FLAC]/03 Beethovenпјљ Piano Concerto #3 In C Minor, Op. 37 - 3. RondГІ.flac
Track gain : -1.00 dB Peak : 0.989502 CRC32 hash (test run) : 606454E3 CRC32 hash : 606454E3 CRC32 hash (skip zero) : 0A548650 AccurateRip signature : 38923867 ->Accurately ripped! (AR2, confidence 6) Statistics Read error : 0 Jitter error (maybe fixed) : 0 Retry sector count : 0 Damaged sector count : 0
Track 04 Filename : /Users/WYate/Desktop/What.CD Torrents/Martha Argerich; Claudio Abbadoпјљ Mahler Chamber Orchestra - Argerich Collection 2 - The Concerto Recordings [Disc 7] (2009) [FLAC]/04 Beethovenпјљ Piano Concerto #2 In B Flat, Op. 19 - 1. Allegro Con Brio.flac Pre-gap length : 00:05:48
Track gain : -0.01 dB Peak : 0.986145 CRC32 hash (test run) : E9ED8527 CRC32 hash : E9ED8527 CRC32 hash (skip zero) : FBABD9CE AccurateRip signature : AE35C8DB ->Accurately ripped! (AR2, confidence 6) Statistics Read error : 0 Jitter error (maybe fixed) : 0 Retry sector count : 0 Damaged sector count : 0
Track 05 Filename : /Users/WYate/Desktop/What.CD Torrents/Martha Argerich; Claudio Abbadoпјљ Mahler Chamber Orchestra - Argerich Collection 2 - The Concerto Recordings [Disc 7] (2009) [FLAC]/05 Beethovenпјљ Piano Concerto #2 In B Flat, Op. 19 - 2. Adagio.flac
Track gain : 1.58 dB Peak : 0.887878 CRC32 hash (test run) : 52ED1DAF CRC32 hash : 52ED1DAF CRC32 hash (skip zero) : 3D0E57E6 AccurateRip signature : 86EEAFC5 ->Accurately ripped! (AR2, confidence 6) Statistics Read error : 0 Jitter error (maybe fixed) : 0 Retry sector count : 0 Damaged sector count : 0
Track 06 Filename : /Users/WYate/Desktop/What.CD Torrents/Martha Argerich; Claudio Abbadoпјљ Mahler Chamber Orchestra - Argerich Collection 2 - The Concerto Recordings [Disc 7] (2009) [FLAC]/06 Beethovenпјљ Piano Concerto #2 In B Flat, Op. 19 - 3. RondГІ.flac
Track gain : 0.63 dB Peak : 0.919281 CRC32 hash (test run) : 78B78160 CRC32 hash : 78B78160 CRC32 hash (skip zero) : E8AB0FE7 AccurateRip signature : 68A58B6B ->Accurately ripped! (AR2, confidence 5) Statistics Read error : 0 Jitter error (maybe fixed) : 0 Retry sector count : 0 Damaged sector count : 0
No errors occurred
End of status report

Содержание индексной карты (.CUE)CD1

TITLE "Argerich Collection 2 - The Concerto Recordings [Disc 1]"PERFORMER "Martha Argerich; Claudio Abbado: Berlin Philharmonic Orchestra"CATALOG 0028947782988REM GENRE "Classical"REM DATE "2009"REM DISCNUMBER 1REM TOTALDISCS 7REM DISCID 420B5206REM REPLAYGAIN_ALBUM_GAIN -0.61 dBREM REPLAYGAIN_ALBUM_PEAK 0.993317FILE "01 Prokofiev - Piano Concerto #3 In C, Op. 26 - 1. Andante, Allegro.flac" WAVE TRACK 01 AUDIO TITLE "Prokofiev: Piano Concerto #3 In C, Op. 26 - 1. Andante, Allegro" SONGWRITER "Sergei Prokofiev" ISRC DEF056700401 REM REPLAYGAIN_TRACK_GAIN -1.39 dB REM REPLAYGAIN_TRACK_PEAK 0.982941 INDEX 01 00:00:00FILE "02 Prokofiev - Piano Concerto #3 In C, Op. 26 - 2. Theme & Variations.flac" WAVE TRACK 02 AUDIO TITLE "Prokofiev: Piano Concerto #3 In C, Op. 26 - 2. Theme & Variations" SONGWRITER "Sergei Prokofiev" ISRC DEF056700402 REM REPLAYGAIN_TRACK_GAIN -0.79 dB REM REPLAYGAIN_TRACK_PEAK 0.873474 INDEX 01 00:00:00FILE "03 Prokofiev - Piano Concerto #3 In C, Op. 26 - 3. Allegro Ma Non Troppo.flac" WAVE TRACK 03 AUDIO TITLE "Prokofiev: Piano Concerto #3 In C, Op. 26 - 3. Allegro Ma Non Troppo" SONGWRITER "Sergei Prokofiev" ISRC DEF056700403 REM REPLAYGAIN_TRACK_GAIN -1.40 dB REM REPLAYGAIN_TRACK_PEAK 0.993317 INDEX 01 00:00:00 TRACK 04 AUDIO TITLE "Ravel - Piano Concerto In G - 1. Allegramente" SONGWRITER "Maurice Ravel" ISRC DEF056700412 REM REPLAYGAIN_TRACK_GAIN 0.84 dB REM REPLAYGAIN_TRACK_PEAK 0.926483 INDEX 00 09:00:71FILE "04 Ravel - Piano Concerto In G - 1. Allegramente.flac" WAVE INDEX 01 00:00:00FILE "05 Ravel: Piano Concerto In G - 2. Adagio Assai.flac" WAVE TRACK 05 AUDIO TITLE "Ravel - Piano Concerto In G - 2. Adagio Assai" SONGWRITER "Maurice Ravel" ISRC DEF056700411 REM REPLAYGAIN_TRACK_GAIN 8.93 dB REM REPLAYGAIN_TRACK_PEAK 0.669067 INDEX 01 00:00:00FILE "06 Ravel - Piano Concerto In G - 3. Presto.flac" WAVE TRACK 06 AUDIO TITLE "Ravel: Piano Concerto In G - 3. Presto" SONGWRITER "Maurice Ravel" ISRC DEF056700413 REM REPLAYGAIN_TRACK_GAIN -1.16 dB REM REPLAYGAIN_TRACK_PEAK 0.992828 INDEX 01 00:00:00

CD2

TITLE "Argerich Collection 2 - The Concerto Recordings [Disc 2]"PERFORMER "Martha Argerich; Claudio Abbado: London Symphony Orchestra"REM GENRE "Classical"REM DISCNUMBER 2REM TOTALDISCS 7REM DISCID 83124509REM REPLAYGAIN_ALBUM_GAIN -0.19 dBREM REPLAYGAIN_ALBUM_PEAK 0.986786FILE "01 Chopin - Piano Concerto #1 In E Minor, Op. 11 - 1. Allegro Maestoso.flac" WAVE TRACK 01 AUDIO TITLE "Chopin: Piano Concerto #1 In E Minor, Op. 11 - 1. Allegro Maestoso" SONGWRITER "Frédéric Chopin" ISRC DEF056800371 REM DATE 1968 REM REPLAYGAIN_TRACK_GAIN -1.80 dB REM REPLAYGAIN_TRACK_PEAK 0.905762 INDEX 01 00:00:00FILE "02 Chopin - Piano Concerto #1 In E Minor, Op. 11 - 2. Romance.flac" WAVE TRACK 02 AUDIO TITLE "Chopin: Piano Concerto #1 In E Minor, Op. 11 - 2. Romance" SONGWRITER "Frédéric Chopin" ISRC DEF056800372 REM DATE 1968 REM REPLAYGAIN_TRACK_GAIN 4.39 dB REM REPLAYGAIN_TRACK_PEAK 0.645782 INDEX 01 00:00:00FILE "03 Chopin - Piano Concerto #1 In E Minor, Op. 11 - 3. Rondo.flac" WAVE TRACK 03 AUDIO TITLE "Chopin: Piano Concerto #1 In E Minor, Op. 11 - 3. Rondò" SONGWRITER "Frédéric Chopin" ISRC DEF056800373 REM DATE 1968 REM REPLAYGAIN_TRACK_GAIN -0.17 dB REM REPLAYGAIN_TRACK_PEAK 0.823151 INDEX 01 00:00:00 TRACK 04 AUDIO TITLE "Liszt: Piano Concerto #1 In E Flat, S 124 - 1. Allegro Maestoso" SONGWRITER "Franz Liszt" ISRC DEF056800381 REM DATE 1968 REM REPLAYGAIN_TRACK_GAIN -0.78 dB REM REPLAYGAIN_TRACK_PEAK 0.867584 INDEX 00 09:02:58FILE "04 Liszt - Piano Concerto #1 In E Flat, S 124 - 1. Allegro Maestoso.flac" WAVE INDEX 01 00:00:00FILE "05 Liszt - Piano Concerto #1 In E Flat, S 124 - 2. Quasi Adagio; 3. Allegretto Vivace.flac" WAVE TRACK 05 AUDIO TITLE "Liszt: Piano Concerto #1 In E Flat, S 124 - 2. Quasi Adagio; 3. Allegretto Vivace" SONGWRITER "Franz Liszt" ISRC DEF056800382 REM DATE 1968 REM REPLAYGAIN_TRACK_GAIN -0.63 dB REM REPLAYGAIN_TRACK_PEAK 0.949402 INDEX 01 00:00:00FILE "06 Liszt - Piano Concerto #1 In E Flat, S 124 - 4. Allegro Marziale Animato.flac" WAVE TRACK 06 AUDIO TITLE "Liszt: Piano Concerto #1 In E Flat, S 124 - 4. Allegro Marziale Animato" SONGWRITER "Franz Liszt" ISRC DEF056800383 REM DATE 1968 REM REPLAYGAIN_TRACK_GAIN -1.80 dB REM REPLAYGAIN_TRACK_PEAK 0.986786 INDEX 01 00:00:00 TRACK 07 AUDIO TITLE "Ravel: Piano Concerto In G - 1. Allegramente" SONGWRITER "Maurice Ravel" ISRC DEF058402952 REM DATE 1988 REM REPLAYGAIN_TRACK_GAIN 0.59 dB REM REPLAYGAIN_TRACK_PEAK 0.949524 INDEX 00 04:01:00FILE "07 Ravel - Piano Concerto In G - 1. Allegramente.flac" WAVE INDEX 01 00:00:00FILE "08 Ravel - Piano Concerto In G - 2. Adagio Assai.flac" WAVE TRACK 08 AUDIO TITLE "Ravel: Piano Concerto In G - 2. Adagio Assai" SONGWRITER "Maurice Ravel" ISRC DEF058402951 REM DATE 1988 REM REPLAYGAIN_TRACK_GAIN 10.47 dB REM REPLAYGAIN_TRACK_PEAK 0.745392 INDEX 01 00:00:00FILE "09 Ravel - Piano Concerto In G - 3. Presto.flac" WAVE TRACK 09 AUDIO TITLE "Ravel: Piano Concerto In G - 3. Presto" SONGWRITER "Maurice Ravel" ISRC DEF058402953 REM DATE 1988 REM REPLAYGAIN_TRACK_GAIN 0.08 dB REM REPLAYGAIN_TRACK_PEAK 0.963593 INDEX 01 00:00:00

CD3

TITLE "Argerich Collection 2 - The Concerto Recordings [Disc 3]"CATALOG 0028947783015REM GENRE "Classical"REM DISCNUMBER 3REM TOTALDISCS 7REM DISCID 4E10F606REM REPLAYGAIN_ALBUM_GAIN -1.60 dBREM REPLAYGAIN_ALBUM_PEAK 0.986816FILE "01 Tchaikovsky - Piano Concerto #1 In B Flat Minor, Op. 23 - 1. Allegro Non Troppo E Molto Maestoso.flac" WAVE TRACK 01 AUDIO TITLE "Tchaikovsky: Piano Concerto #1 In B Flat Minor, Op. 23 - 1. Allegro Non Troppo E Molto Maestoso" PERFORMER "Martha Argerich; Charles Dutoit: Royal Philharmonic Orchestra" SONGWRITER "Peter Ilyich Tchaikovsky" ISRC DEF057000831 REM DATE 1970 REM REPLAYGAIN_TRACK_GAIN -3.03 dB REM REPLAYGAIN_TRACK_PEAK 0.985748 INDEX 01 00:00:00FILE "02 Tchaikovsky - Piano Concerto #1 In B Flat Minor, Op. 23 - 2. Andantino Semplice.flac" WAVE TRACK 02 AUDIO TITLE "Tchaikovsky: Piano Concerto #1 In B Flat Minor, Op. 23 - 2. Andantino Semplice" PERFORMER "Martha Argerich; Charles Dutoit: Royal Philharmonic Orchestra" SONGWRITER "Peter Ilyich Tchaikovsky" ISRC DEF057000832 REM DATE 1970 REM REPLAYGAIN_TRACK_GAIN 8.64 dB REM REPLAYGAIN_TRACK_PEAK 0.783600 INDEX 01 00:00:00FILE "03 Tchaikovsky - Piano Concerto #1 In B Flat Minor, Op. 23 - 3. Allegro Con Fuoco.flac" WAVE TRACK 03 AUDIO TITLE "Tchaikovsky: Piano Concerto #1 In B Flat Minor, Op. 23 - 3. Allegro Con Fuoco" PERFORMER "Martha Argerich; Charles Dutoit: Royal Philharmonic Orchestra" SONGWRITER "Peter Ilyich Tchaikovsky" ISRC DEF057000833 REM DATE 1970 REM REPLAYGAIN_TRACK_GAIN -3.14 dB REM REPLAYGAIN_TRACK_PEAK 0.986816 INDEX 01 00:00:00 TRACK 04 AUDIO TITLE "Mendelssohn: Concerto For Violin, Piano & Strings In D Minor - 1. Allegro" PERFORMER "Gidon Kremer, Martha Argerich: Orpheus Chamber Orchestra" SONGWRITER "Felix Mendelssohn" ISRC DEF058802801 REM DATE 1988 REM REPLAYGAIN_TRACK_GAIN 0.24 dB REM REPLAYGAIN_TRACK_PEAK 0.925110 INDEX 00 06:51:65FILE "04 Mendelssohn - Concerto For Violin, Piano & Strings In D Minor - 1. Allegro.flac" WAVE INDEX 01 00:00:00FILE "05 Mendelssohn - Concerto For Violin, Piano & Strings In D Minor - 2. Adagio.flac" WAVE TRACK 05 AUDIO TITLE "Mendelssohn: Concerto For Violin, Piano & Strings In D Minor - 2. Adagio" PERFORMER "Gidon Kremer, Martha Argerich: Orpheus Chamber Orchestra" SONGWRITER "Felix Mendelssohn" ISRC DEF058802802 REM DATE 1988 REM REPLAYGAIN_TRACK_GAIN 6.50 dB REM REPLAYGAIN_TRACK_PEAK 0.603912 INDEX 01 00:00:00FILE "06 Mendelssohn - Concerto For Violin, Piano & Strings In D Minor - 3. Allegro Molto.flac" WAVE TRACK 06 AUDIO TITLE "Mendelssohn: Concerto For Violin, Piano & Strings In D Minor - 3. Allegro Molto" PERFORMER "Gidon Kremer, Martha Argerich: Orpheus Chamber Orchestra" SONGWRITER "Felix Mendelssohn" ISRC DEF058802803 REM DATE 1988 REM REPLAYGAIN_TRACK_GAIN -0.24 dB REM REPLAYGAIN_TRACK_PEAK 0.942169 INDEX 01 00:00:00

CD4

TITLE "Argerich Collection 2 - The Concerto Recordings [Disc 4]"PERFORMER "Martha Argerich; Mstislav Rostropovich: National Symphony Orchestra"CATALOG 0028947783022REM GENRE "Classical"REM DATE "2009"REM DISCNUMBER 4REM TOTALDISCS 7REM DISCID 540E3606REM REPLAYGAIN_ALBUM_GAIN -0.48 dBREM REPLAYGAIN_ALBUM_PEAK 0.993225FILE "01 Schumann - Piano Concerto In A Minor, Op. 54 - 1. Allegro Affettuoso.flac" WAVE TRACK 01 AUDIO TITLE "Schumann: Piano Concerto In A Minor, Op. 54 - 1. Allegro Affettuoso" SONGWRITER "Robert Schumann" ISRC DEF057800311 REM REPLAYGAIN_TRACK_GAIN -0.20 dB REM REPLAYGAIN_TRACK_PEAK 0.993225 INDEX 01 00:00:00FILE "02 Schumann - Piano Concerto In A Minor, Op. 54 - 2. Intermezzo.flac" WAVE TRACK 02 AUDIO TITLE "Schumann: Piano Concerto In A Minor, Op. 54 - 2. Intermezzo" SONGWRITER "Robert Schumann" ISRC DEF057800312 REM REPLAYGAIN_TRACK_GAIN 8.78 dB REM REPLAYGAIN_TRACK_PEAK 0.373871 INDEX 01 00:00:00FILE "03 Schumann - Piano Concerto In A Minor, Op. 54 - 3. Allegro Vivace.flac" WAVE TRACK 03 AUDIO TITLE "Schumann: Piano Concerto In A Minor, Op. 54 - 3. Allegro Vivace" SONGWRITER "Robert Schumann" ISRC DEF057800313 REM REPLAYGAIN_TRACK_GAIN -1.21 dB REM REPLAYGAIN_TRACK_PEAK 0.986786 INDEX 01 00:00:00 TRACK 04 AUDIO TITLE "Chopin - Piano Concerto #2 In F Minor, Op. 21 - 1. Maestoso" SONGWRITER "Frédéric Chopin" ISRC DEF057800321 REM REPLAYGAIN_TRACK_GAIN -1.72 dB REM REPLAYGAIN_TRACK_PEAK 0.989166 INDEX 00 10:11:37FILE "04 Chopin - Piano Concerto #2 In F Minor, Op. 21 - 1. Maestoso.flac" WAVE INDEX 01 00:00:00FILE "05 Chopin: Piano Concerto #2 In F Minor, Op. 21 - 2. Larghetto.flac" WAVE TRACK 05 AUDIO TITLE "Chopin - Piano Concerto #2 In F Minor, Op. 21 - 2. Larghetto" SONGWRITER "Frédéric Chopin" ISRC DEF057800322 REM REPLAYGAIN_TRACK_GAIN 2.45 dB REM REPLAYGAIN_TRACK_PEAK 0.799927 INDEX 01 00:00:00FILE "06 Chopin - Piano Concerto #2 In F Minor, Op. 21 - 3. Allegro Vivace.flac" WAVE TRACK 06 AUDIO TITLE "Chopin: Piano Concerto #2 In F Minor, Op. 21 - 3. Allegro Vivace" SONGWRITER "Frédéric Chopin" ISRC DEF057800323 REM REPLAYGAIN_TRACK_GAIN -0.82 dB REM REPLAYGAIN_TRACK_PEAK 0.916351 INDEX 01 00:00:00

CD5

TITLE "Beethoven: Piano Concertos #1 & 2"PERFORMER "Martha Argerich; Giuseppe Sinopoli: Philharmonia Orchestra"CATALOG 0028947783039REM GENRE "Classical"REM DATE "1985"REM DISCNUMBER 1REM TOTALDISCS 1REM DISCID 500F5406REM REPLAYGAIN_ALBUM_GAIN 0.13 dBREM REPLAYGAIN_ALBUM_PEAK 0.979431FILE "01 Beethoven - Piano Concerto #1 In C, Op. 15 - 1. Allegro Con Brio.flac" WAVE TRACK 01 AUDIO TITLE "Beethoven: Piano Concerto #1 In C, Op. 15 - 1. Allegro Con Brio" ISRC DEF058501341 REM REPLAYGAIN_TRACK_GAIN -1.30 dB REM REPLAYGAIN_TRACK_PEAK 0.979431 INDEX 01 00:00:00FILE "02 Beethoven - Piano Concerto #1 In C, Op. 15 - 2. Largo.flac" WAVE TRACK 02 AUDIO TITLE "Beethoven: Piano Concerto #1 In C, Op. 15 - 2. Largo" ISRC DEF058501342 REM REPLAYGAIN_TRACK_GAIN 3.54 dB REM REPLAYGAIN_TRACK_PEAK 0.714966 INDEX 01 00:00:00FILE "03 Beethoven - Piano Concerto #1 In C, Op. 15 - 3. Rondo: Allegro Scherzando.flac" WAVE TRACK 03 AUDIO TITLE "Beethoven: Piano Concerto #1 In C, Op. 15 - 3. Rondo: Allegro Scherzando" ISRC DEF058501343 REM REPLAYGAIN_TRACK_GAIN -0.17 dB REM REPLAYGAIN_TRACK_PEAK 0.886169 INDEX 01 00:00:00 TRACK 04 AUDIO TITLE "Beethoven: Piano Concerto #2 In B Flat, Op. 19 - 1. Allegro Con Brio" ISRC DEF058501351 REM REPLAYGAIN_TRACK_GAIN 0.64 dB REM REPLAYGAIN_TRACK_PEAK 0.885834 INDEX 00 08:58:31FILE "04 Beethoven - Piano Concerto #2 In B Flat, Op. 19 - 1. Allegro Con Brio.flac" WAVE INDEX 01 00:00:00FILE "05 Beethoven - Piano Concerto #2 In B Flat, Op. 19 - 2. Adagio.flac" WAVE TRACK 05 AUDIO TITLE "Beethoven: Piano Concerto #2 In B Flat, Op. 19 - 2. Adagio" ISRC DEF058501352 REM REPLAYGAIN_TRACK_GAIN 1.65 dB REM REPLAYGAIN_TRACK_PEAK 0.866547 INDEX 01 00:00:00FILE "06 Beethoven - Piano Concerto #2 In B Flat, Op. 19 - 3. Rondo: Molto Allegro.flac" WAVE TRACK 06 AUDIO TITLE "Beethoven: Piano Concerto #2 In B Flat, Op. 19 - 3. Rondo: Molto Allegro" ISRC DEF058501353 REM REPLAYGAIN_TRACK_GAIN -1.34 dB REM REPLAYGAIN_TRACK_PEAK 0.853973 INDEX 01 00:00:00

CD6

TITLE "Argerich Collection 2 - The Concerto Recordings [Disc 6]"CATALOG 0028947783046REM GENRE "Classical"REM DISCNUMBER 6REM TOTALDISCS 7REM DISCID 9B11470AREM REPLAYGAIN_ALBUM_GAIN -1.40 dBREM REPLAYGAIN_ALBUM_PEAK 0.993896FILE "01 Shostakovich - Piano Concerto #1 In C Minor, Op. 35 - 1. Allegro Moderato.flac" WAVE TRACK 01 AUDIO TITLE "Shostakovich: Piano Concerto #1 In C Minor, Op. 35 - 1. Allegro Moderato" PERFORMER "Guy Touvron, Martha Argerich; Jörg Faerber: Württemberg Chamber Orchestra" SONGWRITER "Dmitri Shostakovich" ISRC DEF059303651 REM DATE 1993 REM REPLAYGAIN_TRACK_GAIN -0.54 dB REM REPLAYGAIN_TRACK_PEAK 0.987915 INDEX 01 00:00:00FILE "02 Shostakovich - Piano Concerto #1 In C Minor, Op. 35 - 2. Lento.flac" WAVE TRACK 02 AUDIO TITLE "Shostakovich: Piano Concerto #1 In C Minor, Op. 35 - 2. Lento" PERFORMER "Guy Touvron, Martha Argerich; Jörg Faerber: Württemberg Chamber Orchestra" SONGWRITER "Dmitri Shostakovich" ISRC DEF059303652 REM DATE 1993 REM REPLAYGAIN_TRACK_GAIN 3.12 dB REM REPLAYGAIN_TRACK_PEAK 0.787964 INDEX 01 00:00:00FILE "03 Shostakovich - Piano Concerto #1 In C Minor, Op. 35 - 3. Moderato.flac" WAVE TRACK 03 AUDIO TITLE "Shostakovich: Piano Concerto #1 In C Minor, Op. 35 - 3. Moderato" PERFORMER "Guy Touvron, Martha Argerich; Jörg Faerber: Württemberg Chamber Orchestra" SONGWRITER "Dmitri Shostakovich" ISRC DEF059303653 REM DATE 1993 REM REPLAYGAIN_TRACK_GAIN 3.88 dB REM REPLAYGAIN_TRACK_PEAK 0.580200 INDEX 01 00:00:00FILE "04 Shostakovich - Piano Concerto #1 In C Minor, Op. 35 - 4. Allegro Con Brio.flac" WAVE TRACK 04 AUDIO TITLE "Shostakovich: Piano Concerto #1 In C Minor, Op. 35 - 4. Allegro Con Brio" PERFORMER "Guy Touvron, Martha Argerich; Jörg Faerber: Württemberg Chamber Orchestra" SONGWRITER "Dmitri Shostakovich" ISRC DEF059303654 REM DATE 1993 REM REPLAYGAIN_TRACK_GAIN -2.43 dB REM REPLAYGAIN_TRACK_PEAK 0.983093 INDEX 01 00:00:00 TRACK 05 AUDIO TITLE "Haydn: Harpsichord Concerto In D, H 18/11 - 1. Vivace" PERFORMER "Martha Argerich; Jörg Faerber: Württemberg Chamber Orchestra" SONGWRITER "Franz Joseph Haydn" ISRC DEF059303671 REM DATE 1993 REM REPLAYGAIN_TRACK_GAIN -2.23 dB REM REPLAYGAIN_TRACK_PEAK 0.971344 INDEX 00 06:30:60FILE "05 Haydn - Harpsichord Concerto In D, H 18/11 - 1. Vivace.flac" WAVE INDEX 01 00:00:00FILE "06 Haydn - Harpsichord Concerto In D, H 18/11 - 2. Un Poco Adagio.flac" WAVE TRACK 06 AUDIO TITLE "Haydn: Harpsichord Concerto In D, H 18/11 - 2. Un Poco Adagio" PERFORMER "Martha Argerich; Jörg Faerber: Württemberg Chamber Orchestra" SONGWRITER "Franz Joseph Haydn" ISRC DEF059303672 REM DATE 1993 REM REPLAYGAIN_TRACK_GAIN 1.64 dB REM REPLAYGAIN_TRACK_PEAK 0.725403 INDEX 01 00:00:00FILE "07 Haydn - Harpsichord Concerto In D, H 18/11 - 3. Rondo All'Ungherese.flac" WAVE TRACK 07 AUDIO TITLE "Haydn: Harpsichord Concerto In D, H 18/11 - 3. Rondo All'Ungherese" PERFORMER "Martha Argerich; Jörg Faerber: Württemberg Chamber Orchestra" SONGWRITER "Franz Joseph Haydn" ISRC DEF059303673 REM DATE 1993 REM REPLAYGAIN_TRACK_GAIN -1.57 dB REM REPLAYGAIN_TRACK_PEAK 0.971344 INDEX 01 00:00:00 TRACK 08 AUDIO TITLE "Tchaikovsky: Piano Concerto #1 In B Flat Minor, Op. 23 - 1. Allegro Non Troppo E Molto Maestoso" PERFORMER "Martha Argerich; Claudio Abbado: Berlin Philharmonic Orchestra" SONGWRITER "Peter Ilyich Tchaikovsky" ISRC DEF059404281 REM DATE 1994 REM REPLAYGAIN_TRACK_GAIN -1.87 dB REM REPLAYGAIN_TRACK_PEAK 0.993896 INDEX 00 03:59:60FILE "08 Tchaikovsky - Piano Concerto #1 In B Flat Minor, Op. 23 - 1. Allegro Non Troppo E Molto Maestoso.flac" WAVE INDEX 01 00:00:00FILE "09 Tchaikovsky - Piano Concerto #1 In B Flat Minor, Op. 23 - 2. Andantino Semplice.flac" WAVE TRACK 09 AUDIO TITLE "Tchaikovsky: Piano Concerto #1 In B Flat Minor, Op. 23 - 2. Andantino Semplice" PERFORMER "Martha Argerich; Claudio Abbado: Berlin Philharmonic Orchestra" SONGWRITER "Peter Ilyich Tchaikovsky" ISRC DEF059404282 REM DATE 1994 REM REPLAYGAIN_TRACK_GAIN 9.64 dB REM REPLAYGAIN_TRACK_PEAK 0.992218 INDEX 01 00:00:00FILE "10 Tchaikovsky - Piano Concerto #1 In B Flat Minor, Op. 23 - 3. Allegro Con Fuoco.flac" WAVE TRACK 10 AUDIO TITLE "Tchaikovsky: Piano Concerto #1 In B Flat Minor, Op. 23 - 3. Allegro Con Fuoco" PERFORMER "Martha Argerich; Claudio Abbado: Berlin Philharmonic Orchestra" SONGWRITER "Peter Ilyich Tchaikovsky" ISRC DEF059404283 REM DATE 1994 REM REPLAYGAIN_TRACK_GAIN -3.13 dB REM REPLAYGAIN_TRACK_PEAK 0.993866 INDEX 01 00:00:00

CD7

TITLE "Argerich Collection 2 - The Concerto Recordings [Disc 7]"PERFORMER "Martha Argerich; Claudio Abbado: Mahler Chamber Orchestra"CATALOG 0028947783053REM GENRE "Classical"REM DATE "2009"REM DISCNUMBER 7REM TOTALDISCS 7REM DISCID 5E0EFF06REM REPLAYGAIN_ALBUM_GAIN 0.05 dBREM REPLAYGAIN_ALBUM_PEAK 0.992371FILE "01 Beethoven - Piano Concerto #3 In C Minor, Op. 37 - 1. Allegro Con Brio.flac" WAVE TRACK 01 AUDIO TITLE "Beethoven - Piano Concerto #3 In C Minor, Op. 37 - 1. Allegro Con Brio" ISRC DEN960400471 REM REPLAYGAIN_TRACK_GAIN -0.95 dB REM REPLAYGAIN_TRACK_PEAK 0.992371 INDEX 01 00:00:00FILE "02 Beethoven - Piano Concerto #3 In C Minor, Op. 37 - 2. Largo.flac" WAVE TRACK 02 AUDIO TITLE "Beethoven - Piano Concerto #3 In C Minor, Op. 37 - 2. Largo" ISRC DEN960400472 REM REPLAYGAIN_TRACK_GAIN 4.01 dB REM REPLAYGAIN_TRACK_PEAK 0.720184 INDEX 01 00:00:00FILE "03 Beethoven - Piano Concerto #3 In C Minor, Op. 37 - 3. Rondo.flac" WAVE TRACK 03 AUDIO TITLE "Beethoven - Piano Concerto #3 In C Minor, Op. 37 - 3. Rondò" ISRC DEN960400473 REM REPLAYGAIN_TRACK_GAIN -1.00 dB REM REPLAYGAIN_TRACK_PEAK 0.989502 INDEX 01 00:00:00 TRACK 04 AUDIO TITLE "Beethoven - Piano Concerto #2 In B Flat, Op. 19 - 1. Allegro Con Brio" ISRC DEN960001541 REM REPLAYGAIN_TRACK_GAIN -0.01 dB REM REPLAYGAIN_TRACK_PEAK 0.986145 INDEX 00 09:10:25FILE "04 Beethoven - Piano Concerto #2 In B Flat, Op. 19 - 1. Allegro Con Brio.flac" WAVE INDEX 01 00:00:00FILE "05 Beethoven - Piano Concerto #2 In B Flat, Op. 19 - 2. Adagio.flac" WAVE TRACK 05 AUDIO TITLE "Beethoven - Piano Concerto #2 In B Flat, Op. 19 - 2. Adagio" ISRC DEN960001542 REM REPLAYGAIN_TRACK_GAIN 1.58 dB REM REPLAYGAIN_TRACK_PEAK 0.887878 INDEX 01 00:00:00FILE "06 Beethoven - Piano Concerto #2 In B Flat, Op. 19 - 3. Rondo.flac" WAVE TRACK 06 AUDIO TITLE "Beethoven: Piano Concerto #2 In B Flat, Op. 19 - 3. Rondò" ISRC DEN960001543 REM REPLAYGAIN_TRACK_GAIN 0.63 dB REM REPLAYGAIN_TRACK_PEAK 0.919281 INDEX 01 00:00:00
Martha Argerich - The Collection 1 - The Solo Recordings
[teatrix.ru].t10021.torrent 
Торрент: Зарегистрирован [ 2015-10-25 20:37 ] · 04B4D9E071BFB7951D231006BC09754DEC7697D9

Скачать .torrent

Скачать

25 KB

Статус: проверено
Скачан: 1 раз
Размер: 1.78 GB
terms.php



Быстрый ответ

Имя:

      
Для отправки сообщений необходимо включить JavaScript
Показать сообщения:    

Текущее время: 05-Дек 21:40

Часовой пояс: UTC + 3


Вы можете начинать темы
Вы можете отвечать на сообщения
Вы не можете редактировать свои сообщения
Вы не можете удалять свои сообщения
Вы не можете голосовать в опросах
Вы не можете прикреплять файлы к сообщениям
Вы можете скачивать файлы