(Classical) Martha Argerich Edition: Solos & Duos (Chopin, Schumann, Mozart, Brahms, Bussoni, Liszt, Mendelssohn, Рахманинов, Чайковский, Прокофьев, Ravel, Шостакович, Messiaen, Gustavino, Piazzolla) [6CD] - 2011, FLAC (image+.cue) lossless


Статистика раздачи [Обновить пиров]
Размер:  1.6 GB   |    Зарегистрирован:  1 год 1 месяц   |    Скачан:  1 раз

Полного источника не было: 13 дней

 
   
 
 
 

[Цитировать]

Martha Argerich Edition: Solos & Duos
Жанр: Classical
Страна-производитель диска: EU
Год издания диска: 2011
Издатель (лейбл): EMI Classics
Номер по каталогу: 50999 0 94044 2 7
Дата записи: 1965-2009
Аудиокодек: FLAC
Тип рипа: image+.cue
Битрейт аудио: lossless
Продолжительность: 70:35+79:41+71:41+70:09+71:57+77:06
Источник: Odeonmusic
Наличие сканов в содержимом раздачи: да
Треклист:

CD1 - Chopin - Piano Sonata No.3, Mazurkas, Nocturne, Scherzo, Polonaise heroïque; Schumann - Kinderszenen

Frederic Chopin
Piano Sonata No.3

1. I. Allegro maestoso
2. II. Scherzo: Molto vivace
3. III. Largo
4. IV. Finale: Presto, non tanto
5. Mazurka in A minor op.59 No.1
6. Mazurka in A flat op.59 No.2
7. Mazurka in F sharp minor, op.59 No.3
8. Nocturne in F op.15 No.1
9. Scherzo No.3 in C sharp minor op.39
10. Polonaise heroïque in A flat op.53
Recorded: 23,24,27.VI.1965, No.1 Studio, Abbey Road, London
Robert Schumann
Kinderszenen Op.15

11. I. Von fremden Ländchen und Menschen
12. II. Kuriose Geschiste
13. III. Hasche-Mann
14. IV. Bittendes Kind
15. V. Glückes genug
16. VI. Wichtige Begebenheit
17. VII. Träumerei
18. VIII. Am Kamin
19. IX. Ritter vom Steckenpferd
20. X. Fast zu ernst
21. XI. Fürchtenmachen
22. XII. Kind und Einschlummern
23. XIII. Der Dichter spricht
Recorded in concert : 24.VI.2007, Auditorio Stelio Molo, Lugano

CD2 - Schumann - Andante and Variations; Mozart - Andante and Variations, Piano Sonata; Bussoni - Fantasie für eine Orgelwalze; Liszt - Reminiscences de Don Juan, Concerto pathétique

Robert Schumann
1. Andante and Variations op.46 for two pianos
Gabriela Montero, piano
Recorded in concert : 21.VI.2007, Auditorio Stelio Molo, Lugano
Wolfgang Amadeus Mozart
2. Andante and Variations in G K.501 for piano four hands
Stephen Kovacevich, piano
Recorded in concert : 21.VI.2008, Auditorio Stelio Molo, Lugano
Piano Sonata in C K.545
with a freely added arrangement for a second piano by Edvard Grieg
3. I. Allegro
4. II. Andante
5. III. Rondo: Allegretto
Piotr Anderszewski, piano
Recorded in concert : 16.VI.2005, Auditorio Stelio Molo, Lugano
Ferruccio Bussoni
Wolfgang Amadeus Mozart

6. Fantasie für eine Orgelwalze
Lilya Zilberstein, piano
Recorded in concert : 18.VI.2007, Auditorio Stelio Molo, Lugano
Franz Liszt
Reminiscences de Don Juan for two pianos S656

7. I. Grave
8. I.I Duetto: Andantino
9. III. Allegretto
10. IV. Presto
Mauricio Vallina, piano
Recorded in concert : 29.VI.2009, Auditorio Stelio Molo, Lugano
11. Concerto pathétique in E minor S258
Nelson Freire, piano
Recorded in concert as part of Music from Saratoga: VII.&VIII.1998, Little Theatre

CD3 - Mendelssohn - A Midsummer Night's Dream; Brahms - Sonata in F minor, Variations on a theme by Haydn

Felix Mendelssohn
A Midsummer Night's Dream Op.21

1. Overture
2. Scherzo
Cristina Marton, piano
Recorded in concert : 27.VI.2009, Auditorio Stelio Molo, Lugano
Johannes Brahms
Sonata in F minor Op.34b for two pianos

(Transcription of Piano Quintet Op.34)
3. I. Allegro non troppo
4. II. Anadante, un poco adagio
5. III. Scherzo: Allegro
6. IV. Finale: Poco sostenuto - Allegro non troppo - Presto non troppo
Lilya Zilberstein, piano
Recorded in concert : 24.VI.2002, Auditorio Stelio Molo, Lugano
Variations on a theme by Joseph Haydn Op.56b for two pianos
7. Chorale
8. Variation I: Andante con moto
9. Variation II: Vivace
10. Variation III: Con moto
11. Variation IV: Andante
12. Variation V: Poco Presto
13. Variation VI: Vivace
14. Variation VII: Grazioso
15. Variation VIII: Poco Presto
16. Finale: Andante
Polina Leschenko, piano
Recorded in concert : 23.VI.2005, Auditorio Stelio Molo, Lugano

CD4 - Rachmaninov - Suite No.1 op.5, Suite No.2 op.17, Six morceaux op.11

Sergei Rachmaninov
Suite No.1 op.5 for two pianos

1. I. Barcarole
2. II. La Nuit... l'Amour
3. III. Les Larmes
4. IV. Pâques
Lilya Zilberstein, piano
Recorded in concert : 11.VI.2008, Auditorio Stelio Molo, Lugano
Suite No.2 op.17 for two pianos
5. I. Introduction
6. II. Valse
7. III. Romance
8. IV. Tarantelle
Gabriela Montero, piano
Recorded in concert : 22.VI.2003, Auditorio Stelio Molo, Lugano
Six morceaux op.11
9. I. Barcarolle
10. II. Scherzo
11. III. Thème russe
12. IV. Valse
13. V. Romance
14. VI. Slava
Lilya Zilberstein, piano
Recorded in concert : 22.VI.2003, Auditorio Stelio Molo, Lugano

CD5 - Prokofiev - Symphony No.1; Tchaikovsky - The Nutcracker Suite; Shostakovich - Concertino; Ravel - Ma Mère l'Oye; Lutosławski - Variations on a Theme by Paganini

Sergei Prokofiev
Symphony No.1 in D Op.25 'Classical'

Trancr. Rikuya Terashina
1. I. Allegro
2. II. Larghetto
3. III. Gavotte: Non troppo allegro
4. IV. Finale: Molto vivace
Yefim Bronfman, piano
Recorded in concert : 21.VI.2004, Auditorio Stelio Molo, Lugano
Pyotr Tchaikovsky
The Nutcracker Suite Op.71a

Transcr. Nicolas Economou
5. I. Overture miniature, II. Danse caractéristique
6. a. Marche: Tempode marcia viva
7. b. Danse de la fée Dragée: andante non troppo
8. c. Danse russe: Trépak: Tempo di Trepak, molto vivace
9. d. Danse arabe: Allegretto
10. e. Danse chinoise: Allegro moderato
11. f. Danse des mirlitons: Moderato assai
12. III. Valse des fleurs
Mirabela Dina, piano
Recorded in concert : 22.VI.2003, Auditorio Stelio Molo, Lugano
Dmitri Shostakovich
13. Concertino in A op.94
Lilya Zilberstein, piano
Recorded in concert : 25.VI.2006, Auditorio Stelio Molo, Lugano
Maurice Ravel
Ma Mère l'Oye - Suite

14. I. Pavane de la Belle au Bois dormant: Lent
15. II. Petit Poucet
16. III. Laideronette, imperatrice des pagodes: Mouvement de marche
17. IV. Les entretiens de la Belle et la Bête: Mouvement de valse modéré
18. V. Jardin féerique: Lent et grave
Alexandre Mogilevsky, piano
Recorded in concert : 15.VI.2007, Auditorio Stelio Molo, Lugano
Witold Lutosławski
19. Variations on a Theme by Paganini
Giorgia Tomassi, piano
Recorded in concert : 22.VI.2003, Auditorio Stelio Molo, Lugano
20. Variations on a Theme by Paganini
Mauricio Vallina, piano
Recorded in concert : 15.VI.2007, Auditorio Stelio Molo, Lugano

CD6 - Olivier Messiaen - Visions de l'Amen; Carlos Gustavino -Tres Romances argentinos; Piazzolla - Three Tangos

Olivier Messiaen
Visions de l'Amen

1. I. Amen de la Création
2. II. Amen des étoiles, de la planète à l'anneau
3. III. Amen de l'Agonie de Jésus
4. IV. Amen du Désir
5. V. Amen des Anges, des Saints, du chant des oiseaux
6. VI. Amen du Jugement
7. VII. Amen de la Consommation
Alexandre Rabinovitch, piano
Recorded : 2-3.XII.1989, No.1 Studio, Abbey Road, London
Carlos Gustavino
Tres Romances argentinos

8. I. Las niñas de Santa Fe
9. II. Muchacho Jujeño
10. III. Baile en Cuyo
Mauricio Vallina, piano
Recorded in concert : 14.VI.2005, Auditorio Stelio Molo, Lugano
Astor Piazzolla
Three Tangos

Transc. Eduardo Hubert
11. 1. Tres minutos con la realidad
12. 2. Oblivion
13. 3. Libertango
Eduardo Hubert, piano
Recorded in concert : 24.VI.2008, Auditorio Stelio Molo, Lugano
Исполнители:
Martha Argerich, piano

Лог создания рипаCD1

Exact Audio Copy V1.0 beta 3 from 29. August 2011
EAC extraction logfile from 17. February 2012, 18:50
Martha Argerich / Martha Argerich Edition - Solo & Duos (cd1) - Chopin, Schumann
Used drive : HL-DT-STDVDRAM GSA-H10A Adapter: 0 ID: 0
Read mode : SecureUtilize accurate stream : YesDefeat audio cache : YesMake use of C2 pointers : No
Read offset correction : 667Overread into Lead-In and Lead-Out : NoFill up missing offset samples with silence : YesDelete leading and trailing silent blocks : NoNull samples used in CRC calculations : YesUsed interface : Native Win32 interface for Win NT & 2000
Used output format : User Defined EncoderSelected bitrate : 1024 kBit/sQuality : HighAdd ID3 tag : NoCommand line compressor : C:\Program Files\Exact Audio Copy\Flac\flac.exeAdditional command line options : -8 -V -T "TITLE=%title%" -T "ARTIST=%artist%" -T "ALBUMARTIST=%albumartist%" -T "ALBUM=%albumtitle%" -T "DATE=%year%" -T "TRACKNUMBER=%tracknr%" -T "TRACKTOTAL=%numtracks%" -T "GENRE=%genre%" -T "COMMENT=%comment%" -T "PERFORMER=%albuminterpret%" -T "COMPOSER=%composer%" %source% -o %dest%
TOC of the extracted CD
Track | Start | Length | Start sector | End sector --------------------------------------------------------- 1 | 0:00.00 | 8:50.26 | 0 | 39775 2 | 8:50.26 | 2:41.12 | 39776 | 51862 3 | 11:31.38 | 8:40.12 | 51863 | 90874 4 | 20:11.50 | 4:52.65 | 90875 | 112839 5 | 25:04.40 | 3:49.23 | 112840 | 130037 6 | 28:53.63 | 2:51.07 | 130038 | 142869 7 | 31:44.70 | 3:06.20 | 142870 | 156839 8 | 34:51.15 | 3:39.42 | 156840 | 173306 9 | 38:30.57 | 7:07.34 | 173307 | 205365 10 | 45:38.16 | 6:43.57 | 205366 | 235647 11 | 52:21.73 | 1:43.56 | 235648 | 243428 12 | 54:05.54 | 1:09.06 | 243429 | 248609 13 | 55:14.60 | 0:26.49 | 248610 | 250608 14 | 55:41.34 | 0:56.53 | 250609 | 254861 15 | 56:38.12 | 0:58.36 | 254862 | 259247 16 | 57:36.48 | 0:50.56 | 259248 | 263053 17 | 58:27.29 | 2:40.25 | 263054 | 275078 18 | 61:07.54 | 0:46.41 | 275079 | 278569 19 | 61:54.20 | 0:39.21 | 278570 | 281515 20 | 62:33.41 | 1:56.35 | 281516 | 290250 21 | 64:30.01 | 1:40.74 | 290251 | 297824 22 | 66:11.00 | 2:05.50 | 297825 | 307249 23 | 68:16.50 | 2:18.72 | 307250 | 317671
Range status and errors
Selected range
Filename F:\Ripped general\[9955] Martha Argerich Edition - Solo & Duos\cd1\Martha Argerich Edition - Solo & Duos (cd1) - Chopin, Schumann.wav
Peak level 98.4 % Extraction speed 4.7 X Range quality 100.0 % Test CRC C88EBFE5 Copy CRC C88EBFE5 Copy OK
No errors occurred
AccurateRip summary
Track 1 accurately ripped (confidence 3) [B2C04D67] (AR v2)Track 2 accurately ripped (confidence 3) [48C9991F] (AR v2)Track 3 accurately ripped (confidence 3) [B31F5A30] (AR v2)Track 4 accurately ripped (confidence 3) [CF83321B] (AR v2)Track 5 accurately ripped (confidence 3) [D15445C2] (AR v2)Track 6 accurately ripped (confidence 3) [E20041B3] (AR v2)Track 7 accurately ripped (confidence 3) [54310A3C] (AR v2)Track 8 accurately ripped (confidence 3) [125768FD] (AR v2)Track 9 accurately ripped (confidence 3) [44D6DAFF] (AR v2)Track 10 accurately ripped (confidence 3) [FB600868] (AR v2)Track 11 accurately ripped (confidence 3) [8ACA5C00] (AR v2)Track 12 accurately ripped (confidence 3) [9ACF00A8] (AR v2)Track 13 accurately ripped (confidence 3) [A002D4F7] (AR v2)Track 14 accurately ripped (confidence 3) [51C3267C] (AR v2)Track 15 accurately ripped (confidence 3) [652BC15D] (AR v2)Track 16 accurately ripped (confidence 3) [651889BA] (AR v2)Track 17 accurately ripped (confidence 3) [5F3AB614] (AR v2)Track 18 accurately ripped (confidence 3) [57AB2A59] (AR v2)Track 19 accurately ripped (confidence 3) [622AC01C] (AR v2)Track 20 accurately ripped (confidence 3) [BB219BAD] (AR v2)Track 21 accurately ripped (confidence 3) [0772BB67] (AR v2)Track 22 accurately ripped (confidence 3) [9C844C4C] (AR v2)Track 23 accurately ripped (confidence 3) [1B680935] (AR v2)
All tracks accurately ripped
End of status report

CD2

Exact Audio Copy V1.0 beta 3 from 29. August 2011
EAC extraction logfile from 17. February 2012, 21:11
Martha Argerich / Martha Argerich Edition - Solo & Duos (cd2) - Schumann, Mozart, Grieg, Busoni, Liszt
Used drive : HL-DT-STDVDRAM GSA-H10A Adapter: 0 ID: 0
Read mode : SecureUtilize accurate stream : YesDefeat audio cache : YesMake use of C2 pointers : No
Read offset correction : 667Overread into Lead-In and Lead-Out : NoFill up missing offset samples with silence : YesDelete leading and trailing silent blocks : NoNull samples used in CRC calculations : YesUsed interface : Native Win32 interface for Win NT & 2000
Used output format : User Defined EncoderSelected bitrate : 1024 kBit/sQuality : HighAdd ID3 tag : NoCommand line compressor : C:\Program Files\Exact Audio Copy\Flac\flac.exeAdditional command line options : -8 -V -T "TITLE=%title%" -T "ARTIST=%artist%" -T "ALBUMARTIST=%albumartist%" -T "ALBUM=%albumtitle%" -T "DATE=%year%" -T "TRACKNUMBER=%tracknr%" -T "TRACKTOTAL=%numtracks%" -T "GENRE=%genre%" -T "COMMENT=%comment%" -T "PERFORMER=%albuminterpret%" -T "COMPOSER=%composer%" %source% -o %dest%
TOC of the extracted CD
Track | Start | Length | Start sector | End sector --------------------------------------------------------- 1 | 0:00.00 | 13:32.07 | 0 | 60906 2 | 13:32.07 | 7:28.25 | 60907 | 94531 3 | 21:00.32 | 4:43.16 | 94532 | 115772 4 | 25:43.48 | 7:14.36 | 115773 | 148358 5 | 32:58.09 | 2:23.32 | 148359 | 159115 6 | 35:21.41 | 10:12.50 | 159116 | 205065 7 | 45:34.16 | 2:43.04 | 205066 | 217294 8 | 48:17.20 | 2:55.41 | 217295 | 230460 9 | 51:12.61 | 6:11.09 | 230461 | 258294 10 | 57:23.70 | 3:47.23 | 258295 | 275342 11 | 61:11.18 | 18:29.69 | 275343 | 358586
Range status and errors
Selected range
Filename F:\Ripped general\[9955] Martha Argerich Edition - Solo & Duos\cd2\Martha Argerich Edition - Solo & Duos (cd2) - Schumann, Mozart, Grieg, Busoni, Liszt.wav
Peak level 98.8 % Extraction speed 7.6 X Range quality 99.9 % Test CRC 2B33C1E2 Copy CRC 2B33C1E2 Copy OK
No errors occurred
AccurateRip summary
Track 1 accurately ripped (confidence 3) [22EF56CA] (AR v2)Track 2 accurately ripped (confidence 3) [6D624CAF] (AR v2)Track 3 accurately ripped (confidence 3) [82777620] (AR v2)Track 4 accurately ripped (confidence 3) [4E5FAD95] (AR v2)Track 5 accurately ripped (confidence 3) [1BCB5496] (AR v2)Track 6 accurately ripped (confidence 3) [D29B3B1B] (AR v2)Track 7 accurately ripped (confidence 3) [5B0FE0E4] (AR v2)Track 8 accurately ripped (confidence 3) [938B0673] (AR v2)Track 9 accurately ripped (confidence 3) [524A18F4] (AR v2)Track 10 accurately ripped (confidence 3) [4B25DDDE] (AR v2)Track 11 accurately ripped (confidence 3) [BBC20919] (AR v2)
All tracks accurately ripped
End of status report

CD3

Exact Audio Copy V1.0 beta 3 from 29. August 2011
EAC extraction logfile from 17. February 2012, 21:53
Martha Argerich / Martha Argerich Edition - Solo & Duos (cd3) - Mendelssohn, Brahms
Used drive : HL-DT-STDVDRAM GSA-H10A Adapter: 0 ID: 0
Read mode : SecureUtilize accurate stream : YesDefeat audio cache : YesMake use of C2 pointers : No
Read offset correction : 667Overread into Lead-In and Lead-Out : NoFill up missing offset samples with silence : YesDelete leading and trailing silent blocks : NoNull samples used in CRC calculations : YesUsed interface : Native Win32 interface for Win NT & 2000
Used output format : User Defined EncoderSelected bitrate : 1024 kBit/sQuality : HighAdd ID3 tag : NoCommand line compressor : C:\Program Files\Exact Audio Copy\Flac\flac.exeAdditional command line options : -8 -V -T "TITLE=%title%" -T "ARTIST=%artist%" -T "ALBUMARTIST=%albumartist%" -T "ALBUM=%albumtitle%" -T "DATE=%year%" -T "TRACKNUMBER=%tracknr%" -T "TRACKTOTAL=%numtracks%" -T "GENRE=%genre%" -T "COMMENT=%comment%" -T "PERFORMER=%albuminterpret%" -T "COMPOSER=%composer%" %source% -o %dest%
TOC of the extracted CD
Track | Start | Length | Start sector | End sector --------------------------------------------------------- 1 | 0:00.00 | 10:42.04 | 0 | 48153 2 | 10:42.04 | 4:22.49 | 48154 | 67852 3 | 15:04.53 | 14:11.09 | 67853 | 131686 4 | 29:15.62 | 7:58.65 | 131687 | 167601 5 | 37:14.52 | 6:57.00 | 167602 | 198876 6 | 44:11.52 | 10:17.68 | 198877 | 245219 7 | 54:29.45 | 1:46.74 | 245220 | 253243 8 | 56:16.44 | 1:02.04 | 253244 | 257897 9 | 57:18.48 | 0:56.28 | 257898 | 262125 10 | 58:15.01 | 1:47.16 | 262126 | 270166 11 | 60:02.17 | 1:50.53 | 270167 | 278469 12 | 61:52.70 | 0:47.44 | 278470 | 282038 13 | 62:40.39 | 1:10.41 | 282039 | 287329 14 | 63:51.05 | 2:53.30 | 287330 | 300334 15 | 66:44.35 | 0:47.09 | 300335 | 303868 16 | 67:31.44 | 4:10.20 | 303869 | 322638
Range status and errors
Selected range
Filename F:\Ripped general\[9955] Martha Argerich Edition - Solo & Duos\cd3\Martha Argerich Edition - Solo & Duos (cd3) - Mendelssohn, Brahms.wav
Peak level 99.4 % Extraction speed 7.6 X Range quality 100.0 % Test CRC 31E4974E Copy CRC 31E4974E Copy OK
No errors occurred
AccurateRip summary
Track 1 accurately ripped (confidence 3) [161E6E89] (AR v2)Track 2 accurately ripped (confidence 3) [533E10AC] (AR v2)Track 3 accurately ripped (confidence 3) [591139C1] (AR v2)Track 4 accurately ripped (confidence 3) [C7CC5391] (AR v2)Track 5 accurately ripped (confidence 3) [33D15BA6] (AR v2)Track 6 accurately ripped (confidence 3) [B251DCC6] (AR v2)Track 7 accurately ripped (confidence 3) [4E514992] (AR v2)Track 8 accurately ripped (confidence 3) [A57A57D3] (AR v2)Track 9 accurately ripped (confidence 3) [9C389790] (AR v2)Track 10 accurately ripped (confidence 3) [6AC6CF60] (AR v2)Track 11 accurately ripped (confidence 3) [664F826D] (AR v2)Track 12 accurately ripped (confidence 3) [AC07E5BB] (AR v2)Track 13 accurately ripped (confidence 3) [CE784D16] (AR v2)Track 14 accurately ripped (confidence 3) [7D409CC6] (AR v2)Track 15 accurately ripped (confidence 3) [FC8398FC] (AR v2)Track 16 accurately ripped (confidence 3) [69657F62] (AR v2)
All tracks accurately ripped
End of status report

CD4

Exact Audio Copy V1.0 beta 3 from 29. August 2011
EAC extraction logfile from 17. February 2012, 22:20
Martha Argerich / Martha Argerich Edition - Solo & Duos (cd4) - Rachmaninov
Used drive : HL-DT-STDVDRAM GSA-H10A Adapter: 0 ID: 0
Read mode : SecureUtilize accurate stream : YesDefeat audio cache : YesMake use of C2 pointers : No
Read offset correction : 667Overread into Lead-In and Lead-Out : NoFill up missing offset samples with silence : YesDelete leading and trailing silent blocks : NoNull samples used in CRC calculations : YesUsed interface : Native Win32 interface for Win NT & 2000
Used output format : User Defined EncoderSelected bitrate : 1024 kBit/sQuality : HighAdd ID3 tag : NoCommand line compressor : C:\Program Files\Exact Audio Copy\Flac\flac.exeAdditional command line options : -8 -V -T "TITLE=%title%" -T "ARTIST=%artist%" -T "ALBUMARTIST=%albumartist%" -T "ALBUM=%albumtitle%" -T "DATE=%year%" -T "TRACKNUMBER=%tracknr%" -T "TRACKTOTAL=%numtracks%" -T "GENRE=%genre%" -T "COMMENT=%comment%" -T "PERFORMER=%albuminterpret%" -T "COMPOSER=%composer%" %source% -o %dest%
TOC of the extracted CD
Track | Start | Length | Start sector | End sector --------------------------------------------------------- 1 | 0:00.00 | 7:55.70 | 0 | 35694 2 | 7:55.70 | 5:54.72 | 35695 | 62316 3 | 13:50.67 | 6:14.24 | 62317 | 90390 4 | 20:05.16 | 3:29.38 | 90391 | 106103 5 | 23:34.54 | 3:44.29 | 106104 | 122932 6 | 27:19.08 | 5:31.53 | 122933 | 147810 7 | 32:50.61 | 6:58.47 | 147811 | 179207 8 | 39:49.33 | 5:59.05 | 179208 | 206137 9 | 45:48.38 | 5:11.69 | 206138 | 229531 10 | 51:00.32 | 2:55.68 | 229532 | 242724 11 | 53:56.25 | 4:12.62 | 242725 | 261686 12 | 58:09.12 | 3:56.32 | 261687 | 279418 13 | 62:05.44 | 3:28.52 | 279419 | 295070 14 | 65:34.21 | 4:35.33 | 295071 | 315728
Range status and errors
Selected range
Filename F:\Ripped general\[9955] Martha Argerich Edition - Solo & Duos\cd4\Martha Argerich Edition - Solo & Duos (cd4) - Rachmaninov.wav
Peak level 98.9 % Extraction speed 7.7 X Range quality 100.0 % Test CRC F71A7F27 Copy CRC F71A7F27 Copy OK
No errors occurred
AccurateRip summary
Track 1 accurately ripped (confidence 3) [88B71DE5] (AR v2)Track 2 accurately ripped (confidence 3) [291A5EC8] (AR v2)Track 3 accurately ripped (confidence 3) [3DF25E7F] (AR v2)Track 4 accurately ripped (confidence 3) [F71FC297] (AR v2)Track 5 accurately ripped (confidence 3) [C91899EB] (AR v2)Track 6 accurately ripped (confidence 3) [98DD57E3] (AR v2)Track 7 accurately ripped (confidence 3) [1E416CF6] (AR v2)Track 8 accurately ripped (confidence 3) [64052223] (AR v2)Track 9 accurately ripped (confidence 3) [2369B4BA] (AR v2)Track 10 accurately ripped (confidence 3) [0899AC9C] (AR v2)Track 11 accurately ripped (confidence 3) [6DD491C3] (AR v2)Track 12 accurately ripped (confidence 3) [2ED77523] (AR v2)Track 13 accurately ripped (confidence 3) [90A93492] (AR v2)Track 14 accurately ripped (confidence 3) [D3710976] (AR v2)
All tracks accurately ripped
End of status report

CD5

Exact Audio Copy V1.0 beta 3 from 29. August 2011
EAC extraction logfile from 17. February 2012, 22:55
Martha Argerich / Martha Argerich Edition - Solo & Duos (cd5) - Prokofiev; Tchaikovsky, Shostakovich, Ravel, Lutoslawski
Used drive : HL-DT-STDVDRAM GSA-H10A Adapter: 0 ID: 0
Read mode : SecureUtilize accurate stream : YesDefeat audio cache : YesMake use of C2 pointers : No
Read offset correction : 667Overread into Lead-In and Lead-Out : NoFill up missing offset samples with silence : YesDelete leading and trailing silent blocks : NoNull samples used in CRC calculations : YesUsed interface : Native Win32 interface for Win NT & 2000
Used output format : User Defined EncoderSelected bitrate : 1024 kBit/sQuality : HighAdd ID3 tag : NoCommand line compressor : C:\Program Files\Exact Audio Copy\Flac\flac.exeAdditional command line options : -8 -V -T "TITLE=%title%" -T "ARTIST=%artist%" -T "ALBUMARTIST=%albumartist%" -T "ALBUM=%albumtitle%" -T "DATE=%year%" -T "TRACKNUMBER=%tracknr%" -T "TRACKTOTAL=%numtracks%" -T "GENRE=%genre%" -T "COMMENT=%comment%" -T "PERFORMER=%albuminterpret%" -T "COMPOSER=%composer%" %source% -o %dest%
TOC of the extracted CD
Track | Start | Length | Start sector | End sector --------------------------------------------------------- 1 | 0:00.00 | 4:11.27 | 0 | 18851 2 | 4:11.27 | 3:55.42 | 18852 | 36518 3 | 8:06.69 | 1:31.31 | 36519 | 43374 4 | 9:38.25 | 4:20.12 | 43375 | 62886 5 | 13:58.37 | 3:04.73 | 62887 | 76759 6 | 17:03.35 | 2:22.21 | 76760 | 87430 7 | 19:25.56 | 2:24.08 | 87431 | 98238 8 | 21:49.64 | 1:05.37 | 98239 | 103150 9 | 22:55.26 | 3:16.02 | 103151 | 117852 10 | 26:11.28 | 0:59.64 | 117853 | 122341 11 | 27:11.17 | 2:11.72 | 122342 | 132238 12 | 29:23.14 | 7:00.37 | 132239 | 163775 13 | 36:23.51 | 9:54.05 | 163776 | 208330 14 | 46:17.56 | 1:22.26 | 208331 | 214506 15 | 47:40.07 | 2:46.19 | 214507 | 226975 16 | 50:26.26 | 2:47.56 | 226976 | 239556 17 | 53:14.07 | 4:28.55 | 239557 | 259711 18 | 57:42.62 | 3:04.45 | 259712 | 273556 19 | 60:47.32 | 5:34.38 | 273557 | 298644 20 | 66:21.70 | 5:35.31 | 298645 | 323800
Range status and errors
Selected range
Filename F:\Ripped general\[9955] Martha Argerich Edition - Solo & Duos\cd5\Martha Argerich Edition - Solo & Duos (cd5) - Prokofiev; Tchaikovsky, Shostakovich, Ravel, Lutoslawski.wav
Peak level 98.9 % Extraction speed 7.6 X Range quality 99.9 % Test CRC 9188A955 Copy CRC 9188A955 Copy OK
No errors occurred
AccurateRip summary
Track 1 accurately ripped (confidence 3) [FBD0D4B9] (AR v2)Track 2 accurately ripped (confidence 3) [5B095AA1] (AR v2)Track 3 accurately ripped (confidence 3) [F8BA22F3] (AR v2)Track 4 accurately ripped (confidence 3) [6A29B379] (AR v2)Track 5 accurately ripped (confidence 3) [5C556B8B] (AR v2)Track 6 accurately ripped (confidence 3) [38000A3F] (AR v2)Track 7 accurately ripped (confidence 3) [B31F785D] (AR v2)Track 8 accurately ripped (confidence 3) [280BB7A2] (AR v2)Track 9 accurately ripped (confidence 3) [EDDEE4C0] (AR v2)Track 10 accurately ripped (confidence 3) [14B522E3] (AR v2)Track 11 accurately ripped (confidence 3) [8E2D6C35] (AR v2)Track 12 accurately ripped (confidence 3) [7A170C29] (AR v2)Track 13 accurately ripped (confidence 3) [820DE6FE] (AR v2)Track 14 accurately ripped (confidence 3) [B912869D] (AR v2)Track 15 accurately ripped (confidence 3) [728571F7] (AR v2)Track 16 accurately ripped (confidence 3) [24A24B22] (AR v2)Track 17 accurately ripped (confidence 3) [F13D549F] (AR v2)Track 18 accurately ripped (confidence 3) [E15B4E7F] (AR v2)Track 19 accurately ripped (confidence 3) [2538B6F6] (AR v2)Track 20 accurately ripped (confidence 3) [43A991E3] (AR v2)
All tracks accurately ripped
End of status report

CD6

Отсутствует

Картинки

Содержание индексной карты (.CUE)CD1

REM GENRE ClassicalREM DATE 2011REM DISCID 52108B17REM COMMENT "ExactAudioCopy v1.0b3"PERFORMER "Martha Argerich"TITLE "Martha Argerich Edition - Solo & Duos (cd1) - Chopin, Schumann"FILE "Martha Argerich Edition - Solo & Duos (cd1) - Chopin, Schumann.flac" WAVE TRACK 01 AUDIO TITLE "Piano Sonata No.3 - I. Allegro maestoso" PERFORMER "Martha Argerich" INDEX 01 00:00:00 TRACK 02 AUDIO TITLE "Piano Sonata No.3 - II. Scherzo: Molto vivace" PERFORMER "Martha Argerich" INDEX 00 08:45:16 INDEX 01 08:50:26 TRACK 03 AUDIO TITLE "Piano Sonata No.3 - III. Largo" PERFORMER "Martha Argerich" INDEX 00 11:27:02 INDEX 01 11:31:38 TRACK 04 AUDIO TITLE "Piano Sonata No.3 - IV. Finale: Presto, non tanto" PERFORMER "Martha Argerich" INDEX 00 20:04:48 INDEX 01 20:11:50 TRACK 05 AUDIO TITLE "Mazurka in A minor op.59 No.1" PERFORMER "Martha Argerich" INDEX 00 24:53:19 INDEX 01 25:04:40 TRACK 06 AUDIO TITLE "Mazurka in A flat op.59 No.2" PERFORMER "Martha Argerich" INDEX 00 28:51:39 INDEX 01 28:53:63 TRACK 07 AUDIO TITLE "Mazurka in F sharp minor, op.59 No.3" PERFORMER "Martha Argerich" INDEX 00 31:42:71 INDEX 01 31:44:70 TRACK 08 AUDIO TITLE "Nocturne in F op.15 No.1" PERFORMER "Martha Argerich" INDEX 00 34:43:49 INDEX 01 34:51:15 TRACK 09 AUDIO TITLE "Scherzo No.3 in C sharp minor op.39" PERFORMER "Martha Argerich" INDEX 00 38:25:22 INDEX 01 38:30:57 TRACK 10 AUDIO TITLE "Polonaise heroпque in A flat op.53" PERFORMER "Martha Argerich" INDEX 00 45:31:67 INDEX 01 45:38:16 TRACK 11 AUDIO TITLE "Kinderszenen op.15 - I. Von fremden Lдndchen und Menschen" PERFORMER "Martha Argerich" INDEX 00 52:13:62 INDEX 01 52:21:73 TRACK 12 AUDIO TITLE "Kinderszenen op.15 - II. Kuriose Geschiste" PERFORMER "Martha Argerich" INDEX 01 54:05:54 TRACK 13 AUDIO TITLE "Kinderszenen op.15 - III. Hasche-Mann" PERFORMER "Martha Argerich" INDEX 01 55:14:60 TRACK 14 AUDIO TITLE "Kinderszenen op.15 - IV. Bittendes Kind" PERFORMER "Martha Argerich" INDEX 01 55:41:34 TRACK 15 AUDIO TITLE "Kinderszenen op.15 - V. Glьckes genug" PERFORMER "Martha Argerich" INDEX 01 56:38:12 TRACK 16 AUDIO TITLE "Kinderszenen op.15 - VI. Wichtige Begebenheit" PERFORMER "Martha Argerich" INDEX 01 57:36:48 TRACK 17 AUDIO TITLE "Kinderszenen op.15 - VII. Trдumerei" PERFORMER "Martha Argerich" INDEX 01 58:27:29 TRACK 18 AUDIO TITLE "Kinderszenen op.15 - VIII. Am Kamin" PERFORMER "Martha Argerich" INDEX 01 61:07:54 TRACK 19 AUDIO TITLE "Kinderszenen op.15 - IX. Ritter vom Steckenpferd" PERFORMER "Martha Argerich" INDEX 01 61:54:20 TRACK 20 AUDIO TITLE "Kinderszenen op.15 - X. Fast zu ernst" PERFORMER "Martha Argerich" INDEX 01 62:33:41 TRACK 21 AUDIO TITLE "Kinderszenen op.15 - XI. Fьrchtenmachen" PERFORMER "Martha Argerich" INDEX 01 64:30:01 TRACK 22 AUDIO TITLE "Kinderszenen op.15 - XII. Kind und Einschlummern" PERFORMER "Martha Argerich" INDEX 01 66:11:00 TRACK 23 AUDIO TITLE "Kinderszenen op.15 - XIII. Der Dichter spricht" PERFORMER "Martha Argerich" INDEX 01 68:16:50

CD2

REM GENRE ClassicalREM DATE 2011REM DISCID A212AD0BREM COMMENT "ExactAudioCopy v1.0b3"PERFORMER "Martha Argerich"TITLE "Martha Argerich Edition - Solo & Duos (cd2) - Schumann, Mozart, Grieg, Busoni..."FILE "Martha Argerich Edition - Solo & Duos (cd2) - Schumann, Mozart, Grieg, Busoni, Liszt.flac" WAVE TRACK 01 AUDIO TITLE "Schumann - Andante and Variations op.46" PERFORMER "Martha Argerich & Gabriela Montero" INDEX 01 00:00:00 TRACK 02 AUDIO TITLE "W.A.Mozart - Andante and Variations K.501" PERFORMER "Martha Argerich & Stephen Kovacevich" INDEX 00 13:22:66 INDEX 01 13:32:07 TRACK 03 AUDIO TITLE "Mozart-Grieg - Piano Sonata K.545 - I. Allegro" PERFORMER "Martha Argerich & Piotr Anderszewski" INDEX 00 20:51:63 INDEX 01 21:00:32 TRACK 04 AUDIO TITLE "Mozart-Grieg - Piano Sonata K.545 - II. Andante" PERFORMER "Martha Argerich & Piotr Anderszewski" INDEX 01 25:43:48 TRACK 05 AUDIO TITLE "Mozart-Grieg - Piano Sonata K.545 - III. Rondo: Allegretto" PERFORMER "Martha Argerich & Piotr Anderszewski" INDEX 01 32:58:09 TRACK 06 AUDIO TITLE "Busoni-Mozart - Fantasie fьr eine Orgelwalze" PERFORMER "Martha Argerich & Lilya Zilberstein" INDEX 00 35:12:23 INDEX 01 35:21:41 TRACK 07 AUDIO TITLE "Liszt - Reminiscences de Don Juan for two pianos - I. Grave" PERFORMER "Martha Argerich & Mauricio Vallina" INDEX 00 45:25:06 INDEX 01 45:34:16 TRACK 08 AUDIO TITLE "Liszt - Reminiscences de Don Juan for two pianos - I.I Duetto: Andantino" PERFORMER "Martha Argerich & Mauricio Vallina" INDEX 01 48:17:20 TRACK 09 AUDIO TITLE "Liszt - Reminiscences de Don Juan for two pianos - III. Allegretto" PERFORMER "Martha Argerich & Mauricio Vallina" INDEX 01 51:12:61 TRACK 10 AUDIO TITLE "Liszt - Reminiscences de Don Juan for two pianos - IV. Presto" PERFORMER "Martha Argerich & Mauricio Vallina" INDEX 01 57:23:70 TRACK 11 AUDIO TITLE "Liszt - Concerto pathйtique" PERFORMER "Martha Argerich & Nelson Freire" INDEX 00 61:04:43 INDEX 01 61:11:18

CD3

REM GENRE ClassicalREM DATE 2011REM DISCID E910CD10REM COMMENT "ExactAudioCopy v1.0b3"PERFORMER "Martha Argerich"TITLE "Martha Argerich Edition - Solo & Duos (cd3) - Mendelssohn, Brahms"FILE "Martha Argerich Edition - Solo & Duos (cd3) - Mendelssohn, Brahms.flac" WAVE TRACK 01 AUDIO TITLE "Mendelssohn - A Midsummer Night's Dream 1. Overture" PERFORMER "Martha Argerich & Cristina Marton" INDEX 01 00:00:00 TRACK 02 AUDIO TITLE "Mendelssohn - A Midsummer Night's Dream 2. Scherzo" PERFORMER "Martha Argerich & Cristina Marton" INDEX 01 10:42:04 TRACK 03 AUDIO TITLE "Brahms - Sonata in F minor - I. Allegro non troppo" PERFORMER "Martha Argerich & Lilya Zilberstein" INDEX 00 14:57:60 INDEX 01 15:04:53 TRACK 04 AUDIO TITLE "Brahms - Sonata in F minor - II. Anadante, un poco adagio" PERFORMER "Martha Argerich & Lilya Zilberstein" INDEX 01 29:15:62 TRACK 05 AUDIO TITLE "Brahms - Sonata in F minor - III. Scherzo: Allegro" PERFORMER "Martha Argerich & Lilya Zilberstein" INDEX 01 37:14:52 TRACK 06 AUDIO TITLE "Brahms - Sonata in F minor - IV. Finale: Poco sostenuto - Allegro non troppo ..." PERFORMER "Martha Argerich & Lilya Zilberstein" INDEX 01 44:11:52 TRACK 07 AUDIO TITLE "Brahms - Variations on a theme by J.Haydn - Chorale" PERFORMER "Martha Argerich & Polina Leschenko" INDEX 00 54:21:49 INDEX 01 54:29:45 TRACK 08 AUDIO TITLE "Brahms - Variations on a theme by J.Haydn - Variation I: Andante con moto" PERFORMER "Martha Argerich & Polina Leschenko" INDEX 01 56:16:44 TRACK 09 AUDIO TITLE "Brahms - Variations on a theme by J.Haydn - Variation II: Vivace" PERFORMER "Martha Argerich & Polina Leschenko" INDEX 01 57:18:48 TRACK 10 AUDIO TITLE "Brahms - Variations on a theme by J.Haydn - Variation III: Con moto" PERFORMER "Martha Argerich & Polina Leschenko" INDEX 01 58:15:01 TRACK 11 AUDIO TITLE "Brahms - Variations on a theme by J.Haydn - Variation IV: Andante" PERFORMER "Martha Argerich & Polina Leschenko" INDEX 01 60:02:17 TRACK 12 AUDIO TITLE "Brahms - Variations on a theme by J.Haydn - Variation V: Poco Presto" PERFORMER "Martha Argerich & Polina Leschenko" INDEX 01 61:52:70 TRACK 13 AUDIO TITLE "Brahms - Variations on a theme by J.Haydn - Variation VI: Vivace" PERFORMER "Martha Argerich & Polina Leschenko" INDEX 01 62:40:39 TRACK 14 AUDIO TITLE "Brahms - Variations on a theme by J.Haydn - Variation VII: Grazioso" PERFORMER "Martha Argerich & Polina Leschenko" INDEX 01 63:51:05 TRACK 15 AUDIO TITLE "Brahms - Variations on a theme by J.Haydn - Variation VIII: Poco Presto" PERFORMER "Martha Argerich & Polina Leschenko" INDEX 01 66:44:35 TRACK 16 AUDIO TITLE "Brahms - Variations on a theme by J.Haydn - Finale: Andante" PERFORMER "Martha Argerich & Polina Leschenko" INDEX 01 67:31:44

CD4

REM GENRE ClassicalREM DATE 2011REM DISCID C710710EREM COMMENT "ExactAudioCopy v1.0b3"PERFORMER "Martha Argerich"TITLE "Martha Argerich Edition - Solo & Duos (cd4) - Rachmaninov"FILE "Martha Argerich Edition - Solo & Duos (cd4) - Rachmaninov.flac" WAVE TRACK 01 AUDIO TITLE "Rachmaninov - Suite No.1 op.5 - I. Barcarole" PERFORMER "Martha Argerich & Lilya Zilberstein" INDEX 01 00:00:00 TRACK 02 AUDIO TITLE "Rachmaninov - Suite No.1 op.5 - II. La Nuit... l'Amour" PERFORMER "Martha Argerich & Lilya Zilberstein" INDEX 01 07:55:70 TRACK 03 AUDIO TITLE "Rachmaninov - Suite No.1 op.5 - III. Les Larmes" PERFORMER "Martha Argerich & Lilya Zilberstein" INDEX 01 13:50:67 TRACK 04 AUDIO TITLE "Rachmaninov - Suite No.1 op.5 - IV. Pвques" PERFORMER "Martha Argerich & Lilya Zilberstein" INDEX 01 20:05:16 TRACK 05 AUDIO TITLE "Rachmaninov - Suite No.2 op.17 - I. Introduction" PERFORMER "Martha Argerich & Gabriela Montero" INDEX 00 23:29:39 INDEX 01 23:34:54 TRACK 06 AUDIO TITLE "Rachmaninov - Suite No.2 op.17 - II. Valse" PERFORMER "Martha Argerich & Gabriela Montero" INDEX 01 27:19:08 TRACK 07 AUDIO TITLE "Rachmaninov - Suite No.2 op.17 - III. Romance" PERFORMER "Martha Argerich & Gabriela Montero" INDEX 01 32:50:61 TRACK 08 AUDIO TITLE "Rachmaninov - Suite No.2 op.17 - IV. Tarantelle" PERFORMER "Martha Argerich & Gabriela Montero" INDEX 01 39:49:33 TRACK 09 AUDIO TITLE "Rachmaninov - Six morceaux op.11 - I. Barcarolle" PERFORMER "Martha Argerich & Lilya Zilberstein" INDEX 00 45:42:62 INDEX 01 45:48:38 TRACK 10 AUDIO TITLE "Rachmaninov - Six morceaux op.11 - II. Scherzo" PERFORMER "Martha Argerich & Lilya Zilberstein" INDEX 01 51:00:32 TRACK 11 AUDIO TITLE "Rachmaninov - Six morceaux op.11 - III. Thиme russe" PERFORMER "Martha Argerich & Lilya Zilberstein" INDEX 01 53:56:25 TRACK 12 AUDIO TITLE "Rachmaninov - Six morceaux op.11 - IV. Valse" PERFORMER "Martha Argerich & Lilya Zilberstein" INDEX 01 58:09:12 TRACK 13 AUDIO TITLE "Rachmaninov - Six morceaux op.11 - V. Romance" PERFORMER "Martha Argerich & Lilya Zilberstein" INDEX 01 62:05:44 TRACK 14 AUDIO TITLE "Rachmaninov - Six morceaux op.11 - VI. Slava" PERFORMER "Martha Argerich & Lilya Zilberstein" INDEX 01 65:34:21

CD5

REM DATE 2011REM DISCID 3210DD14REM COMMENT "ExactAudioCopy v1.0b3"PERFORMER "Martha Argerich"TITLE "Martha Argerich Edition - Solo & Duos (cd5) - Prokofiev; Tchaikovsky, Shostak..."FILE "Martha Argerich Edition - Solo & Duos (cd5) - Prokofiev; Tchaikovsky, Shostakovich, Ravel, Lutoslawski.flac" WAVE TRACK 01 AUDIO TITLE "Prokofiev - Symphony No.1 trancr.2 pianos - I. Allegro" PERFORMER "Martha Argerich & Yefim Bronfman" INDEX 01 00:00:00 TRACK 02 AUDIO TITLE "Prokofiev - Symphony No.1 trancr.2 pianos - II. Larghetto" PERFORMER "Martha Argerich & Yefim Bronfman" INDEX 01 04:11:27 TRACK 03 AUDIO TITLE "Prokofiev - Symphony No.1 trancr.2 pianos - III. Gavotte: Non troppo allegro" PERFORMER "Martha Argerich & Yefim Bronfman" INDEX 01 08:06:69 TRACK 04 AUDIO TITLE "Prokofiev - Symphony No.1 trancr.2 pianos - IV. Finale: Molto vivace" PERFORMER "Martha Argerich & Yefim Bronfman" INDEX 01 09:38:25 TRACK 05 AUDIO TITLE "Tchaikovsky - The Nutcracker Suite - I. Overture miniature, II. Danse caractй..." PERFORMER "Martha Argerich & Mirabela Dina" INDEX 00 13:51:52 INDEX 01 13:58:37 TRACK 06 AUDIO TITLE "Tchaikovsky - The Nutcracker Suite - a. Marche: Tempode marcia viva" PERFORMER "Martha Argerich & Mirabela Dina" INDEX 01 17:03:35 TRACK 07 AUDIO TITLE "Tchaikovsky - The Nutcracker Suite - b. Danse de la fйe Dragйe: andante non t..." PERFORMER "Martha Argerich & Mirabela Dina" INDEX 01 19:25:56 TRACK 08 AUDIO TITLE "Tchaikovsky - The Nutcracker Suite - c. Danse russe: Trйpak: Tempo di Trepak,..." PERFORMER "Martha Argerich & Mirabela Dina" INDEX 01 21:49:64 TRACK 09 AUDIO TITLE "Tchaikovsky - The Nutcracker Suite - d. Danse arabe: Allegretto" PERFORMER "Martha Argerich & Mirabela Dina" INDEX 01 22:55:26 TRACK 10 AUDIO TITLE "Tchaikovsky - The Nutcracker Suite - e. Danse chinoise: Allegro moderato" PERFORMER "Martha Argerich & Mirabela Dina" INDEX 01 26:11:28 TRACK 11 AUDIO TITLE "Tchaikovsky - The Nutcracker Suite - f. Danse des mirlitons: Moderato assai" PERFORMER "Martha Argerich & Mirabela Dina" INDEX 01 27:11:17 TRACK 12 AUDIO TITLE "Tchaikovsky - The Nutcracker Suite - III. Valse des fleurs" PERFORMER "Martha Argerich & Mirabela Dina" INDEX 01 29:23:14 TRACK 13 AUDIO TITLE "Shostakovich - Concertino op.94" PERFORMER "Martha Argerich & Lilya Zilberstein" INDEX 00 36:16:14 INDEX 01 36:23:51 TRACK 14 AUDIO TITLE "Ravel - Ma Mиre l'Oye - Suite - I. Pavane de la Belle au Bois dormant: Lent" PERFORMER "Martha Argerich & Alexandre Mogilevsky" INDEX 00 46:10:14 INDEX 01 46:17:56 TRACK 15 AUDIO TITLE "Ravel - Ma Mиre l'Oye - Suite - II. Petit Poucet" PERFORMER "Martha Argerich & Alexandre Mogilevsky" INDEX 01 47:40:07 TRACK 16 AUDIO TITLE "Ravel - Ma Mиre l'Oye - Suite - III. Laideronette, imperatrice des pagodes: M..." PERFORMER "Martha Argerich & Alexandre Mogilevsky" INDEX 01 50:26:26 TRACK 17 AUDIO TITLE "Ravel - Ma Mиre l'Oye - Suite - IV. Les entretiens de la Belle et la Bкte: Mo..." PERFORMER "Martha Argerich & Alexandre Mogilevsky" INDEX 01 53:14:07 TRACK 18 AUDIO TITLE "Ravel - Ma Mиre l'Oye - Suite - V. Jardin fйerique: Lent et grave" PERFORMER "Martha Argerich & Alexandre Mogilevsky" INDEX 01 57:42:62 TRACK 19 AUDIO TITLE "Lutoslawski - Variations on a Theme by Paganini" PERFORMER "Martha Argerich & Giorgia Tomassi" INDEX 00 60:40:11 INDEX 01 60:47:32 TRACK 20 AUDIO TITLE "Lutoslawski - Variations on a Theme by Paganini" PERFORMER "Martha Argerich & Mauricio Vallina" INDEX 00 66:14:46 INDEX 01 66:21:70

CD6

REM GENRE ClassicalREM DATE 2011REM DISCID B312110DREM COMMENT "ExactAudioCopy v1.0b3"PERFORMER "Martha Argerich"TITLE "Martha Argerich Edition - Solo & Duos (cd6) - Messiaen, Gustavino, Piazzolla"FILE "Martha Argerich Edition - Solo & Duos (cd6) - Messiaen, Gustavino, Piazzolla.flac" WAVE TRACK 01 AUDIO TITLE "Messiaen - Visions de l'Amen - I. Amen de la Crйation" PERFORMER "Martha Argerich & Alexandre Rabinovitch" INDEX 01 00:00:00 TRACK 02 AUDIO TITLE "Messiaen - Visions de l'Amen - II. Amen des йtoiles, de la planиte а l'anneau" PERFORMER "Martha Argerich & Alexandre Rabinovitch" INDEX 01 04:32:00 TRACK 03 AUDIO TITLE "Messiaen - Visions de l'Amen - III. Amen de l'Agonie de Jйsus" PERFORMER "Martha Argerich & Alexandre Rabinovitch" INDEX 00 09:41:35 INDEX 01 09:46:28 TRACK 04 AUDIO TITLE "Messiaen - Visions de l'Amen - IV. Amen du Dйsir" PERFORMER "Martha Argerich & Alexandre Rabinovitch" INDEX 00 18:50:48 INDEX 01 18:55:55 TRACK 05 AUDIO TITLE "Messiaen - Visions de l'Amen - V. Amen des Anges, des Saints, du chant des oi..." PERFORMER "Martha Argerich & Alexandre Rabinovitch" INDEX 00 30:25:35 INDEX 01 30:30:00 TRACK 06 AUDIO TITLE "Messiaen - Visions de l'Amen - VI. Amen du Jugement" PERFORMER "Martha Argerich & Alexandre Rabinovitch" INDEX 00 38:18:48 INDEX 01 38:22:68 TRACK 07 AUDIO TITLE "Messiaen - Visions de l'Amen - VII. Amen de la Consommation" PERFORMER "Martha Argerich & Alexandre Rabinovitch" INDEX 00 41:15:43 INDEX 01 41:21:08 TRACK 08 AUDIO TITLE "Gustavino - Tres Romances argentinos I. Las niсas de Santa Fe" PERFORMER "Martha Argerich & Mauricio Vallina" INDEX 00 47:47:72 INDEX 01 47:52:58 TRACK 09 AUDIO TITLE "Gustavino - Tres Romances argentinos II. Muchacho Jujeсo" PERFORMER "Martha Argerich & Mauricio Vallina" INDEX 01 53:09:19 TRACK 10 AUDIO TITLE "Gustavino - Tres Romances argentinos III. Baile en Cuyo" PERFORMER "Martha Argerich & Mauricio Vallina" INDEX 01 58:19:33 TRACK 11 AUDIO TITLE "Piazzolla - Three Tangos - 1. Tres minutos con la realidad" PERFORMER "Martha Argerich & Eduardo Hubert" INDEX 00 66:04:70 INDEX 01 66:12:33 TRACK 12 AUDIO TITLE "Piazzolla - Three Tangos - 2. Oblivion" PERFORMER "Martha Argerich & Eduardo Hubert" INDEX 01 69:18:68 TRACK 13 AUDIO TITLE "Piazzolla - Three Tangos - 3. Libertango" PERFORMER "Martha Argerich & Eduardo Hubert" INDEX 01 73:59:29

Лог CUEToolsCD1

[CUETools log; Date: 30.04.2012 9:55:45; Version: 2.1.4][CTDB TOCID: sLdKAoUnZK0qEu.A1K6V5ZFzmDs-] found.Track | CTDB Status 1 | (5/6) Accurately ripped 2 | (6/6) Accurately ripped 3 | (6/6) Accurately ripped 4 | (6/6) Accurately ripped 5 | (6/6) Accurately ripped 6 | (6/6) Accurately ripped 7 | (6/6) Accurately ripped 8 | (6/6) Accurately ripped 9 | (6/6) Accurately ripped 10 | (6/6) Accurately ripped 11 | (6/6) Accurately ripped 12 | (6/6) Accurately ripped 13 | (6/6) Accurately ripped 14 | (6/6) Accurately ripped 15 | (6/6) Accurately ripped 16 | (6/6) Accurately ripped 17 | (6/6) Accurately ripped 18 | (6/6) Accurately ripped 19 | (6/6) Accurately ripped 20 | (6/6) Accurately ripped 21 | (6/6) Accurately ripped 22 | (6/6) Accurately ripped 23 | (6/6) Accurately ripped[AccurateRip ID: 004ae186-04836812-52108b17] found.Track [ CRC | V2 ] Status 01 [9d79317b|b2c04d67] (2+3/5) Accurately ripped 02 [93a05f56|48c9991f] (2+3/5) Accurately ripped 03 [4eda1237|b31f5a30] (2+3/5) Accurately ripped 04 [6bafd11e|cf83321b] (2+3/5) Accurately ripped 05 [d740a21e|d15445c2] (2+3/5) Accurately ripped 06 [ad8aa8e1|e20041b3] (2+3/5) Accurately ripped 07 [6de19f72|54310a3c] (2+3/5) Accurately ripped 08 [8da1b6c2|125768fd] (2+3/5) Accurately ripped 09 [a3e829fc|44d6daff] (2+3/5) Accurately ripped 10 [e7758cb4|fb600868] (2+3/5) Accurately ripped 11 [89cd521c|8aca5c00] (3+3/6) Accurately ripped 12 [5e92d12a|9acf00a8] (3+3/6) Accurately ripped 13 [1321b9d4|a002d4f7] (3+3/6) Accurately ripped 14 [fbadb53c|51c3267c] (3+3/6) Accurately ripped 15 [cf01f5fe|652bc15d] (3+3/6) Accurately ripped 16 [10e891a4|651889ba] (3+3/6) Accurately ripped 17 [f2aa9fff|5f3ab614] (3+3/6) Accurately ripped 18 [b46d8f59|57ab2a59] (3+3/6) Accurately ripped 19 [cf341ae5|622ac01c] (3+3/6) Accurately ripped 20 [270fd262|bb219bad] (3+3/6) Accurately ripped 21 [e79552a8|0772bb67] (3+3/6) Accurately ripped 22 [f23d018a|9c844c4c] (3+3/6) Accurately ripped 23 [b044f3ba|1b680935] (3+3/6) Accurately ripped
Track Peak [ CRC32 ] [W/O NULL] [ LOG ] -- 98,4 [C88EBFE5] [484AB9C0] CRC32 01 85,5 [47DAF849] [D9439002] 02 77,5 [FE68BE27] [BA5E7A65] 03 75,4 [86F84988] [9DDD7E79] 04 85,3 [EC9B72EE] [E2E2BD11] 05 85,0 [9BDCC8E0] [658F91D8] 06 82,4 [B9FA9D7D] [55472952] 07 84,1 [A6A73127] [407F6233] 08 71,3 [E4D2D6E5] [6A78C69D] 09 85,4 [8BBB9A8F] [F13C3972] 10 84,8 [B1845BB7] [87B42D52] 11 45,6 [80121319] [A94078D5] 12 67,1 [89F56989] [00FEF1BA] 13 75,7 [B841D54B] [1A3B3905] 14 31,6 [3880C68D] [DD01DB4F] 15 68,1 [D2E4B89F] [EAD885F1] 16 93,2 [78D1F747] [53DF4500] 17 27,7 [D174ED5E] [407E61FD] 18 69,7 [00338924] [3793DB08] 19 98,4 [50778F43] [790175F3] 20 49,6 [E5D62689] [01620A67] 21 91,3 [BB09C3D0] [5C645F77] 22 44,8 [5231E3D4] [23B4E76D] 23 93,8 [3262EE30] [CD91D7E9]

CD2

[CUETools log; Date: 30.04.2012 9:56:36; Version: 2.1.4][CTDB TOCID: lhGIye.2Qu_HMP3bc7YwOnsUleY-] found.Track | CTDB Status 1 | (5/5) Accurately ripped 2 | (5/5) Accurately ripped 3 | (5/5) Accurately ripped 4 | (5/5) Accurately ripped 5 | (5/5) Accurately ripped 6 | (5/5) Accurately ripped 7 | (5/5) Accurately ripped 8 | (5/5) Accurately ripped 9 | (5/5) Accurately ripped 10 | (5/5) Accurately ripped 11 | (5/5) Accurately ripped[AccurateRip ID: 002067d6-010e80f4-a212ad0b] found.Track [ CRC | V2 ] Status 01 [be148341|22ef56ca] (3+3/6) Accurately ripped 02 [360ce2d4|6d624caf] (3+3/6) Accurately ripped 03 [7efd097a|82777620] (3+3/6) Accurately ripped 04 [480cd245|4e5fad95] (3+3/6) Accurately ripped 05 [1f75538c|1bcb5496] (3+3/6) Accurately ripped 06 [d708610e|d29b3b1b] (3+3/6) Accurately ripped 07 [05d05602|5b0fe0e4] (3+3/6) Accurately ripped 08 [d1b28a7e|938b0673] (3+3/6) Accurately ripped 09 [be5c55c2|524a18f4] (3+3/6) Accurately ripped 10 [e5f30a0f|4b25ddde] (3+3/6) Accurately ripped 11 [a9198a91|bbc20919] (3+3/6) Accurately ripped
Track Peak [ CRC32 ] [W/O NULL] [ LOG ] -- 98,8 [2B33C1E2] [54C209E2] CRC32 01 98,3 [68CE53B2] [D3E4093C] 02 95,4 [88D3BDBF] [65E968D6] 03 84,1 [04519078] [3A1FCEF7] 04 80,0 [6CFFBA2D] [A8B73322] 05 98,8 [04493D73] [20333838] 06 94,8 [3F5CF903] [C4FB3026] 07 95,5 [F606A865] [535B977F] 08 45,2 [19E2953F] [D49CDC04] 09 85,9 [BC3AB940] [2F28EE3B] 10 96,1 [03EFA10A] [62DA025C] 11 97,5 [502EFA56] [520C0819]

CD3

[CUETools log; Date: 30.04.2012 9:57:27; Version: 2.1.4][CTDB TOCID: JefF8pCBIQUZvKJ7mUFveplcOlk-] found.Track | CTDB Status 1 | (5/5) Accurately ripped 2 | (5/5) Accurately ripped 3 | (5/5) Accurately ripped 4 | (5/5) Accurately ripped 5 | (5/5) Accurately ripped 6 | (5/5) Accurately ripped 7 | (5/5) Accurately ripped 8 | (5/5) Accurately ripped 9 | (5/5) Accurately ripped 10 | (5/5) Accurately ripped 11 | (5/5) Accurately ripped 12 | (5/5) Accurately ripped 13 | (5/5) Accurately ripped 14 | (5/5) Accurately ripped 15 | (5/5) Accurately ripped 16 | (5/5) Accurately ripped[AccurateRip ID: 00381d46-0268693e-e910cd10] found.Track [ CRC | V2 ] Status 01 [a295a68b|161e6e89] (3+3/6) Accurately ripped 02 [d6117f06|533e10ac] (3+3/6) Accurately ripped 03 [ff9ecac6|591139c1] (3+3/6) Accurately ripped 04 [1b025a5f|c7cc5391] (3+3/6) Accurately ripped 05 [0325be76|33d15ba6] (3+3/6) Accurately ripped 06 [65a9b6f3|b251dcc6] (3+3/6) Accurately ripped 07 [77b353d2|4e514992] (3+3/6) Accurately ripped 08 [7c529eb6|a57a57d3] (3+3/6) Accurately ripped 09 [d350761c|9c389790] (3+3/6) Accurately ripped 10 [5de4b521|6ac6cf60] (3+3/6) Accurately ripped 11 [625380ed|664f826d] (3+3/6) Accurately ripped 12 [5a66247e|ac07e5bb] (3+3/6) Accurately ripped 13 [3c9a430e|ce784d16] (3+3/6) Accurately ripped 14 [797896b4|7d409cc6] (3+3/6) Accurately ripped 15 [d6752846|fc8398fc] (3+3/6) Accurately ripped 16 [2fdc3432|69657f62] (3+3/6) Accurately ripped
Track Peak [ CRC32 ] [W/O NULL] [ LOG ] -- 99,4 [31E4974E] [8904FDC4] CRC32 01 95,8 [F41C2C21] [BF7811A0] 02 96,7 [0CF9EE36] [9C705598] 03 99,4 [52533FD4] [E5C00976] 04 99,4 [F85C3DDD] [B8EEB3F6] 05 99,4 [7AA32D42] [3AE6CB5A] 06 99,4 [ECD96BF2] [1D32D90F] 07 92,7 [B613E8C3] [2802BC30] 08 78,4 [E4EE4345] [636828FA] 09 98,8 [F0AC6D63] [7E977F82] 10 29,8 [EA8D6FC9] [71171AAB] 11 62,7 [75643017] [58A06CDE] 12 98,8 [FDE33E51] [ADE692C9] 13 98,8 [AFDF0667] [56896107] 14 55,5 [1CEC90A7] [51E9CB5E] 15 50,1 [392CA23A] [E72141D2] 16 98,8 [3AABD5BC] [1905E7A3]

CD4

[CUETools log; Date: 30.04.2012 9:58:29; Version: 2.1.4][CTDB TOCID: mKpYs08FUkkOHHXe3NFS881TLEE-] found.Track | CTDB Status 1 | (5/5) Accurately ripped 2 | (5/5) Accurately ripped 3 | (5/5) Accurately ripped 4 | (5/5) Accurately ripped 5 | (5/5) Accurately ripped 6 | (5/5) Accurately ripped 7 | (5/5) Accurately ripped 8 | (5/5) Accurately ripped 9 | (5/5) Accurately ripped 10 | (5/5) Accurately ripped 11 | (5/5) Accurately ripped 12 | (5/5) Accurately ripped 13 | (5/5) Accurately ripped 14 | (5/5) Accurately ripped[AccurateRip ID: 002749a8-0199300a-c710710e] found.Track [ CRC | V2 ] Status 01 [1976d59e|88b71de5] (3+3/6) Accurately ripped 02 [c7a74ddc|291a5ec8] (3+3/6) Accurately ripped 03 [1fca4dd5|3df25e7f] (3+3/6) Accurately ripped 04 [5bbcac3b|f71fc297] (3+3/6) Accurately ripped 05 [e8c61776|c91899eb] (3+3/6) Accurately ripped 06 [a3f85f68|98dd57e3] (3+3/6) Accurately ripped 07 [d4638723|1e416cf6] (3+3/6) Accurately ripped 08 [99289ace|64052223] (3+3/6) Accurately ripped 09 [3126f1a7|2369b4ba] (3+3/6) Accurately ripped 10 [eefea17e|0899ac9c] (3+3/6) Accurately ripped 11 [17bd6095|6dd491c3] (3+3/6) Accurately ripped 12 [cfe8ba6d|2ed77523] (3+3/6) Accurately ripped 13 [efe3096e|90a93492] (3+3/6) Accurately ripped 14 [e60021bf|d3710976] (3+3/6) Accurately ripped
Track Peak [ CRC32 ] [W/O NULL] [ LOG ] -- 98,9 [F71A7F27] [CCE5FE68] CRC32 01 64,5 [D3E9823E] [DAC1EAE1] 02 97,7 [B81E1415] [AF2B231B] 03 94,5 [CECFE926] [903B5D8C] 04 98,2 [E18D083E] [F947F95B] 05 98,8 [9D4C9320] [D71DEB54] 06 98,8 [CF5AA655] [9027B7ED] 07 98,9 [95ED49BF] [D9520CF5] 08 98,8 [579C0063] [C7610840] 09 98,8 [C35F47D2] [9B9B7C0C] 10 98,8 [E3DE97D8] [5A5F2C06] 11 98,8 [594DDDB9] [65AADB95] 12 98,8 [123FC8B5] [299A0018] 13 76,1 [A7610D8D] [4C76BA59] 14 98,8 [1D614098] [44C03062]

CD5

[CUETools log; Date: 30.04.2012 9:59:49; Version: 2.1.4][CTDB TOCID: 1cntntYeDqVE3rs7uJPOSYtcrLU-] found.Track | CTDB Status 1 | (4/4) Accurately ripped 2 | (4/4) Accurately ripped 3 | (4/4) Accurately ripped 4 | (4/4) Accurately ripped 5 | (4/4) Accurately ripped 6 | (4/4) Accurately ripped 7 | (4/4) Accurately ripped 8 | (4/4) Accurately ripped 9 | (4/4) Accurately ripped 10 | (4/4) Accurately ripped 11 | (4/4) Accurately ripped 12 | (4/4) Accurately ripped 13 | (4/4) Accurately ripped 14 | (4/4) Accurately ripped 15 | (4/4) Accurately ripped 16 | (4/4) Accurately ripped 17 | (4/4) Accurately ripped 18 | (4/4) Accurately ripped 19 | (4/4) Accurately ripped 20 | (4/4) Accurately ripped[AccurateRip ID: 002f6e9e-02c020c9-3210dd14] found.Track [ CRC | V2 ] Status 01 [6d4a6846|fbd0d4b9] (3+3/6) Accurately ripped 02 [184cdd50|5b095aa1] (3+3/6) Accurately ripped 03 [bd68777e|f8ba22f3] (3+3/6) Accurately ripped 04 [2dd96f6f|6a29b379] (3+3/6) Accurately ripped 05 [6eaf5df7|5c556b8b] (3+3/6) Accurately ripped 06 [9766149d|38000a3f] (3+3/6) Accurately ripped 07 [8a4efd9f|b31f785d] (3+3/6) Accurately ripped 08 [f76889cd|280bb7a2] (3+3/6) Accurately ripped 09 [462c4e3b|eddee4c0] (3+3/6) Accurately ripped 10 [19c94002|14b522e3] (3+3/6) Accurately ripped 11 [e24cd74e|8e2d6c35] (3+3/6) Accurately ripped 12 [80649a24|7a170c29] (3+3/6) Accurately ripped 13 [007e8827|820de6fe] (3+3/6) Accurately ripped 14 [967052ba|b912869d] (3+3/6) Accurately ripped 15 [59baa0c8|728571f7] (3+3/6) Accurately ripped 16 [5514c21b|24a24b22] (3+3/6) Accurately ripped 17 [19b7f5e6|f13d549f] (3+3/6) Accurately ripped 18 [96ac3825|e15b4e7f] (3+3/6) Accurately ripped 19 [44d1f976|2538b6f6] (3+3/6) Accurately ripped 20 [9cca5b47|43a991e3] (3+3/6) Accurately ripped
Track Peak [ CRC32 ] [W/O NULL] [ LOG ] -- 98,9 [9188A955] [86BAD76E] CRC32 01 98,8 [2C439252] [0818A70D] 02 93,0 [CDE32C2A] [57EFAD1E] 03 98,9 [6786EC93] [53CC1612] 04 98,8 [59EAB8CA] [DF57F40D] 05 81,3 [074314F3] [78D3EC8D] 06 98,8 [CD4B98CD] [114F3DDF] 07 27,1 [C2CB268B] [80337107] 08 98,4 [48E5E3A4] [C437435D] 09 28,6 [16FA693E] [C3BD2ACD] 10 98,8 [2FCC2F3E] [FDDEFDAE] 11 98,8 [44A99BDE] [2666D12A] 12 98,8 [E09D2DF7] [FC0B8863] 13 98,8 [B8FB17AA] [50FF5626] 14 51,1 [B3C9A5CF] [39C80B21] 15 92,6 [81FDC0A6] [8C3402AA] 16 96,0 [01576A9B] [94F8122B] 17 98,8 [F815718B] [12E058DC] 18 95,4 [13A1BC51] [9CA55ECB] 19 98,8 [1459C364] [70CEE0BD] 20 98,8 [EB2DAA8A] [B710FEB9]

CD6

[CUETools log; Date: 30.04.2012 10:00:39; Version: 2.1.4][CTDB TOCID: fil_UiAgyaAzc85vd6Uuxg7Zslo-] found.Track | CTDB Status 1 | (4/4) Accurately ripped 2 | (4/4) Accurately ripped 3 | (4/4) Accurately ripped 4 | (4/4) Accurately ripped 5 | (4/4) Accurately ripped 6 | (4/4) Accurately ripped 7 | (4/4) Accurately ripped 8 | (4/4) Accurately ripped 9 | (4/4) Accurately ripped 10 | (4/4) Accurately ripped 11 | (4/4) Accurately ripped 12 | (4/4) Accurately ripped 13 | (4/4) Accurately ripped[AccurateRip ID: 00287937-01907993-b312110d] found.Track [ CRC | V2 ] Status 01 [819772aa|0462719f] (3+3/6) Accurately ripped 02 [75068a4f|3c69e67c] (3+3/6) Accurately ripped 03 [b56eccba|97542343] (3+3/6) Accurately ripped 04 [9acbca1e|3b4be088] (3+3/6) Accurately ripped 05 [0e3f098b|49594484] (3+3/6) Accurately ripped 06 [fcf35ab3|a34c4b9b] (3+3/6) Accurately ripped 07 [8dae547a|c452eb27] (3+3/6) Accurately ripped 08 [ac5515bf|872f93a4] (3+3/6) Accurately ripped 09 [1e791e06|4ac12d47] (3+3/6) Accurately ripped 10 [0fa4bdab|7d97f32a] (3+3/6) Accurately ripped 11 [fa1c0981|9d86b999] (3+3/6) Accurately ripped 12 [8bccec57|6d1624ff] (3+3/6) Accurately ripped 13 [f23f0d16|3d6c9266] (3+3/6) Accurately ripped
Track Peak [ CRC32 ] [W/O NULL] -- 99,8 [FB3524A2] [F75EC961] 01 83,2 [4597F019] [6CBB32DC] 02 97,6 [F038E874] [40879C56] 03 90,1 [58FD5024] [1AB0DEE7] 04 99,8 [0E0573CA] [4D6E42DB] 05 77,6 [7B5967AF] [1421394A] 06 87,1 [5C29029D] [4C11CBEC] 07 87,4 [DF368CEF] [82B420D0] 08 98,8 [75C16068] [8832C914] 09 91,5 [F13D37A5] [5DA875CD] 10 98,8 [16FBBA52] [9F3690F3] 11 98,1 [1FD0B9F1] [53006E58] 12 56,1 [3793F4FB] [FC12DAFC] 13 97,7 [E0407936] [ED2B785B]
[teatrix.ru].t10022.torrent 
Торрент: Зарегистрирован [ 2015-10-25 20:37 ] · B3297E98F95F2F472218E3748E55FB994E675426

Скачать .torrent

Скачать

20 KB

Статус: проверено
Скачан: 1 раз
Размер: 1.6 GB
terms.php



Быстрый ответ

Имя:

      
Для отправки сообщений необходимо включить JavaScript
Показать сообщения:    

Текущее время: 04-Дек 15:16

Часовой пояс: UTC + 3


Вы можете начинать темы
Вы можете отвечать на сообщения
Вы не можете редактировать свои сообщения
Вы не можете удалять свои сообщения
Вы не можете голосовать в опросах
Вы не можете прикреплять файлы к сообщениям
Вы можете скачивать файлы