(Classical) Цемлинский-Лирическая симфония,Флорентийская трагедия / Zemlinsky-Lyrische Symponie,Symphonische Gesange,Eine Florentinische Tragodie,Psalms (Marc, Hagegard, White, Kruse, Dohmen, Vermillion, Chailly) - 2003,FLAC (image+.cue) lossless


Статистика раздачи [Обновить пиров]
Размер:  938 MB   |    Зарегистрирован:  1 год 1 месяц   |    Скачан:  0 раз

Полного источника не было: Никогда

 
   
 
 
 

[Цитировать]

Цемлинский – Лирическая симфония, Песни op. 20, Флорентийская трагедия, Псалмы / Alexander von Zemlinsky – Lyrische Symponie, Sinfonische Gesänge, Eine Florentinische Tragödie, Psalms (Marc, Hagegård, White, Kruse, Dohmen, Vermillion, Chailly)
Жанр: Classical, symphony, opera, choral, vocal
Страна-производитель диска: Германия
Год издания диска: 2003
Издатель (лейбл): Decca
Номер по каталогу: 473 734-2
Дата записи: 1987, 1989, 1994, 1997, 1998 (см. список исполнителей)
Аудиокодек: FLAC
Тип рипа: image+.cue
Битрейт аудио: lossless
Продолжительность: 155:59
Источник: web
Наличие сканов в содержимом раздачи: да (с приложением сканов от оригинальных раздач)
Треклист:
Александр фон Цемлинский (1871 — 1942).
CD 1.
01-07. Лирическая симфония, op. 18 (1922).
08-14. Sinfonische Gesänge, op. 20 (1929).
15. Псалом LXXXIII для смешанного хора, солистов и оркестра (1900).
CD 2.
01-08. Флорентийская трагедия, op. 16 (1915 – 1916).
09. Псалом XIII для смешанного хора и оркестра, op. 24 (1935).
10. Псалом XXIII для смешанного хора и оркестра, op. 14 (1910).
Исполнители:
Лирическая симфония:
Alessandra Marc (сопрано),
Håkan Hagegård (баритон),
Royal Concertgebouw Orchestra.
1993 г.
Sinfonische Gesänge:
Willard White (бас-баритон),
Royal Concertgebouw Orchestra.
1993 г.
Флорентийская трагедия:
Heinz Kruse (Гвидо),
Albert Dohmen (Симоне),
Iris Vermillion (Бьянка),
Royal Concertgebouw Orchestra.
Апрель 1996 г.
Псалом LXXXIII:
Slovak Philharmonic Choir,
Wiener Philharmoniker.
Июнь 1997 г.
Псалмы XIII, XXIII:
Kammerchor Ernst Senff (хормейстер проф. Ernst Senff),
Deutsches Symphonie-Orchester Berlin (RSO).
Март 1986 г. (Псалом XXIII), сентябрь 1987 г. (Псалом XIII).
Дирижер Ricardo Chailly.

Лог создания рипаCD 1

X Lossless Decoder version 20080926 (93.3)
XLD extraction logfile from 2009-01-20 18:16:15 +0100
Riccardo Chailly - Royal Concertgebouw Orchestra / Zemlinsky - Eine Florentinische Tragodie, etc. (Disk 1)
Used drive : HL-DT-ST DVDRW GSA-S10N (revision BP10)
Use cdparanoia mode : YES (CDParanoia III 10.2 engine)Disable audio cache : OK for the drive with cache less than 2750KBMake use of C2 pointers : NORead offset correction : 667Max retry count : 100
TOC of the extracted CD Track | Start | Length | Start sector | End sector --------------------------------------------------------- 1 | 00:00:00 | 10:37:35 | 0 | 47809 2 | 10:37:35 | 07:14:43 | 47810 | 80402 3 | 17:52:03 | 06:35:30 | 80403 | 110057 4 | 24:27:33 | 07:52:19 | 110058 | 145476 5 | 32:19:52 | 02:06:36 | 145477 | 154962 6 | 34:26:13 | 04:34:09 | 154963 | 175521 7 | 39:00:22 | 08:18:42 | 175522 | 212913 8 | 47:18:64 | 03:35:41 | 212914 | 229079 9 | 50:54:30 | 03:13:36 | 229080 | 243590 10 | 54:07:66 | 02:30:51 | 243591 | 254891 11 | 56:38:42 | 02:07:54 | 254892 | 264470 12 | 58:46:21 | 02:46:03 | 264471 | 276923 13 | 61:32:24 | 01:19:10 | 276924 | 282858 14 | 62:51:34 | 02:19:48 | 282859 | 293331 15 | 65:11:07 | 12:20:20 | 293332 | 348851
All Tracks Filename : /Users/Ale/Desktop/Zemlinsky - Eine Florentinische Tragodie, etc. (Disk 1).flac CRC32 hash : 357F0003 CRC32 hash (skip zero) : 992A5792 Statistics Read error : 0 Skipped (treated as error) : 0 Edge jitter error (maybe fixed) : 0 Atom jitter error (maybe fixed) : 0 Drift error (maybe fixed) : 0 Dropped bytes error (maybe fixed) : 0 Duplicated bytes error (maybe fixed) : 0
Track 01 CRC32 hash : 77369E99 CRC32 hash (skip zero) : 7412AFD2 AccurateRip signature : 65B4C97A ->Track not present in AccurateRip database. Statistics Read error : 0 Skipped (treated as error) : 0 Edge jitter error (maybe fixed) : 0 Atom jitter error (maybe fixed) : 0 Drift error (maybe fixed) : 0 Dropped bytes error (maybe fixed) : 0 Duplicated bytes error (maybe fixed) : 0
Track 02 CRC32 hash : 4E9B01F2 CRC32 hash (skip zero) : C764E2B5 AccurateRip signature : 5410A4AE ->Track not present in AccurateRip database. Statistics Read error : 0 Skipped (treated as error) : 0 Edge jitter error (maybe fixed) : 0 Atom jitter error (maybe fixed) : 0 Drift error (maybe fixed) : 0 Dropped bytes error (maybe fixed) : 0 Duplicated bytes error (maybe fixed) : 0
Track 03 CRC32 hash : 4E0AD16B CRC32 hash (skip zero) : E34CE5CC AccurateRip signature : 9C2F0460 ->Track not present in AccurateRip database. Statistics Read error : 0 Skipped (treated as error) : 0 Edge jitter error (maybe fixed) : 0 Atom jitter error (maybe fixed) : 0 Drift error (maybe fixed) : 0 Dropped bytes error (maybe fixed) : 0 Duplicated bytes error (maybe fixed) : 0
Track 04 CRC32 hash : 3645E0F1 CRC32 hash (skip zero) : C09F9A96 AccurateRip signature : A1E6646B ->Track not present in AccurateRip database. Statistics Read error : 0 Skipped (treated as error) : 0 Edge jitter error (maybe fixed) : 0 Atom jitter error (maybe fixed) : 0 Drift error (maybe fixed) : 0 Dropped bytes error (maybe fixed) : 0 Duplicated bytes error (maybe fixed) : 0
Track 05 CRC32 hash : 9BFA8595 CRC32 hash (skip zero) : E800F20D AccurateRip signature : 7BB1121C ->Track not present in AccurateRip database. Statistics Read error : 0 Skipped (treated as error) : 0 Edge jitter error (maybe fixed) : 0 Atom jitter error (maybe fixed) : 0 Drift error (maybe fixed) : 0 Dropped bytes error (maybe fixed) : 0 Duplicated bytes error (maybe fixed) : 0
Track 06 CRC32 hash : 166AF62F CRC32 hash (skip zero) : 5E54D87E AccurateRip signature : 98964FE2 ->Track not present in AccurateRip database. Statistics Read error : 0 Skipped (treated as error) : 0 Edge jitter error (maybe fixed) : 0 Atom jitter error (maybe fixed) : 0 Drift error (maybe fixed) : 0 Dropped bytes error (maybe fixed) : 0 Duplicated bytes error (maybe fixed) : 0
Track 07 CRC32 hash : 4176C880 CRC32 hash (skip zero) : 606AC935 AccurateRip signature : 19533251 ->Track not present in AccurateRip database. Statistics Read error : 0 Skipped (treated as error) : 0 Edge jitter error (maybe fixed) : 0 Atom jitter error (maybe fixed) : 0 Drift error (maybe fixed) : 0 Dropped bytes error (maybe fixed) : 0 Duplicated bytes error (maybe fixed) : 0
Track 08 CRC32 hash : D762B718 CRC32 hash (skip zero) : 09D3E79B AccurateRip signature : 1762FFA2 ->Track not present in AccurateRip database. Statistics Read error : 0 Skipped (treated as error) : 0 Edge jitter error (maybe fixed) : 0 Atom jitter error (maybe fixed) : 0 Drift error (maybe fixed) : 0 Dropped bytes error (maybe fixed) : 0 Duplicated bytes error (maybe fixed) : 0
Track 09 CRC32 hash : B5CDED7E CRC32 hash (skip zero) : 0C8A5E09 AccurateRip signature : DC5D70ED ->Track not present in AccurateRip database. Statistics Read error : 0 Skipped (treated as error) : 0 Edge jitter error (maybe fixed) : 0 Atom jitter error (maybe fixed) : 0 Drift error (maybe fixed) : 0 Dropped bytes error (maybe fixed) : 0 Duplicated bytes error (maybe fixed) : 0
Track 10 CRC32 hash : A5CA9FA2 CRC32 hash (skip zero) : 57E9CF2E AccurateRip signature : 3B689416 ->Track not present in AccurateRip database. Statistics Read error : 0 Skipped (treated as error) : 0 Edge jitter error (maybe fixed) : 0 Atom jitter error (maybe fixed) : 0 Drift error (maybe fixed) : 0 Dropped bytes error (maybe fixed) : 0 Duplicated bytes error (maybe fixed) : 0
Track 11 CRC32 hash : 02AD37CF CRC32 hash (skip zero) : 2D3D026F AccurateRip signature : 070DF41A ->Track not present in AccurateRip database. Statistics Read error : 0 Skipped (treated as error) : 0 Edge jitter error (maybe fixed) : 0 Atom jitter error (maybe fixed) : 0 Drift error (maybe fixed) : 0 Dropped bytes error (maybe fixed) : 0 Duplicated bytes error (maybe fixed) : 0
Track 12 CRC32 hash : 75F53D10 CRC32 hash (skip zero) : 0D45ABAB AccurateRip signature : 7FC08504 ->Track not present in AccurateRip database. Statistics Read error : 0 Skipped (treated as error) : 0 Edge jitter error (maybe fixed) : 0 Atom jitter error (maybe fixed) : 0 Drift error (maybe fixed) : 0 Dropped bytes error (maybe fixed) : 0 Duplicated bytes error (maybe fixed) : 0
Track 13 CRC32 hash : 2F28BD8D CRC32 hash (skip zero) : 55D8ABF4 AccurateRip signature : 3D4FF16E ->Track not present in AccurateRip database. Statistics Read error : 0 Skipped (treated as error) : 0 Edge jitter error (maybe fixed) : 0 Atom jitter error (maybe fixed) : 0 Drift error (maybe fixed) : 0 Dropped bytes error (maybe fixed) : 0 Duplicated bytes error (maybe fixed) : 0
Track 14 CRC32 hash : 6CFC2E86 CRC32 hash (skip zero) : 5A80B072 AccurateRip signature : 4F5D20A6 ->Track not present in AccurateRip database. Statistics Read error : 0 Skipped (treated as error) : 0 Edge jitter error (maybe fixed) : 0 Atom jitter error (maybe fixed) : 0 Drift error (maybe fixed) : 0 Dropped bytes error (maybe fixed) : 0 Duplicated bytes error (maybe fixed) : 0
Track 15 CRC32 hash : D0E08B3E CRC32 hash (skip zero) : 4E5FF4B7 AccurateRip signature : 4311CBF2 ->Track not present in AccurateRip database. Statistics Read error : 0 Skipped (treated as error) : 0 Edge jitter error (maybe fixed) : 0 Atom jitter error (maybe fixed) : 0 Drift error (maybe fixed) : 0 Dropped bytes error (maybe fixed) : 0 Duplicated bytes error (maybe fixed) : 0
No errors occurred
End of status report

CD 2

X Lossless Decoder version 20080926 (93.3)
XLD extraction logfile from 2009-01-21 11:09:45 +0100
Riccardo Chailly - Royal Concertgebouw Orchestra / Zemlinsky - Eine Florentinische Tragodie, etc. (Disk 2)
Used drive : HL-DT-ST DVDRW GSA-S10N (revision BP10)
Use cdparanoia mode : YES (CDParanoia III 10.2 engine)Disable audio cache : OK for the drive with cache less than 2750KBMake use of C2 pointers : NORead offset correction : 667Max retry count : 100
TOC of the extracted CD Track | Start | Length | Start sector | End sector --------------------------------------------------------- 1 | 00:00:00 | 04:32:46 | 0 | 20445 2 | 04:32:46 | 14:23:18 | 20446 | 85188 3 | 18:55:64 | 02:11:15 | 85189 | 95028 4 | 21:07:04 | 04:42:39 | 95029 | 116217 5 | 25:49:43 | 04:38:70 | 116218 | 137137 6 | 30:28:38 | 07:15:41 | 137138 | 169803 7 | 37:44:04 | 06:19:13 | 169804 | 198241 8 | 44:03:17 | 09:42:64 | 198242 | 241955 9 | 53:46:06 | 13:48:44 | 241956 | 304099 10 | 67:34:50 | 10:53:49 | 304100 | 353123
All Tracks Filename : /Users/Ale/Desktop/Zemlinsky - Eine Florentinische Tragodie, etc. (Disk 2).flac CRC32 hash : 1F4B9BEE CRC32 hash (skip zero) : A03E1827 Statistics Read error : 0 Skipped (treated as error) : 0 Edge jitter error (maybe fixed) : 0 Atom jitter error (maybe fixed) : 0 Drift error (maybe fixed) : 0 Dropped bytes error (maybe fixed) : 0 Duplicated bytes error (maybe fixed) : 0
Track 01 CRC32 hash : BB9111AE CRC32 hash (skip zero) : 3A2981F0 AccurateRip signature : 3A05B226 ->Track not present in AccurateRip database. Statistics Read error : 0 Skipped (treated as error) : 0 Edge jitter error (maybe fixed) : 0 Atom jitter error (maybe fixed) : 0 Drift error (maybe fixed) : 0 Dropped bytes error (maybe fixed) : 0 Duplicated bytes error (maybe fixed) : 0
Track 02 CRC32 hash : A0C345A3 CRC32 hash (skip zero) : 2B329566 AccurateRip signature : 8B509E6D ->Track not present in AccurateRip database. Statistics Read error : 0 Skipped (treated as error) : 0 Edge jitter error (maybe fixed) : 0 Atom jitter error (maybe fixed) : 0 Drift error (maybe fixed) : 0 Dropped bytes error (maybe fixed) : 0 Duplicated bytes error (maybe fixed) : 0
Track 03 CRC32 hash : CF1495EC CRC32 hash (skip zero) : CFAEEA57 AccurateRip signature : B7706145 ->Track not present in AccurateRip database. Statistics Read error : 0 Skipped (treated as error) : 0 Edge jitter error (maybe fixed) : 0 Atom jitter error (maybe fixed) : 0 Drift error (maybe fixed) : 0 Dropped bytes error (maybe fixed) : 0 Duplicated bytes error (maybe fixed) : 0
Track 04 CRC32 hash : 9D26D9E5 CRC32 hash (skip zero) : E128F06F AccurateRip signature : 5CBF9D99 ->Track not present in AccurateRip database. Statistics Read error : 0 Skipped (treated as error) : 0 Edge jitter error (maybe fixed) : 0 Atom jitter error (maybe fixed) : 0 Drift error (maybe fixed) : 0 Dropped bytes error (maybe fixed) : 0 Duplicated bytes error (maybe fixed) : 0
Track 05 CRC32 hash : BCD0092B CRC32 hash (skip zero) : ED0027D6 AccurateRip signature : 6C2BFD4A ->Track not present in AccurateRip database. Statistics Read error : 0 Skipped (treated as error) : 0 Edge jitter error (maybe fixed) : 0 Atom jitter error (maybe fixed) : 0 Drift error (maybe fixed) : 0 Dropped bytes error (maybe fixed) : 0 Duplicated bytes error (maybe fixed) : 0
Track 06 CRC32 hash : 7E6730A5 CRC32 hash (skip zero) : 21D2080D AccurateRip signature : 0DCBFCDE ->Track not present in AccurateRip database. Statistics Read error : 0 Skipped (treated as error) : 0 Edge jitter error (maybe fixed) : 0 Atom jitter error (maybe fixed) : 0 Drift error (maybe fixed) : 0 Dropped bytes error (maybe fixed) : 0 Duplicated bytes error (maybe fixed) : 0
Track 07 CRC32 hash : 1ADFB34A CRC32 hash (skip zero) : E6332ECE AccurateRip signature : 4892485B ->Track not present in AccurateRip database. Statistics Read error : 0 Skipped (treated as error) : 0 Edge jitter error (maybe fixed) : 0 Atom jitter error (maybe fixed) : 0 Drift error (maybe fixed) : 0 Dropped bytes error (maybe fixed) : 0 Duplicated bytes error (maybe fixed) : 0
Track 08 CRC32 hash : 3E9C7FCF CRC32 hash (skip zero) : 33B30ADA AccurateRip signature : AAA951EA ->Track not present in AccurateRip database. Statistics Read error : 0 Skipped (treated as error) : 0 Edge jitter error (maybe fixed) : 0 Atom jitter error (maybe fixed) : 0 Drift error (maybe fixed) : 0 Dropped bytes error (maybe fixed) : 0 Duplicated bytes error (maybe fixed) : 0
Track 09 CRC32 hash : 606ECD0D CRC32 hash (skip zero) : 7AD150BB AccurateRip signature : EB547CCB ->Track not present in AccurateRip database. Statistics Read error : 0 Skipped (treated as error) : 0 Edge jitter error (maybe fixed) : 0 Atom jitter error (maybe fixed) : 0 Drift error (maybe fixed) : 0 Dropped bytes error (maybe fixed) : 0 Duplicated bytes error (maybe fixed) : 0
Track 10 CRC32 hash : E8F192ED CRC32 hash (skip zero) : F55CE93D AccurateRip signature : 3F4CDB36 ->Track not present in AccurateRip database. Statistics Read error : 0 Skipped (treated as error) : 0 Edge jitter error (maybe fixed) : 0 Atom jitter error (maybe fixed) : 0 Drift error (maybe fixed) : 0 Dropped bytes error (maybe fixed) : 0 Duplicated bytes error (maybe fixed) : 0
No errors occurred
End of status report

Содержание индексной карты (.CUE)CD 1

TITLE "Zemlinsky - Eine Florentinische Tragodie, etc. (Disk 1)"PERFORMER "Riccardo Chailly - Royal Concertgebouw Orchestra"REM DATE 2003FILE "Zemlinsky - Eine Florentinische Tragodie, etc. (Disk 1).flac" WAVE
TRACK 01 AUDIO
TITLE "Lyrische Symphonie, Op.18 - I. Ich bin friedlos"
INDEX 01 00:00:00
TRACK 02 AUDIO
TITLE "II. Mutter, der junge Prinz"
INDEX 01 10:37:35
TRACK 03 AUDIO
TITLE "III. Du bist die Abendwolke"
INDEX 01 17:52:03
TRACK 04 AUDIO
TITLE "IV. Sprich zu mir, Geliebter"
INDEX 01 24:27:33
TRACK 05 AUDIO
TITLE "V. Befrei' mich von den Banden"
INDEX 01 32:19:52
TRACK 06 AUDIO
TITLE "VI. Vollende denn das letzte Lied"
INDEX 01 34:26:13
TRACK 07 AUDIO
TITLE "VII. Friede, mein Herz"
INDEX 01 39:00:22
TRACK 08 AUDIO
TITLE "Symphonische Gesange, Op.20 - I. Lied aus Dizieland"
INDEX 00 47:08:64
INDEX 01 47:18:64
TRACK 09 AUDIO
TITLE "II. Lied der Baumwollpacker"
INDEX 01 50:54:30
TRACK 10 AUDIO
TITLE "III. Totes braunes Madel"
INDEX 01 54:07:66
TRACK 11 AUDIO
TITLE "IV. Ubler Bursche"
INDEX 01 56:38:42
TRACK 12 AUDIO
TITLE "V. Erkenntnis"
INDEX 01 58:46:21
TRACK 13 AUDIO
TITLE "VI. Afrikanischer Tanz"
INDEX 01 61:32:24
TRACK 14 AUDIO
TITLE "VII Arabeske"
INDEX 01 62:51:34
TRACK 15 AUDIO
TITLE "Psalm 83"
INDEX 00 65:04:56
INDEX 01 65:11:07

CD 2

TITLE "Zemlinsky - Eine Florentinische Tragodie, etc. (Disk 2)"
PERFORMER "Riccardo Chailly - Royal Concertgebouw Orchestra"
REM DATE 2003
FILE "Zemlinsky - Eine Florentinische Tragodie, etc. (Disk 2).wav" WAVE
TRACK 01 AUDIO
TITLE "Eine Florentinische Tragodie, Op.16 - 1. Vorspiel"
INDEX 01 00:00:00
TRACK 02 AUDIO
TITLE "2. So langsam, Weib"
INDEX 01 04:32:46
TRACK 03 AUDIO
TITLE "3. Spinn ein Kleid, getaucht in Purpur"
INDEX 01 18:55:64
TRACK 04 AUDIO
TITLE "4. Was gibt es Neues, nein Prinz?"
INDEX 01 21:07:04
TRACK 05 AUDIO
TITLE "5. Wie er gleich einem schalen Kramer spricht"
INDEX 01 25:49:43
TRACK 06 AUDIO
TITLE "6. Was ist das?"
INDEX 01 30:28:38
TRACK 07 AUDIO
TITLE "7. Holdsel'ge Bianca"
INDEX 01 37:44:04
TRACK 08 AUDIO
TITLE "8. Simone, jetzt muss ich nach Hause gehen"
INDEX 01 44:03:17
TRACK 09 AUDIO
TITLE "Psalm 13, Op.24"
INDEX 00 53:41:10
INDEX 01 53:46:06
TRACK 10 AUDIO
TITLE "Psalm 23, Op.14"
INDEX 00 67:27:63
INDEX 01 67:34:50

CD 2 (вариант более мелкого разделения «Трагедии»)

TITLE "Zemlinsky - Eine Florentinische Tragodie, etc. (Disk 2)"PERFORMER "Riccardo Chailly - Royal Concertgebouw Orchestra"FILE "Zemlinsky - Eine Florentinische Tragodie, etc. (Disk 2).wav" WAVE TRACK 01 AUDIO TITLE "Feurig stuermend, nicht zu schnell. – Langsam, traumend." INDEX 01 00:00:00 TRACK 02 AUDIO TITLE "«So langsam, Weib?» (Simone, Bianca)." INDEX 01 04:32:52 TRACK 03 AUDIO TITLE "«Ich heisse Guido Bardi» (Guido, Simone)." INDEX 01 06:54:10 TRACK 04 AUDIO TITLE "«Und doch, mein Fuerst, bin ich vielleicht zu kuehn» (Simone)." INDEX 01 09:01:46 TRACK 05 AUDIO TITLE "«Wack'rer Simone, genug, ich bitte Euch» (Guido, Simone)." INDEX 01 11:27:21 TRACK 06 AUDIO TITLE "«Bianca, sag, stuende nicht dies kostbar edle Kleid...» (Simone, Bianca, Guido)." INDEX 01 14:34:48 TRACK 07 AUDIO TITLE "«Wie, wenn ich die weisse Bianca forderte?» (Guido, Simone, Bianca)." INDEX 01 17:50:65 TRACK 08 AUDIO TITLE "«Was gibt es neues, mein Prinz?» (Simone, Guido, Bianca)." INDEX 01 21:07:06 TRACK 09 AUDIO TITLE "«Ist dem so? Ist die ganze maechtige Welt...» (Simone)." INDEX 01 23:44:62 TRACK 10 AUDIO TITLE "«Wie er gleich einem schalen Kraemer spricht» (Bianca, Guido)." INDEX 01 26:22:71 TRACK 11 AUDIO TITLE "«Wer spricht vom Tod?» (Simone)." INDEX 01 27:13:29 TRACK 12 AUDIO TITLE " «Genug! Zur Freude reif ist diese Nacht» (Simone)." INDEX 01 29:57:65 TRACK 13 AUDIO TITLE "«Was ist dies? Ihr brachtet eine Laute...» (Simone, Guido)." INDEX 01 30:31:74 TRACK 14 AUDIO TITLE "«'s ist besser so. Nun, teurer Prinz...» (Simone, Guido)." INDEX 01 34:18:12 TRACK 15 AUDIO TITLE "«Holdsel'ge Bianca, der schale Kraemer...» (Guido, Bianca)." INDEX 01 37:44:67 TRACK 16 AUDIO TITLE "«Simone, jetzt muss ich nach Hause gehn» (Guido, Simone)." INDEX 01 44:00:62 TRACK 17 AUDIO TITLE "«Ei, welch eine Schwert!» (Simone, Guido)." INDEX 01 45:59:51 TRACK 18 AUDIO TITLE "«Holt Eur eignes Schwert!» (Guido, Simone, Bianca)." INDEX 01 48:11:49 TRACK 19 AUDIO TITLE "«Auf! Noch einmal!» (Simone, Bianca, Guido)." INDEX 01 49:27:03 TRACK 20 AUDIO TITLE "«Und jetzt zu dir!» (Simone, Bianca)." INDEX 01 51:30:10 TRACK 21 AUDIO TITLE "Psalm 13, op. 24 (1935)" INDEX 00 53:41:10 INDEX 01 53:46:06 TRACK 22 AUDIO TITLE "Psalm 23, op. 14 (1910)" INDEX 00 67:27:63 INDEX 01 67:34:50
[teatrix.ru].t10023.torrent 
Торрент: Зарегистрирован [ 2015-10-25 20:37 ] · 95C5F32A56AFDCB30C0CF6AF6AD12D8864FE6E9A

Скачать .torrent

Скачать

25 KB

Статус: проверено
Скачан: 0 раз
Размер: 938 MB
terms.php



Быстрый ответ

Имя:

      
Для отправки сообщений необходимо включить JavaScript
Показать сообщения:    

Текущее время: 03-Дек 18:42

Часовой пояс: UTC + 3


Вы можете начинать темы
Вы можете отвечать на сообщения
Вы не можете редактировать свои сообщения
Вы не можете удалять свои сообщения
Вы не можете голосовать в опросах
Вы не можете прикреплять файлы к сообщениям
Вы можете скачивать файлы