(Classical) Beethoven - Symphonies Nos.1-9, Piano Concertos Nos.1-5, Violin Concerto, Triple Concerto, Overtures, Missa solemnis, Egmont, Wellington's Victory, Ritterballett, Grosse Fuge (Herbert von Karajan) - 2011, FLAC (image+.cue) lossless


Статистика раздачи [Обновить пиров]
Размер:  3.66 GB   |    Зарегистрирован:  1 год 1 месяц   |    Скачан:  0 раз

Полного источника не было: Никогда

 
   
 
 
 

[Цитировать]

Ludwig van Beethoven
Berliner Philharmoniker - Herbert von Karajan

Жанр: Classical
Страна-производитель диска: EU
Год издания диска: 2011
Издатель (лейбл): Deutsche Grammophon
Номер по каталогу: 00289 477 9830 |G|B13|
Аудиокодек: FLAC
Тип рипа: image+.cue
Битрейт аудио: lossless
Источник: собственный рип
Наличие сканов в содержимом раздачи: да
Треклист:

CD1: Symphonies Nos.1 & 2 (57'44")

Symphony No.1 in C major, Op.21
1. I. Adagio molto - Allegro con brio
2. II. Andante cantabile con moto
3. III. Menuetto. Allegro molto e vivace
4. IV. Adagio - Allegro molto e vivace
Rec. I.1984
Symphony No.2 in D major, Op.36
5. I. Adagio - Allegro con brio
6. II. Larghetto
7. III. Scherzo. Allegro
8. IV. Allegro molto
Rec. II.1984

CD2: Symphonies Nos.3 & 8 (1:15'01")

Symphony No.3 in E flat major, Op.55 'Eroica'
1. I. Allegro con brio
2. II. Marcia funebre. Adagio assai
3. III. Scherzo. Allegro vivace
4. IV. Finale. Allegro molto
Rec. I.1984
Symphony No.8 in F major, Op.93
5. I. Allegro vivace e con brio
6. II. Allegretto scherzando
7. III. Tempo di Menuetto
8. IV. Allegro vivace
Rec. II.1984

CD3: Symphonies Nos.4 & 7 (1:04'49")

Symphony No.4 in B flat major, Op.60
1. I. Adagio - Allegro vivace
2. II. Adagio
3. III. Allegro vivace
4. IV. Allegro ma non troppo
Rec. XII.1983
Symphony No.7 in A major, Op.92
5. I. Poco sostenuto - Vivace
6. II. Allegretto
7. III. Presto
8. IV. Allegro con brio
Rec. XII.1983

CD4: Symphonies Nos.5 & 6 (1:04'55")

Symphony No.5 in C minor, Op.67
1. I. Allegro con brio
2. II. Andante con moto
3. III. Allegro
4. IV. Allegro
Rec. XI.1982
Symphony No.6 in F major, Op.68 'Pastoral'
5. I. Erwachen heiterer Empfindungen bei der Ankunft auf dem Lande (Allegro ma non troppo)
6. II. Szene am Bach (Andante molto mosso)
7. III. Lustiges Zusammensein der Landleute (Allegro)
8. IV. Gewitter - Sturm (Allegro)
9. V. Hirtengesang - Frohe und dankbare Gefuhle nach dem Sturm (Allegretto)
Rec. XI.1982

CD5: Symphony No.9 (1:06'17")

Symphony No.9 in D minor, Op.125
1. I. Allegro ma non troppo, un poco maestoso
2. II. Molto vivace
3. III. Adagio molto e cantabile
4. IV. Presto
5. IV. 'O Freunde, nicht diese Tone!'
Rec. IX.1983
Janet Perry, soprano
Agnes Baltsa, contralto
Vinson Cole, tenor
Jose van Dam, baritone
Wiener Singverein

CD6: Overtures (52'24")

1. Overture 'The Creatures of Prometheus', Op.43
Rec. I.1969
2. Overture 'King Stephen' Op.117
Rec. I.1969
3. Overture 'The Ruins of Athens', Op.113
Rec. I.1969
4. Overture 'Egmont', Op.84
Rec. I.1969
5. Overture 'Coriolan', Op.62
Rec. IX.1965
6. Grand Overture in C major 'Name-Day', Op.115
Rec. I.1969
7. Overture 'The Consecration of the House', Op.124
Rec. I.1969

CD7: Overtures, Grosse Fuge (1:07'29")

1. Overture 'Leonore' I, Op.138
Rec. I.1969
2. Overture 'Leonore' II, Op.72
Rec. I.1969
3. Overture 'Leonore' III, Op.72a
Rec. IX.1965
4. Overture 'Fidelio', Op.72b
Rec. IX.1965
5. Grosse Fuge in B flat major, Op.133
Rec. VIII.1969

CD8: 'Egmont', Wellington's Victory, 'Ritterballett', Gratulations-Menuett, 'Yorck March' (1:11'55")

Music to J. W. von Goethe's Tragedy 'Egmont', Op.84
01. Ouverture
02. 1. Lied: 'Die Trommel geruhret'
03. 2. Zwischenaktmusik I
04. 3. Zwischenaktmusik II
05. 4. Lied: 'Freudvoll und liedvoll'
06. 5. Zwischenaktmusik III
07. 6. Zwischenaktmusik IV
08. 7. Musik, Clarchens Tod bezeichnend
09. 8. Melodram: 'Susser Schlaf! Du kommst wie ein reines Gluck'
10. 9. Siegessymphonie
Rec. I.1969
Gundula Janowitz, soprano (Clarchen)
Erich Schellow, speaker (Egmont)

11. Wellington's Victory, or The Battle of Vitoria, Op.91
Rec. I.1969
Music to a 'Ritterballett', WoO 1
12. 1. Marsch
13. 2. Deutscher Gesang
14. 3. Jagdlied
15. Deutscher Gesang
16. 4. Romanze
17. Deutscher Gesang
18. 5. Kriegslied
19. Deutscher Gesang
20. 6. Trinklied
21. Deutscher Gesang
22. 7. Deutscher Tanz
23. 8. Coda
Rec. I.1969
24. Gratulations-Menuett in E flat major, WoO 3
Rec. I.1969
25. March in F major, WoO 18 'Yorck March'
Rec. III.1973

CD9: Piano Concerto No.1 & 'Triple Concerto' (1:18'45")

Concerto for Piano and Orchestra No.1 in C major, Op.15
1. I. Allegro con brio
2. II. Largo
3. III. Rondo. Allegro scherzando
Rec. XII.1966
Christoph Eschenbach, piano
Concerto for Piano, Violin, Cello and Orchestra in C major, Op.56 'Triple Concerto'
4. I. Allegro
5. II. Largo - attacca
6. III. Rondo alla Polacca
Rec. IX.1979
Mark Zeltser, piano
Anne-Sophie Mutter, violin
Yo-Yo Ma, cello

CD10: Piano Concertos Nos.2 & 4 (1:04'15")

Concerto for Piano and Orchestra No.2 in B flat major, Op.19
1. I. Allegro con brio
2. II. Adagio
3. III. Rondo. Molto allegro
Rec. IX.1977
Concerto for Piano and Orchestra No.4 in G major, Op.58
4. I. Allegro moderato
5. II. Andante con moto
6. III. Rondo. Vivace
Rec. IX.1974
Alexis Weissenberg, piano

CD11: Piano Concertos Nos.3 & 5 (1:16'04")

Concerto for Piano and Orchestra No.3 in C minor, Op.37
1. I. Allegro con brio
2. II. Largo
3. III. Rondo. Allegro
Rec. IX.1976 & IX.1977
Concerto for Piano and Orchestra No.5 in E flat, Op.73 'Emperor'
4. I. Allegro
5. II. Adagio un poco mosso - attacca:
6. III. Rondo. Allegro
Rec. V.1974
Alexis Weissenberg, piano

CD12: Violin Concerto (48'20")

Concerto for Violin and Orchestra in D major, Op.61
1. I. Allegro ma non troppo
2. II. Larghetto
3. III. Rondo. Allegro
Rec. IX.1979
Anne-Sophie Mutter, violin

CD13: Missa solemnis (1:20'05")

Missa solemnis for four solo voices, chorus, orchestra and organ in D major, Op.123
Kyrie
01. Kyrie eleison
02. Christe eleison
03. Kyrie eleison
Gloria
04. Gloria in excelsis Deo
05. Qui tollis peccata mundi
06. Quoniam tu solus Sanctus
07. In gloria Dei Patris
08. Amen, in gloria Dei Patris
Credo
09. Credo in unum Deum
10. Et incarnatus est
11. Et ascendit in coelum
12. Et vitam venturi saeculi
13. Amen, et vitam venturi saeculi
Sanctus
14. Sanctus, Sanctus, Sanctus
15. Pleni sunt coeli et terra
16. Praeludium
17. Benedictus qui venit in nomine Domini
Agnus Dei
18. Agnus Dei, qui tollis peccata mundi
19. Dona nobis pacem
20. Agnus Dei, qui tollis peccata mundi
21. Presto
Rec. IX.1985
Lella Cuberli, soprano
Trudeliese Schmidt, contralto
Vinson Cole, tenor
Jose van Dam, bass
Leon Spierer, solo violin
David Bell, organ
Wiener Singverein

-

Лог создания рипа - CD1

Exact Audio Copy V1.0 beta 1 from 15. November 2010
EAC extraction logfile from 6. December 2011, 23:34
Karajan / Beethoven (CD1)
Used drive : Optiarc DVD RW AD-7203A Adapter: 4 ID: 1
Read mode : SecureUtilize accurate stream : YesDefeat audio cache : YesMake use of C2 pointers : No
Read offset correction : 48Overread into Lead-In and Lead-Out : NoFill up missing offset samples with silence : YesDelete leading and trailing silent blocks : NoNull samples used in CRC calculations : YesUsed interface : Native Win32 interface for Win NT & 2000
Used output format : User Defined EncoderSelected bitrate : 128 kBit/sQuality : HighAdd ID3 tag : NoCommand line compressor : C:\Program Files\FLAC\flac.exeAdditional command line options : -T "COMMENT=Ripped by GFox" -8 -V %s
TOC of the extracted CD
Track | Start | Length | Start sector | End sector --------------------------------------------------------- 1 | 0:00.33 | 10:11.00 | 33 | 45857 2 | 10:11.33 | 6:24.00 | 45858 | 74657 3 | 16:35.33 | 3:56.00 | 74658 | 92357 4 | 20:31.33 | 5:58.00 | 92358 | 119207 5 | 26:29.33 | 10:32.00 | 119208 | 166607 6 | 37:01.33 | 10:20.00 | 166608 | 213107 7 | 47:21.33 | 3:55.00 | 213108 | 230732 8 | 51:16.33 | 6:28.00 | 230733 | 259832
Range status and errors
Selected range
Filename D:\EAC\Karajan - Beethoven (CD1).wav
Peak level 100.0 % Extraction speed 0.4 X Range quality 99.9 % Test CRC 723D9324 Copy CRC 723D9324 Copy OK
No errors occurred
AccurateRip summary
Track 1 cannot be verified as accurate (confidence 5) [33A4958F], AccurateRip returned [1E2F7813]Track 2 cannot be verified as accurate (confidence 5) [3E965D4A], AccurateRip returned [8D437EAE]Track 3 cannot be verified as accurate (confidence 4) [F1120B19], AccurateRip returned [FE330327]Track 4 cannot be verified as accurate (confidence 5) [0D206A89], AccurateRip returned [8058D5D9]Track 5 cannot be verified as accurate (confidence 6) [D9BE35ED], AccurateRip returned [D3EACE43]Track 6 cannot be verified as accurate (confidence 5) [78AFF730], AccurateRip returned [33C24E9B]Track 7 cannot be verified as accurate (confidence 6) [8AF0A846], AccurateRip returned [26E2DE44]Track 8 cannot be verified as accurate (confidence 6) [1A984C9F], AccurateRip returned [946EF696]
No tracks could be verified as accurateYou may have a different pressing from the one(s) in the database
End of status report
==== Log checksum 1FF4D5CF5B43073BEF562E77457F0EE8CEF42D542CCAE2FB08819E28F410E358 ====

Лог создания рипа - CD2

Exact Audio Copy V1.0 beta 1 from 15. November 2010
EAC extraction logfile from 7. December 2011, 0:37
Karajan / Beethoven (CD2)
Used drive : Optiarc DVD RW AD-7203A Adapter: 4 ID: 1
Read mode : SecureUtilize accurate stream : YesDefeat audio cache : YesMake use of C2 pointers : No
Read offset correction : 48Overread into Lead-In and Lead-Out : NoFill up missing offset samples with silence : YesDelete leading and trailing silent blocks : NoNull samples used in CRC calculations : YesUsed interface : Native Win32 interface for Win NT & 2000
Used output format : User Defined EncoderSelected bitrate : 128 kBit/sQuality : HighAdd ID3 tag : NoCommand line compressor : C:\Program Files\FLAC\flac.exeAdditional command line options : -T "COMMENT=Ripped by GFox" -8 -V %s
TOC of the extracted CD
Track | Start | Length | Start sector | End sector --------------------------------------------------------- 1 | 0:00.00 | 14:08.50 | 0 | 63649 2 | 14:08.50 | 16:07.00 | 63650 | 136174 3 | 30:15.50 | 6:08.50 | 136175 | 163824 4 | 36:24.25 | 12:19.47 | 163825 | 219296 5 | 48:43.72 | 9:02.28 | 219297 | 259974 6 | 57:46.25 | 4:03.11 | 259975 | 278210 7 | 61:49.36 | 6:01.03 | 278211 | 305288 8 | 67:50.39 | 7:10.40 | 305289 | 337578
Range status and errors
Selected range
Filename D:\EAC\Karajan - Beethoven (CD2).wav
Peak level 98.9 % Extraction speed 0.3 X Range quality 100.0 % Test CRC F358172E Copy CRC F358172E Copy OK
No errors occurred
AccurateRip summary
Track 1 not present in databaseTrack 2 not present in databaseTrack 3 not present in databaseTrack 4 not present in databaseTrack 5 not present in databaseTrack 6 not present in databaseTrack 7 not present in databaseTrack 8 not present in database
None of the tracks are present in the AccurateRip database
End of status report
==== Log checksum DD770660582F866AE6861C787F04CC893128373CBEB465598BE479A128805FE9 ====

Лог создания рипа - CD3

Exact Audio Copy V1.0 beta 1 from 15. November 2010
EAC extraction logfile from 7. December 2011, 19:58
Karajan / Beethoven (CD3)
Used drive : Optiarc DVD RW AD-7203A Adapter: 4 ID: 1
Read mode : SecureUtilize accurate stream : YesDefeat audio cache : YesMake use of C2 pointers : No
Read offset correction : 48Overread into Lead-In and Lead-Out : NoFill up missing offset samples with silence : YesDelete leading and trailing silent blocks : NoNull samples used in CRC calculations : YesUsed interface : Native Win32 interface for Win NT & 2000
Used output format : User Defined EncoderSelected bitrate : 128 kBit/sQuality : HighAdd ID3 tag : NoCommand line compressor : C:\Program Files\FLAC\flac.exeAdditional command line options : -T "COMMENT=Ripped by GFox" -8 -V %s
TOC of the extracted CD
Track | Start | Length | Start sector | End sector --------------------------------------------------------- 1 | 0:00.33 | 10:17.00 | 33 | 46307 2 | 10:17.33 | 9:37.50 | 46308 | 89632 3 | 19:55.08 | 5:57.25 | 89633 | 116432 4 | 25:52.33 | 5:54.00 | 116433 | 142982 5 | 31:46.33 | 11:19.25 | 142983 | 193932 6 | 43:05.58 | 7:45.25 | 193933 | 228832 7 | 50:51.08 | 7:30.25 | 228833 | 262607 8 | 58:21.33 | 6:28.00 | 262608 | 291707
Range status and errors
Selected range
Filename D:\EAC\Karajan - Beethoven (CD3).wav
Peak level 98.9 % Extraction speed 0.4 X Range quality 100.0 % Test CRC 8BE2C822 Copy CRC 8BE2C822 Copy OK
No errors occurred
AccurateRip summary
Track 1 not present in databaseTrack 2 not present in databaseTrack 3 not present in databaseTrack 4 not present in databaseTrack 5 not present in databaseTrack 6 not present in databaseTrack 7 not present in databaseTrack 8 not present in database
None of the tracks are present in the AccurateRip database
End of status report
==== Log checksum F2396BD3F089D12FF974869227C1BCA74A1BB5C32092F3203F8C90F31A8B5124 ====

Лог создания рипа - CD4

Exact Audio Copy V1.0 beta 1 from 15. November 2010
EAC extraction logfile from 7. December 2011, 20:44
Karajan / Beethoven (CD4)
Used drive : Optiarc DVD RW AD-7203A Adapter: 4 ID: 1
Read mode : SecureUtilize accurate stream : YesDefeat audio cache : YesMake use of C2 pointers : No
Read offset correction : 48Overread into Lead-In and Lead-Out : NoFill up missing offset samples with silence : YesDelete leading and trailing silent blocks : NoNull samples used in CRC calculations : YesUsed interface : Native Win32 interface for Win NT & 2000
Used output format : User Defined EncoderSelected bitrate : 128 kBit/sQuality : HighAdd ID3 tag : NoCommand line compressor : C:\Program Files\FLAC\flac.exeAdditional command line options : -T "COMMENT=Ripped by GFox" -8 -V %s
TOC of the extracted CD
Track | Start | Length | Start sector | End sector --------------------------------------------------------- 1 | 0:00.33 | 7:22.00 | 33 | 33182 2 | 7:22.33 | 9:21.00 | 33183 | 75257 3 | 16:43.33 | 4:49.30 | 75258 | 96962 4 | 21:32.63 | 8:53.45 | 96963 | 136982 5 | 30:26.33 | 9:09.00 | 136983 | 178157 6 | 39:35.33 | 10:25.00 | 178158 | 225032 7 | 50:00.33 | 3:09.40 | 225033 | 239247 8 | 53:09.73 | 3:23.52 | 239248 | 254524 9 | 56:33.50 | 8:21.58 | 254525 | 292157
Range status and errors
Selected range
Filename D:\EAC\Karajan - Beethoven (CD4).wav
Peak level 98.2 % Extraction speed 0.5 X Range quality 99.9 % Test CRC 91C13948 Copy CRC 91C13948 Copy OK
No errors occurred
AccurateRip summary
Track 1 cannot be verified as accurate (confidence 68) [A3FE260B], AccurateRip returned [B6E4A46A]Track 2 cannot be verified as accurate (confidence 68) [1A654A07], AccurateRip returned [9FCE2E42]Track 3 cannot be verified as accurate (confidence 69) [2AB8A4F9], AccurateRip returned [139D3A35]Track 4 cannot be verified as accurate (confidence 67) [0A263DBD], AccurateRip returned [BBF3563C]Track 5 cannot be verified as accurate (confidence 67) [36521174], AccurateRip returned [8E8FE78D]Track 6 cannot be verified as accurate (confidence 64) [FB2A9154], AccurateRip returned [6215ADEA]Track 7 cannot be verified as accurate (confidence 66) [E198537F], AccurateRip returned [836A77CD]Track 8 cannot be verified as accurate (confidence 66) [FE6D07AD], AccurateRip returned [AD0E8222]Track 9 cannot be verified as accurate (confidence 64) [5B072BFB], AccurateRip returned [02A74D27]
No tracks could be verified as accurateYou may have a different pressing from the one(s) in the database
End of status report
==== Log checksum 5EF72C0E1F76B0C61343108847F887C6B27CFFBCF5AD7A7F828B51517031BB69 ====

Лог создания рипа - CD5

Exact Audio Copy V1.0 beta 1 from 15. November 2010
EAC extraction logfile from 7. December 2011, 21:36
Karajan / Beethoven (CD5)
Used drive : Optiarc DVD RW AD-7203A Adapter: 4 ID: 1
Read mode : SecureUtilize accurate stream : YesDefeat audio cache : YesMake use of C2 pointers : No
Read offset correction : 48Overread into Lead-In and Lead-Out : NoFill up missing offset samples with silence : YesDelete leading and trailing silent blocks : NoNull samples used in CRC calculations : YesUsed interface : Native Win32 interface for Win NT & 2000
Used output format : User Defined EncoderSelected bitrate : 128 kBit/sQuality : HighAdd ID3 tag : NoCommand line compressor : C:\Program Files\FLAC\flac.exeAdditional command line options : -T "COMMENT=Ripped by GFox" -8 -V %s
TOC of the extracted CD
Track | Start | Length | Start sector | End sector --------------------------------------------------------- 1 | 0:00.33 | 15:36.00 | 33 | 70232 2 | 15:36.33 | 10:26.00 | 70233 | 117182 3 | 26:02.33 | 15:54.00 | 117183 | 188732 4 | 41:56.33 | 6:07.20 | 188733 | 216277 5 | 48:03.53 | 18:13.55 | 216278 | 298307
Range status and errors
Selected range
Filename D:\EAC\Karajan - Beethoven (CD5).wav
Peak level 99.9 % Extraction speed 0.8 X Range quality 99.9 % Test CRC B8C4DE9B Copy CRC B8C4DE9B Copy OK
No errors occurred
AccurateRip summary
Track 1 not present in databaseTrack 2 not present in databaseTrack 3 not present in databaseTrack 4 not present in databaseTrack 5 not present in database
None of the tracks are present in the AccurateRip database
End of status report
==== Log checksum F0BFCC63AEFF27C6EF7AB304BECF85810C9E98FF0D3E01595CA2C40257F17739 ====

Лог создания рипа - CD6

Exact Audio Copy V1.0 beta 1 from 15. November 2010
EAC extraction logfile from 7. December 2011, 22:29
Karajan / Beethoven (CD6)
Used drive : Optiarc DVD RW AD-7203A Adapter: 4 ID: 1
Read mode : SecureUtilize accurate stream : YesDefeat audio cache : YesMake use of C2 pointers : No
Read offset correction : 48Overread into Lead-In and Lead-Out : NoFill up missing offset samples with silence : YesDelete leading and trailing silent blocks : NoNull samples used in CRC calculations : YesUsed interface : Native Win32 interface for Win NT & 2000
Used output format : User Defined EncoderSelected bitrate : 128 kBit/sQuality : HighAdd ID3 tag : NoCommand line compressor : C:\Program Files\FLAC\flac.exeAdditional command line options : -T "COMMENT=Ripped by GFox" -8 -V %s
TOC of the extracted CD
Track | Start | Length | Start sector | End sector --------------------------------------------------------- 1 | 0:00.33 | 5:27.07 | 33 | 24564 2 | 5:27.40 | 6:50.30 | 24565 | 55344 3 | 12:17.70 | 5:28.50 | 55345 | 79994 4 | 17:46.45 | 8:24.48 | 79995 | 117842 5 | 26:11.18 | 9:02.40 | 117843 | 158532 6 | 35:13.58 | 6:56.72 | 158533 | 189804 7 | 42:10.55 | 10:14.05 | 189805 | 235859
Range status and errors
Selected range
Filename D:\EAC\Karajan - Beethoven (CD6).wav
Peak level 99.9 % Extraction speed 0.7 X Range quality 100.0 % Test CRC 7C83A076 Copy CRC 7C83A076 Copy OK
No errors occurred
AccurateRip summary
Track 1 accurately ripped (confidence 2) [122D0523]Track 2 accurately ripped (confidence 2) [11DD30D6]Track 3 accurately ripped (confidence 2) [0FAF87C5]Track 4 accurately ripped (confidence 2) [466F6695]Track 5 accurately ripped (confidence 2) [6C9E02A7]Track 6 accurately ripped (confidence 2) [16187366]Track 7 accurately ripped (confidence 2) [601D83DE]
All tracks accurately ripped
End of status report
==== Log checksum 992FB596F94964A7F860B62C2E0D1BEC6405226AD239D9F6008D8702390419D9 ====

Лог создания рипа - CD7

Exact Audio Copy V1.0 beta 1 from 15. November 2010
EAC extraction logfile from 7. December 2011, 23:27
Karajan / Beethoven (CD7)
Used drive : Optiarc DVD RW AD-7203A Adapter: 4 ID: 1
Read mode : SecureUtilize accurate stream : YesDefeat audio cache : YesMake use of C2 pointers : No
Read offset correction : 48Overread into Lead-In and Lead-Out : NoFill up missing offset samples with silence : YesDelete leading and trailing silent blocks : NoNull samples used in CRC calculations : YesUsed interface : Native Win32 interface for Win NT & 2000
Used output format : User Defined EncoderSelected bitrate : 128 kBit/sQuality : HighAdd ID3 tag : NoCommand line compressor : C:\Program Files\FLAC\flac.exeAdditional command line options : -T "COMMENT=Ripped by GFox" -8 -V %s
TOC of the extracted CD
Track | Start | Length | Start sector | End sector --------------------------------------------------------- 1 | 0:00.00 | 10:45.02 | 0 | 48376 2 | 10:45.02 | 14:49.50 | 48377 | 115101 3 | 25:34.52 | 14:47.48 | 115102 | 181674 4 | 40:22.25 | 7:03.58 | 181675 | 213457 5 | 47:26.08 | 20:03.13 | 213458 | 303695
Range status and errors
Selected range
Filename D:\EAC\Karajan - Beethoven (CD7).wav
Peak level 100.0 % Extraction speed 0.9 X Range quality 100.0 % Test CRC 3B549ADE Copy CRC 3B549ADE Copy OK
No errors occurred
AccurateRip summary
Track 1 not present in databaseTrack 2 not present in databaseTrack 3 not present in databaseTrack 4 not present in databaseTrack 5 not present in database
None of the tracks are present in the AccurateRip database
End of status report
==== Log checksum BDA201E7E0AFAA0B736DEF0EE9635D20B6735F6FB89CBF6E5DD6F5B6881B5418 ====

Лог создания рипа - CD8

Exact Audio Copy V1.0 beta 1 from 15. November 2010
EAC extraction logfile from 9. December 2011, 22:16
Karajan / Beethoven (CD8)
Used drive : Optiarc DVD RW AD-7203A Adapter: 4 ID: 1
Read mode : SecureUtilize accurate stream : YesDefeat audio cache : YesMake use of C2 pointers : No
Read offset correction : 48Overread into Lead-In and Lead-Out : NoFill up missing offset samples with silence : YesDelete leading and trailing silent blocks : NoNull samples used in CRC calculations : YesUsed interface : Native Win32 interface for Win NT & 2000
Used output format : User Defined EncoderSelected bitrate : 128 kBit/sQuality : HighAdd ID3 tag : NoCommand line compressor : C:\Program Files\FLAC\flac.exeAdditional command line options : -T "COMMENT=Ripped by GFox" -8 -V %s
TOC of the extracted CD
Track | Start | Length | Start sector | End sector --------------------------------------------------------- 1 | 0:00.00 | 8:26.23 | 0 | 37972 2 | 8:26.23 | 2:53.15 | 37973 | 50962 3 | 11:19.38 | 2:49.72 | 50963 | 63709 4 | 14:09.35 | 5:14.67 | 63710 | 87326 5 | 19:24.27 | 1:40.08 | 87327 | 94834 6 | 21:04.35 | 3:50.00 | 94835 | 112084 7 | 24:54.35 | 3:21.03 | 112085 | 127162 8 | 28:15.38 | 3:12.70 | 127163 | 141632 9 | 31:28.33 | 4:03.23 | 141633 | 159880 10 | 35:31.56 | 1:21.54 | 159881 | 166009 11 | 36:53.35 | 14:04.63 | 166010 | 229372 12 | 50:58.23 | 2:03.23 | 229373 | 238620 13 | 53:01.46 | 0:55.12 | 238621 | 242757 14 | 53:56.58 | 1:19.73 | 242758 | 248755 15 | 55:16.56 | 0:55.72 | 248756 | 252952 16 | 56:12.53 | 0:41.68 | 252953 | 256095 17 | 56:54.46 | 0:55.17 | 256096 | 260237 18 | 57:49.63 | 0:29.48 | 260238 | 262460 19 | 58:19.36 | 0:55.17 | 262461 | 266602 20 | 59:14.53 | 1:37.70 | 266603 | 273947 21 | 60:52.48 | 0:55.38 | 273948 | 278110 22 | 61:48.11 | 0:36.22 | 278111 | 280832 23 | 62:24.33 | 1:49.66 | 280833 | 289073 24 | 64:14.24 | 5:08.32 | 289074 | 312205 25 | 69:22.56 | 2:32.29 | 312206 | 323634
Range status and errors
Selected range
Filename D:\EAC\Karajan - Beethoven (CD8).wav
Peak level 99.6 % Extraction speed 0.1 X Range quality 100.0 % Test CRC 82C3A443 Copy CRC 82C3A443 Copy OK
No errors occurred
AccurateRip summary
Track 1 not present in databaseTrack 2 not present in databaseTrack 3 not present in databaseTrack 4 not present in databaseTrack 5 not present in databaseTrack 6 not present in databaseTrack 7 not present in databaseTrack 8 not present in databaseTrack 9 not present in databaseTrack 10 not present in databaseTrack 11 not present in databaseTrack 12 not present in databaseTrack 13 not present in databaseTrack 14 not present in databaseTrack 15 not present in databaseTrack 16 not present in databaseTrack 17 not present in databaseTrack 18 not present in databaseTrack 19 not present in databaseTrack 20 not present in databaseTrack 21 not present in databaseTrack 22 not present in databaseTrack 23 not present in databaseTrack 24 not present in databaseTrack 25 not present in database
None of the tracks are present in the AccurateRip database
End of status report
==== Log checksum 7F0A594A54DF6554282FA0B0DA4132E166506E65E1B41CFBD187B4ED888391F6 ====

Лог создания рипа - CD9

Exact Audio Copy V1.0 beta 1 from 15. November 2010
EAC extraction logfile from 9. December 2011, 23:39
Karajan / Beethoven (CD9)
Used drive : Optiarc DVD RW AD-7203A Adapter: 4 ID: 1
Read mode : SecureUtilize accurate stream : YesDefeat audio cache : YesMake use of C2 pointers : No
Read offset correction : 48Overread into Lead-In and Lead-Out : NoFill up missing offset samples with silence : YesDelete leading and trailing silent blocks : NoNull samples used in CRC calculations : YesUsed interface : Native Win32 interface for Win NT & 2000
Used output format : User Defined EncoderSelected bitrate : 128 kBit/sQuality : HighAdd ID3 tag : NoCommand line compressor : C:\Program Files\FLAC\flac.exeAdditional command line options : -T "COMMENT=Ripped by GFox" -8 -V %s
TOC of the extracted CD
Track | Start | Length | Start sector | End sector --------------------------------------------------------- 1 | 0:00.33 | 18:44.00 | 33 | 84332 2 | 18:44.33 | 14:01.00 | 84333 | 147407 3 | 32:45.33 | 9:46.00 | 147408 | 191357 4 | 42:31.33 | 17:50.00 | 191358 | 271607 5 | 60:21.33 | 5:51.32 | 271608 | 297964 6 | 66:12.65 | 12:32.43 | 297965 | 354407
Range status and errors
Selected range
Filename D:\EAC\Karajan - Beethoven (CD9).wav
Peak level 97.3 % Extraction speed 0.5 X Range quality 100.0 % Test CRC D8DA2D92 Copy CRC D8DA2D92 Copy OK
No errors occurred
AccurateRip summary
Track 1 cannot be verified as accurate (confidence 3) [8D070AAA], AccurateRip returned [52D64B78]Track 2 cannot be verified as accurate (confidence 3) [F8BC8D37], AccurateRip returned [83965905]Track 3 cannot be verified as accurate (confidence 3) [61B3F78F], AccurateRip returned [6DFD3BCD]Track 4 cannot be verified as accurate (confidence 2) [A0C3ED40], AccurateRip returned [B1BCDDBC]Track 5 cannot be verified as accurate (confidence 2) [69FF534B], AccurateRip returned [F0A5392B]Track 6 cannot be verified as accurate (confidence 2) [1985412B], AccurateRip returned [8F2F78BF]
No tracks could be verified as accurateYou may have a different pressing from the one(s) in the database
End of status report
==== Log checksum 003212FBE2024A15E57E6F1BF7783B117AC937C3C4D7DD87BA2355AA0488F491 ====

Лог создания рипа - CD10

Exact Audio Copy V1.0 beta 1 from 15. November 2010
EAC extraction logfile from 10. December 2011, 1:12
Karajan / Beethoven (CD10)
Used drive : Optiarc DVD RW AD-7203A Adapter: 4 ID: 1
Read mode : SecureUtilize accurate stream : YesDefeat audio cache : YesMake use of C2 pointers : No
Read offset correction : 48Overread into Lead-In and Lead-Out : NoFill up missing offset samples with silence : YesDelete leading and trailing silent blocks : NoNull samples used in CRC calculations : YesUsed interface : Native Win32 interface for Win NT & 2000
Used output format : User Defined EncoderSelected bitrate : 128 kBit/sQuality : HighAdd ID3 tag : NoCommand line compressor : C:\Program Files\FLAC\flac.exeAdditional command line options : -T "COMMENT=Ripped by GFox" -8 -V %s
TOC of the extracted CD
Track | Start | Length | Start sector | End sector --------------------------------------------------------- 1 | 0:00.00 | 14:35.65 | 0 | 65689 2 | 14:35.65 | 10:29.70 | 65690 | 112934 3 | 25:05.60 | 5:54.14 | 112935 | 139498 4 | 30:59.74 | 18:22.16 | 139499 | 222164 5 | 49:22.15 | 5:07.65 | 222165 | 245254 6 | 54:30.05 | 9:45.24 | 245255 | 289153
Range status and errors
Selected range
Filename D:\EAC\Karajan - Beethoven (CD10).wav
Peak level 100.0 % Extraction speed 0.6 X Range quality 100.0 % Test CRC F728B5EB Copy CRC F728B5EB Copy OK
No errors occurred
AccurateRip summary
Track 1 not present in databaseTrack 2 not present in databaseTrack 3 not present in databaseTrack 4 not present in databaseTrack 5 not present in databaseTrack 6 not present in database
None of the tracks are present in the AccurateRip database
End of status report
==== Log checksum 0C42A8CA383C4B7F895F171841DBDC2D6396657A136CBDD3753B2AE69E38A5BB ====

Лог создания рипа - CD11

Exact Audio Copy V1.0 beta 1 from 15. November 2010
EAC extraction logfile from 10. December 2011, 11:35
Karajan / Beethoven (CD11)
Used drive : Optiarc DVD RW AD-7203A Adapter: 4 ID: 1
Read mode : SecureUtilize accurate stream : YesDefeat audio cache : YesMake use of C2 pointers : No
Read offset correction : 48Overread into Lead-In and Lead-Out : NoFill up missing offset samples with silence : YesDelete leading and trailing silent blocks : NoNull samples used in CRC calculations : YesUsed interface : Native Win32 interface for Win NT & 2000
Used output format : User Defined EncoderSelected bitrate : 128 kBit/sQuality : HighAdd ID3 tag : NoCommand line compressor : C:\Program Files\FLAC\flac.exeAdditional command line options : -T "COMMENT=Ripped by GFox" -8 -V %s
TOC of the extracted CD
Track | Start | Length | Start sector | End sector --------------------------------------------------------- 1 | 0:00.00 | 16:51.30 | 0 | 75854 2 | 16:51.30 | 9:46.45 | 75855 | 119849 3 | 26:38.00 | 9:14.51 | 119850 | 161450 4 | 35:52.51 | 20:37.08 | 161451 | 254233 5 | 56:29.59 | 9:22.07 | 254234 | 296390 6 | 65:51.66 | 10:12.11 | 296391 | 342301
Range status and errors
Selected range
Filename D:\EAC\Karajan - Beethoven (CD11).wav
Peak level 100.0 % Extraction speed 0.4 X Range quality 100.0 % Test CRC D2A1833B Copy CRC D2A1833B Copy OK
No errors occurred
AccurateRip summary
Track 1 not present in databaseTrack 2 not present in databaseTrack 3 not present in databaseTrack 4 not present in databaseTrack 5 not present in databaseTrack 6 not present in database
None of the tracks are present in the AccurateRip database
End of status report
==== Log checksum E09E38A92C76911F0C0E9A04FD45011F1262968C106D4182EF0B09D18A591F2B ====

Лог создания рипа - CD12

Exact Audio Copy V1.0 beta 1 from 15. November 2010
EAC extraction logfile from 10. December 2011, 12:29
Karajan / Beethoven (CD12)
Used drive : Optiarc DVD RW AD-7203A Adapter: 4 ID: 1
Read mode : SecureUtilize accurate stream : YesDefeat audio cache : YesMake use of C2 pointers : No
Read offset correction : 48Overread into Lead-In and Lead-Out : NoFill up missing offset samples with silence : YesDelete leading and trailing silent blocks : NoNull samples used in CRC calculations : YesUsed interface : Native Win32 interface for Win NT & 2000
Used output format : User Defined EncoderSelected bitrate : 128 kBit/sQuality : HighAdd ID3 tag : NoCommand line compressor : C:\Program Files\FLAC\flac.exeAdditional command line options : -T "COMMENT=Ripped by GFox" -8 -V %s
TOC of the extracted CD
Track | Start | Length | Start sector | End sector --------------------------------------------------------- 1 | 0:00.00 | 26:34.32 | 0 | 119581 2 | 26:34.32 | 11:24.04 | 119582 | 170885 3 | 37:58.36 | 10:21.44 | 170886 | 217504
Range status and errors
Selected range
Filename D:\EAC\Karajan - Beethoven (CD12).wav
Peak level 99.8 % Extraction speed 0.8 X Range quality 100.0 % Test CRC 8CD4CBF2 Copy CRC 8CD4CBF2 Copy OK
No errors occurred
AccurateRip summary
Track 1 accurately ripped (confidence 4) [B9121AFC]Track 2 accurately ripped (confidence 4) [EEB35D10]Track 3 accurately ripped (confidence 3) [3D455C0B]
All tracks accurately ripped
End of status report
==== Log checksum 99298042AE8991DB484D974E8AF415E269981CED99CC8DDEE69AF2B21C61A5C2 ====

Лог создания рипа - CD13

Exact Audio Copy V1.0 beta 1 from 15. November 2010
EAC extraction logfile from 10. December 2011, 13:14
Karajan / Beethoven (CD13)
Used drive : Optiarc DVD RW AD-7203A Adapter: 4 ID: 1
Read mode : SecureUtilize accurate stream : YesDefeat audio cache : YesMake use of C2 pointers : No
Read offset correction : 48Overread into Lead-In and Lead-Out : NoFill up missing offset samples with silence : YesDelete leading and trailing silent blocks : NoNull samples used in CRC calculations : YesUsed interface : Native Win32 interface for Win NT & 2000
Used output format : User Defined EncoderSelected bitrate : 128 kBit/sQuality : HighAdd ID3 tag : NoCommand line compressor : C:\Program Files\FLAC\flac.exeAdditional command line options : -T "COMMENT=Ripped by GFox" -8 -V %s
TOC of the extracted CD
Track | Start | Length | Start sector | End sector --------------------------------------------------------- 1 | 0:00.00 | 3:27.07 | 0 | 15531 2 | 3:27.07 | 1:44.57 | 15532 | 23388 3 | 5:11.64 | 4:04.73 | 23389 | 41761 4 | 9:16.62 | 4:53.15 | 41762 | 63751 5 | 14:10.02 | 5:14.22 | 63752 | 87323 6 | 19:24.24 | 1:39.23 | 87324 | 94771 7 | 21:03.47 | 2:54.32 | 94772 | 107853 8 | 23:58.04 | 2:22.73 | 107854 | 118576 9 | 26:21.02 | 4:36.31 | 118577 | 139307 10 | 30:57.33 | 6:20.17 | 139308 | 167824 11 | 37:17.50 | 5:34.55 | 167825 | 192929 12 | 42:52.30 | 1:54.10 | 192930 | 201489 13 | 44:46.40 | 3:40.24 | 201490 | 218013 14 | 48:26.64 | 2:15.41 | 218014 | 228179 15 | 50:42.30 | 1:13.68 | 228180 | 233722 16 | 51:56.23 | 1:39.40 | 233723 | 241187 17 | 53:35.63 | 11:09.55 | 241188 | 291417 18 | 64:45.43 | 6:19.45 | 291418 | 319887 19 | 71:05.13 | 2:10.32 | 319888 | 329669 20 | 73:15.45 | 3:03.28 | 329670 | 343422 21 | 76:18.73 | 3:47.01 | 343423 | 360448
Range status and errors
Selected range
Filename D:\EAC\Karajan - Beethoven (CD13).wav
Peak level 97.7 % Extraction speed 0.1 X Range quality 100.0 % Test CRC 3EAD48F2 Copy CRC 3EAD48F2 Copy OK
No errors occurred
AccurateRip summary
Track 1 not present in databaseTrack 2 not present in databaseTrack 3 not present in databaseTrack 4 not present in databaseTrack 5 not present in databaseTrack 6 not present in databaseTrack 7 not present in databaseTrack 8 not present in databaseTrack 9 not present in databaseTrack 10 not present in databaseTrack 11 not present in databaseTrack 12 not present in databaseTrack 13 not present in databaseTrack 14 not present in databaseTrack 15 not present in databaseTrack 16 not present in databaseTrack 17 not present in databaseTrack 18 not present in databaseTrack 19 not present in databaseTrack 20 not present in databaseTrack 21 not present in database
None of the tracks are present in the AccurateRip database
End of status report
==== Log checksum 3C6FB5DA7A24CCE5DBC3C1DD9CC3BC095B4D3E5ED662DBE7FB141C860BF6AA04 ====
-Доп. информация: Бокс содержит последний бетховенский симфонический цикл Караяна 1982-84 годов, записанный маэстро специально для нового цифрового формата audio CD, полный цикл фортепианных концертов, четыре из которых, с Алексисом Вайссенбергом, были изначально записаны лейблом EMI и специально лицензированы Deutsche Grammophon для этого издания, Скрипичный и Тройной концерты, Торжественную мессу, музыку к трагедии Гёте Эгмонт, полный набор оркестровых увертюр, а так же различные редкие оркестровые сочинения Бетховена, включая никогда ранее неиздававшуюся запись оркестровой версии Большой фуги. В иллюстрированном буклете множество эффектных фотографий Караяна за дирижёрским пультом - маэстро был бы доволен.-
[teatrix.ru].t10024.torrent 
Торрент: Зарегистрирован [ 2015-10-25 20:37 ] · A73FBDDAC62EA0BC3829F1D7B9C577C0E7EE54C9

Скачать .torrent

Скачать

21 KB

Статус: проверено
Скачан: 0 раз
Размер: 3.66 GB
terms.php



Быстрый ответ

Имя:

      
Для отправки сообщений необходимо включить JavaScript
Показать сообщения:    

Текущее время: 04-Дек 09:09

Часовой пояс: UTC + 3


Вы можете начинать темы
Вы можете отвечать на сообщения
Вы не можете редактировать свои сообщения
Вы не можете удалять свои сообщения
Вы не можете голосовать в опросах
Вы не можете прикреплять файлы к сообщениям
Вы можете скачивать файлы