(Classical) A tribute to Nadia Boulanger (Надя Буланже): Monteverdi - Madrigaux | Petit Concert (Faure, Debussy, Couperin, Lully) | Brahms - Liebesliederwalzer, Valses for two pianos (with Dinu Lipatti) | Francaix - Piano Concerto - 2004, FLAC (image


Статистика раздачи [Обновить пиров]
Размер:  446 MB   |    Зарегистрирован:  1 год 1 месяц   |    Скачан:  1 раз

Полного источника не было: 3 месяца 11 дней

 
   
 
 
 

[Цитировать]

A tribute to Nadia Boulanger
Жанр: Classical
Страна-производитель диска: EU
Год издания диска: 2004
Издатель (лейбл): Cascavelle
Номер по каталогу: VEL 3081
Дата записи: 1930-1949
Аудиокодек: FLAC
Тип рипа: image+.cue
Битрейт аудио: lossless
Источник: собственный рип
Наличие сканов в содержимом раздачи: да

CD1: Claudio Monteverdi - Madrigaux & Petit Concert (Faure, Debussy, Couperin, Lully, Francaix, etc.) (1:15'46")

Claudio Monteverdi - Madrigaux
01. Hor che'l Ciel e la Terra
02. Lasciatemi morire
03. Zefiro torna
04. Ardo
05. Ohime, dov'e il mio ben?
06. Chiome d'oro [2:32]
07. Il ballo dell' ingrate
08. Amor (lamento della ninfa)
09. Ecco mormorar l'onde
Ensemble Vocal et instrumental
Nadia Boulanger, piano & conductor

Petit Concert
10. Consilium
11. Gabriel Faure - Madrigal, Op.35
12. Guillaume Costeley - Las je n'irais plus jouer au bois
13. Claude Debussy - Dieu! qu'il la fait bon regarder!
14. Lili Boulanger - Pie Jesu
15. Leo Preger - Cantique de St Jean de la Croix
16. Anonyme du XII eme siecle (manuscript de Montpellier) - S'on me regarde
17. Francois Couperin - Epitaphe du paresseux
18. Marcelle de Manziarly - L'Oiseau blesse
19. Francois Couperin - Musette
20. Claudin de Sermisy - Amours partez...
21. Anonyme (troubadours du XIII eme siecle) - A pri ai qu'en chantant plour...
22. Anonyme - Le lay des amants
23. Jean-Baptiste Lully - Trio d'Amadis
24. Nicolas de la Grotte - Quand ce beau printemps
Jean Francaix - Trois epigrammes
25. A une demoiselle malade
26. Levez ces couvre-chefs
27. Belaud mon petit chat gris
Quator Vocal
Nadia Boulanger, piano & conductor

CD2: Brahms - Liebesliederwalzer, Valses for two pianos, Francaix - Piano Concerto (1:08'24")

Johannes Brahms - Liebesliederwalzer, Op.52
01. Rede, Madchen, allzu liebes
02. Am Gesteine rauscht die Flut
03. O die Frauen, o die Frauen
04. Wie des Abends schone Rote
05. Die grune Hopfenranke
06. Ein kleiner, hubscher Vogel nahm den Flug
07. Wohl schon bewandt
08. Wenn so lind dein Auge mir
09. Am Donaustrande, da steht ein Haus
10. O wie sanft die Quelle sich
11. Nein es ist nicht auszugekommen
12. Schlosser auf, und mache Schlosser
13. Vogelein durchrauscht die Luft
14. Sieh, wie ist die Welle klar
15. Nachtigall sie singt so schon
16. Ein dunkeler Schacht ist Liebe
17. Nicht wandle, mein Licht, dort aussen
18. Es bebet das Gestrauche
19. Rede, Madchen, allzu liebes
Marie-Blanche de Polignac, vocal
Irene Kedroff, vocal
Paul Derenne, vocal
Doda Conrad, vocal
Dinu Lipatti & Nadia Boulanger, pianos

20. Johannes Brahms - Der Gang zum Liebchen, Op.31 No.3
Marie-Blanche de Polignac, vocal
Irene Kedroff, vocal
Hugues Cuenod, vocal
Doda Conrad, vocal
Nadia Boulanger, piano

21. Johannes Brahms - Die Schwestern, Op.60 No.1
Marie-Blanche de Polignac, vocal
Irene Kedroff, vocal
Nadia Boulanger, piano

22. Johannes Brahms - Klange, Op.66 No.2
Irene et Nathalie Kedroff, vocal
Nadia Boulanger, piano

23. Johannes Brahms - Die Meere, Op.22 No.3
Irene et Nathalie Kedroff, vocal
Nadia Boulanger, piano

Johannes Brahms - Valses pour deux pianos, Op.39
24. No.6
25. No.15
26. No.2
27. No.1
28. No.14
29. No.10
30. No.5
31. No.6
Dinu Lipatti & Nadia Boulanger, pianos
32. Franz Schubert - Mondenschein, Op.102, D. 875
Paul Derenne, vocal
Ensemble vocal
Nadia Boulanger, conductor

Jean Francaix - Concerto pour piano et orchestre
33. I. Allegro vivo
34. II. Andante
35. III. Scherzo vivo
36. IV. Finale - Allegro
Jean Francaix, piano
Orchestre Philharmonique de Paris
Nadia Boulanger, conductor

37. Lili Boulanger - Introduction et cortege
Yvonne Astruc, violin
Nadia Boulanger, piano

38. Lili Boulanger - Nocturne
Yvonne Astruc, violin
Nadia Boulanger, piano

-

Лог создания рипа - CD1

Exact Audio Copy V1.0 beta 1 from 15. November 2010
EAC extraction logfile from 22. October 2011, 22:36
Nadia Boulanger / A tribute to (CD1)
Used drive : Optiarc DVD RW AD-7203A Adapter: 4 ID: 1
Read mode : SecureUtilize accurate stream : YesDefeat audio cache : YesMake use of C2 pointers : No
Read offset correction : 48Overread into Lead-In and Lead-Out : NoFill up missing offset samples with silence : YesDelete leading and trailing silent blocks : NoNull samples used in CRC calculations : YesUsed interface : Native Win32 interface for Win NT & 2000
Used output format : User Defined EncoderSelected bitrate : 128 kBit/sQuality : HighAdd ID3 tag : NoCommand line compressor : C:\Program Files\FLAC\flac.exeAdditional command line options : -T "COMMENT=Ripped by GFox" -8 -V %s
TOC of the extracted CD
Track | Start | Length | Start sector | End sector --------------------------------------------------------- 1 | 0:00.00 | 5:56.04 | 0 | 26703 2 | 5:56.04 | 2:55.28 | 26704 | 39856 3 | 8:51.32 | 8:04.19 | 39857 | 76175 4 | 16:55.51 | 4:17.39 | 76176 | 95489 5 | 21:13.15 | 1:43.09 | 95490 | 103223 6 | 22:56.24 | 2:32.34 | 103224 | 114657 7 | 25:28.58 | 9:05.68 | 114658 | 155600 8 | 34:34.51 | 4:12.54 | 155601 | 174554 9 | 38:47.30 | 3:21.12 | 174555 | 189641 10 | 42:08.42 | 1:00.54 | 189642 | 194195 11 | 43:09.21 | 3:43.69 | 194196 | 210989 12 | 46:53.15 | 2:21.03 | 210990 | 221567 13 | 49:14.18 | 2:08.42 | 221568 | 231209 14 | 51:22.60 | 4:28.31 | 231210 | 251340 15 | 55:51.16 | 3:04.20 | 251341 | 265160 16 | 58:55.36 | 0:57.53 | 265161 | 269488 17 | 59:53.14 | 1:38.14 | 269489 | 276852 18 | 61:31.28 | 2:01.73 | 276853 | 286000 19 | 63:33.26 | 1:12.30 | 286001 | 291430 20 | 64:45.56 | 0:50.05 | 291431 | 295185 21 | 65:35.61 | 1:29.34 | 295186 | 301894 22 | 67:05.20 | 1:11.54 | 301895 | 307273 23 | 68:16.74 | 0:47.69 | 307274 | 310867 24 | 69:04.68 | 1:01.53 | 310868 | 315495 25 | 70:06.46 | 1:40.45 | 315496 | 323040 26 | 71:47.16 | 2:14.38 | 323041 | 333128 27 | 74:01.54 | 1:44.23 | 333129 | 340951
Range status and errors
Selected range
Filename D:\EAC\Nadia Boulanger - A tribute to (CD1).wav
Peak level 97.3 % Extraction speed 0.0 X Range quality 99.9 % Test CRC 121EBC99 Copy CRC 121EBC99 Copy OK
No errors occurred
AccurateRip summary
Track 1 not present in databaseTrack 2 not present in databaseTrack 3 not present in databaseTrack 4 not present in databaseTrack 5 not present in databaseTrack 6 not present in databaseTrack 7 not present in databaseTrack 8 not present in databaseTrack 9 not present in databaseTrack 10 not present in databaseTrack 11 not present in databaseTrack 12 not present in databaseTrack 13 not present in databaseTrack 14 not present in databaseTrack 15 not present in databaseTrack 16 not present in databaseTrack 17 not present in databaseTrack 18 not present in databaseTrack 19 not present in databaseTrack 20 not present in databaseTrack 21 not present in databaseTrack 22 not present in databaseTrack 23 not present in databaseTrack 24 not present in databaseTrack 25 not present in databaseTrack 26 not present in databaseTrack 27 not present in database
None of the tracks are present in the AccurateRip database
End of status report
==== Log checksum C9119D9B87FF8CFE2578715FA96C81707A8CCEF0EB8D91F6A9A4BF30ABC6F642 ====

Лог создания рипа - CD2

Exact Audio Copy V1.0 beta 1 from 15. November 2010
EAC extraction logfile from 23. October 2011, 0:36
Nadia Boulanger / A tribute to (CD2)
Used drive : Optiarc DVD RW AD-7203A Adapter: 4 ID: 1
Read mode : SecureUtilize accurate stream : YesDefeat audio cache : YesMake use of C2 pointers : No
Read offset correction : 48Overread into Lead-In and Lead-Out : NoFill up missing offset samples with silence : YesDelete leading and trailing silent blocks : NoNull samples used in CRC calculations : YesUsed interface : Native Win32 interface for Win NT & 2000
Used output format : User Defined EncoderSelected bitrate : 128 kBit/sQuality : HighAdd ID3 tag : NoCommand line compressor : C:\Program Files\FLAC\flac.exeAdditional command line options : -T "COMMENT=Ripped by GFox" -8 -V %s
TOC of the extracted CD
Track | Start | Length | Start sector | End sector --------------------------------------------------------- 1 | 0:00.00 | 1:02.01 | 0 | 4650 2 | 1:02.01 | 0:43.61 | 4651 | 7936 3 | 1:45.62 | 0:53.37 | 7937 | 11948 4 | 2:39.24 | 0:40.52 | 11949 | 15000 5 | 3:20.01 | 1:17.11 | 15001 | 20786 6 | 4:37.12 | 2:25.17 | 20787 | 31678 7 | 7:02.29 | 1:04.53 | 31679 | 36531 8 | 8:07.07 | 1:11.27 | 36532 | 41883 9 | 9:18.34 | 1:53.42 | 41884 | 50400 10 | 11:12.01 | 0:50.68 | 50401 | 54218 11 | 12:02.69 | 0:55.68 | 54219 | 58411 12 | 12:58.62 | 0:40.43 | 58412 | 61454 13 | 13:39.30 | 0:57.74 | 61455 | 65803 14 | 14:37.29 | 0:48.27 | 65804 | 69430 15 | 15:25.56 | 1:00.11 | 69431 | 73941 16 | 16:25.67 | 1:28.15 | 73942 | 80556 17 | 17:54.07 | 1:27.24 | 80557 | 87105 18 | 19:21.31 | 1:26.25 | 87106 | 93580 19 | 20:47.56 | 1:04.30 | 93581 | 98410 20 | 21:52.11 | 2:54.29 | 98411 | 111489 21 | 24:46.40 | 1:22.58 | 111490 | 117697 22 | 26:09.23 | 2:02.29 | 117698 | 126876 23 | 28:11.52 | 2:22.19 | 126877 | 137545 24 | 30:33.71 | 0:59.43 | 137546 | 142013 25 | 31:33.39 | 1:06.30 | 142014 | 146993 26 | 32:39.69 | 1:15.48 | 146994 | 152666 27 | 33:55.42 | 0:50.02 | 152667 | 156418 28 | 34:45.44 | 1:09.19 | 156419 | 161612 29 | 35:54.63 | 0:32.43 | 161613 | 164055 30 | 36:27.31 | 1:29.02 | 164056 | 170732 31 | 37:56.33 | 1:05.73 | 170733 | 175680 32 | 39:02.31 | 6:18.10 | 175681 | 204040 33 | 45:20.41 | 4:38.08 | 204041 | 224898 34 | 49:58.49 | 4:23.43 | 224899 | 244666 35 | 54:22.17 | 3:37.06 | 244667 | 260947 36 | 57:59.23 | 3:54.06 | 260948 | 278503 37 | 61:53.29 | 3:05.07 | 278504 | 292385 38 | 64:58.36 | 3:26.30 | 292386 | 307865
Range status and errors
Selected range
Filename D:\EAC\Nadia Boulanger - A tribute to (CD2).wav
Peak level 97.7 % Extraction speed 0.1 X Range quality 100.0 % Test CRC FEAA1389 Copy CRC FEAA1389 Copy OK
No errors occurred
AccurateRip summary
Track 1 not present in databaseTrack 2 not present in databaseTrack 3 not present in databaseTrack 4 not present in databaseTrack 5 not present in databaseTrack 6 not present in databaseTrack 7 not present in databaseTrack 8 not present in databaseTrack 9 not present in databaseTrack 10 not present in databaseTrack 11 not present in databaseTrack 12 not present in databaseTrack 13 not present in databaseTrack 14 not present in databaseTrack 15 not present in databaseTrack 16 not present in databaseTrack 17 not present in databaseTrack 18 not present in databaseTrack 19 not present in databaseTrack 20 not present in databaseTrack 21 not present in databaseTrack 22 not present in databaseTrack 23 not present in databaseTrack 24 not present in databaseTrack 25 not present in databaseTrack 26 not present in databaseTrack 27 not present in databaseTrack 28 not present in databaseTrack 29 not present in databaseTrack 30 not present in databaseTrack 31 not present in databaseTrack 32 not present in databaseTrack 33 not present in databaseTrack 34 not present in databaseTrack 35 not present in databaseTrack 36 not present in databaseTrack 37 not present in databaseTrack 38 not present in database
None of the tracks are present in the AccurateRip database
End of status report
==== Log checksum EAD7F1CC592B77F75AC15EF9DB1005E6CE46DA8420A595856D8CA25790DFD849 ====
-Доп. информация: Надя Буланже (1887-1979) - композитор и педагог, "бабушка всей классической музыки ХХ века", чьими учениками были Джордж Антейл и Джордж Гершвин, Аарон Копланд и Нед Рорем, Филип Гласс и Астор Пьяццола, Леонард Бернстайн и Даниэль Баренбойм. "Such scientific music!" – печально улыбалась на концертах своих учеников эта властная аристократка, генерал в юбке, дочь бежавшей во Францию русской княгини Раисы Мышецкой. Вся жизнь Нади Буланже прошла под печатью ранней смерти её младшей сестры Лили. Из-за неё она отказывается от сочинительства и целиком посвящает себя преподаванию.
Лили росла в музыкальной семье: отец - композитор, преподаватель вокала в Парижской консерватории, мать - певица. Она научилась читать ноты в шесть лет, раньше, чем буквы, а первые фортепианные уроки ей дал друг семьи Габриэль Форе. В 1909 поступила в Парижскую консерваторию. В 1913 стала первой женщиной, получившей Большую Римскую премию за кантату Фауст и Елена. Лили - автор инструментальных, вокальных и хоровых сочинений, духовной музыки, писала музыку на стихи Мюссе, Метерлинка, Леконт де Лиля, Ф.Жамма. Оставила незавершенной оперу Принцесса Мален (по одноименной драме Метерлинка). Умерла от туберкулёза в возрасте 25 лет.
На этих дисках Надя Буланже предстаёт перед нами как пианист и дирижёр камерных и больших сочинений. Вместе с ней в записи участвуют её ученик Дину Липатти и композитор Жан Франсе. Уровень исполнения с таким составом выше всяческих похвал, качество старинных записей в целом так же не оставляет желать лучшего.
-
[teatrix.ru].t10025.torrent 
Торрент: Зарегистрирован [ 2015-10-25 20:37 ] · F2B16E1B1F3A528A441D1D892F8E375E58D38042

Скачать .torrent

Скачать

18 KB

Статус: проверено
Скачан: 1 раз
Размер: 446 MB
terms.php



Быстрый ответ

Имя:

      
Для отправки сообщений необходимо включить JavaScript
Показать сообщения:    

Текущее время: 04-Дек 23:25

Часовой пояс: UTC + 3


Вы можете начинать темы
Вы можете отвечать на сообщения
Вы не можете редактировать свои сообщения
Вы не можете удалять свои сообщения
Вы не можете голосовать в опросах
Вы не можете прикреплять файлы к сообщениям
Вы можете скачивать файлы