(Classical, Orchestral) Александр Скрябин - Симфонии 1-3, Прометей, Поэма Экстаза, Фортепианный концерт (Владимир Ашкенази) / Alexender Scriabin - Complete Symphonies ect. (Deutsches Symphonie-Orchester Berlin, Ashkenazy) - 2003, FLAC


Статистика раздачи [Обновить пиров]
Размер:  902 MB   |    Зарегистрирован:  1 год 1 месяц   |    Скачан:  1 раз

Полного источника не было: 22 дня

 
   
 
 
 

[Цитировать]

Александр Скрябин - Complete Symphonies - Ashkenazy
Жанр: Classical, Orchestral
Страна-производитель диска: Germany
Год издания диска: 2003
Издатель (лейбл): Decca
Номер по каталогу: 473 971-2
Дата записи: 1990-1995
Аудиокодек: FLAC
Тип рипа: tracks+.cue
Битрейт аудио: lossless
Продолжительность: 68.51 + 69.27 + 70.12
Источник: собственный рип
Наличие сканов в содержимом раздачи: да
Исполнители: Peter Jablonski, piano
Brigitte Balleys, mezzo-soprano, Sergei Larin, tenor
Rundfunkchor Berlin, Gerd Müller-Lorenz
Deutsches Symphonie-Orchester Berlin, Vladimir Ashkenazy

CD1:Треклист:

01-06. Symphony No. 1 E-dur
07. Prometheus - The Poem of Fire, Op. 60
Total 68.52

Лог создания рипа:

Exact Audio Copy V0.99 prebeta 5 from 4. May 2009
EAC extraction logfile from 2. July 2011, 22:02
Alexander Scriabin / Complete Symphonies [disc 1]
Used drive : _NEC DVD_RW ND-3570A Adapter: 3 ID: 1
Read mode : Secure
Utilize accurate stream : Yes
Defeat audio cache : Yes
Make use of C2 pointers : No
Read offset correction : 48
Overread into Lead-In and Lead-Out : No
Fill up missing offset samples with silence : Yes
Delete leading and trailing silent blocks : No
Null samples used in CRC calculations : Yes
Used interface : Installed external ASPI interface
Gap handling : Appended to previous track
Used output format : User Defined Encoder
Selected bitrate : 128 kBit/s
Quality : High
Add ID3 tag : No
Command line compressor : C:\Program Files\Exact Audio Copy\Flac\flac.exe
Additional command line options : -8 -V -T "ARTIST=%a" -T "TITLE=%t" -T "ALBUM=%g" -T "DATE=%y" -T "TRACKNUMBER=%n" -T "GENRE=%m" -T "COMMENT=EAC FLAC -8" %s
TOC of the extracted CD
Track | Start | Length | Start sector | End sector
---------------------------------------------------------
1 | 0:00.32 | 7:11.63 | 32 | 32419
2 | 7:12.20 | 8:14.62 | 32420 | 69531
3 | 15:27.07 | 8:14.38 | 69532 | 106619
4 | 23:41.45 | 3:21.62 | 106620 | 121756
5 | 27:03.32 | 6:45.13 | 121757 | 152144
6 | 33:48.45 | 13:23.30 | 152145 | 212399
7 | 47:12.00 | 21:42.07 | 212400 | 310056
Track 1
Filename F:\Exact Audio Copy\Scriabin - Complete Symphonies - Ashkenazy\01 - Symphony No.1 - Lento.wav
Pre-gap length 0:00:02.42
Peak level 16.0 %
Track quality 100.0 %
Test CRC FEE088D1
Copy CRC FEE088D1
Accurately ripped (confidence 2) [4B1267B0]
Copy OK
Track 2
Filename F:\Exact Audio Copy\Scriabin - Complete Symphonies - Ashkenazy\02 - Symphony No.1 - Allegro dramatico.wav
Pre-gap length 0:00:01.50
Peak level 60.0 %
Track quality 100.0 %
Test CRC 8A2DA3DB
Copy CRC 8A2DA3DB
Accurately ripped (confidence 2) [5F40958F]
Copy OK
Track 3
Filename F:\Exact Audio Copy\Scriabin - Complete Symphonies - Ashkenazy\03 - Symphony No.1 - Lento.wav
Pre-gap length 0:00:03.49
Peak level 38.3 %
Track quality 100.0 %
Test CRC 94B1CD6F
Copy CRC 94B1CD6F
Accurately ripped (confidence 2) [7B296730]
Copy OK
Track 4
Filename F:\Exact Audio Copy\Scriabin - Complete Symphonies - Ashkenazy\04 - Symphony No.1 - Vivace.wav
Pre-gap length 0:00:01.66
Peak level 19.1 %
Track quality 100.0 %
Test CRC 9E830EF3
Copy CRC 9E830EF3
Accurately ripped (confidence 2) [64794EA8]
Copy OK
Track 5
Filename F:\Exact Audio Copy\Scriabin - Complete Symphonies - Ashkenazy\05 - Symphony No.1 - Allegro.wav
Pre-gap length 0:00:02.33
Peak level 67.2 %
Track quality 100.0 %
Test CRC 21DE0C94
Copy CRC 21DE0C94
Accurately ripped (confidence 2) [D6D0C05B]
Copy OK
Track 6
Filename F:\Exact Audio Copy\Scriabin - Complete Symphonies - Ashkenazy\06 - Symphony No.1 - Andante.wav
Pre-gap length 0:00:01.66
Peak level 93.3 %
Track quality 100.0 %
Test CRC 92311FF0
Copy CRC 92311FF0
Accurately ripped (confidence 2) [2C2EA93F]
Copy OK
Track 7
Filename F:\Exact Audio Copy\Scriabin - Complete Symphonies - Ashkenazy\07 - Prometheus - The Poem of Fire.wav
Pre-gap length 0:00:13.24
Peak level 100.0 %
Track quality 99.9 %
Test CRC 72197B29
Copy CRC 72197B29
Accurately ripped (confidence 2) [660DE5F5]
Copy OK
All tracks accurately ripped
No errors occurred
End of status report

Содержание индексной карты (.CUE):

REM GENRE Classical
REM DATE 2003
REM DISCID 4F102607
REM COMMENT "ExactAudioCopy v0.99pb5"
PERFORMER "Alexander Scriabin"
TITLE "Complete Symphonies [disc 1]"
FILE "01 - Symphony No.1 - Lento.wav" WAVE
TRACK 01 AUDIO
TITLE "Symphony No.1 - Lento"
PERFORMER "Alexander Scriabin"
PREGAP 00:00:32
INDEX 01 00:00:00
TRACK 02 AUDIO
TITLE "Symphony No.1 - Allegro dramatico"
PERFORMER "Alexander Scriabin"
INDEX 00 07:10:25
FILE "02 - Symphony No.1 - Allegro dramatico.wav" WAVE
INDEX 01 00:00:00
TRACK 03 AUDIO
TITLE "Symphony No.1 - Lento"
PERFORMER "Alexander Scriabin"
INDEX 00 08:11:25
FILE "03 - Symphony No.1 - Lento.wav" WAVE
INDEX 01 00:00:00
TRACK 04 AUDIO
TITLE "Symphony No.1 - Vivace"
PERFORMER "Alexander Scriabin"
INDEX 00 08:12:63
FILE "04 - Symphony No.1 - Vivace.wav" WAVE
INDEX 01 00:00:00
TRACK 05 AUDIO
TITLE "Symphony No.1 - Allegro"
PERFORMER "Alexander Scriabin"
INDEX 00 03:19:37
FILE "05 - Symphony No.1 - Allegro.wav" WAVE
INDEX 01 00:00:00
TRACK 06 AUDIO
TITLE "Symphony No.1 - Andante"
PERFORMER "Alexander Scriabin"
INDEX 00 06:43:38
FILE "06 - Symphony No.1 - Andante.wav" WAVE
INDEX 01 00:00:00
TRACK 07 AUDIO
TITLE "Prometheus - The Poem of Fire"
PERFORMER "Alexander Scriabin"
INDEX 00 13:10:12
FILE "07 - Prometheus - The Poem of Fire.wav" WAVE
INDEX 01 00:00:00

CD2:Треклист:

01-05. Symphony No. 2 c-Moll, Op. 29
06-08. Piano Concerto fis-Moll, Op. 20
Total 69.27

Лог создания рипа:

Exact Audio Copy V0.99 prebeta 5 from 4. May 2009
EAC extraction logfile from 2. July 2011, 22:25
Vladminr Ashkenazy, Peter Jablonski, Deutsches Symphonie - Orchester Berlin / Scriabin Symphony No 2, Piano Concerto
Used drive : _NEC DVD_RW ND-3570A Adapter: 3 ID: 1
Read mode : Secure
Utilize accurate stream : Yes
Defeat audio cache : Yes
Make use of C2 pointers : No
Read offset correction : 48
Overread into Lead-In and Lead-Out : No
Fill up missing offset samples with silence : Yes
Delete leading and trailing silent blocks : No
Null samples used in CRC calculations : Yes
Used interface : Installed external ASPI interface
Gap handling : Appended to previous track
Used output format : User Defined Encoder
Selected bitrate : 128 kBit/s
Quality : High
Add ID3 tag : No
Command line compressor : C:\Program Files\Exact Audio Copy\Flac\flac.exe
Additional command line options : -8 -V -T "ARTIST=%a" -T "TITLE=%t" -T "ALBUM=%g" -T "DATE=%y" -T "TRACKNUMBER=%n" -T "GENRE=%m" -T "COMMENT=EAC FLAC -8" %s
TOC of the extracted CD
Track | Start | Length | Start sector | End sector
---------------------------------------------------------
1 | 0:00.33 | 7:21.07 | 33 | 33114
2 | 7:21.40 | 8:56.68 | 33115 | 73382
3 | 16:18.33 | 11:53.45 | 73383 | 126902
4 | 28:12.03 | 5:35.72 | 126903 | 152099
5 | 33:48.00 | 7:54.20 | 152100 | 187669
6 | 41:42.20 | 7:54.45 | 187670 | 223264
7 | 49:36.65 | 8:22.28 | 223265 | 260942
8 | 57:59.18 | 11:30.52 | 260943 | 312744
Track 1
Filename F:\Exact Audio Copy\Scriabin - Complete Symphonies - Ashkenazy\CD2\01 - Symphony No. 2 in C Minor, op 29 - I Andante.wav
Pre-gap length 0:00:02.44
Peak level 64.7 %
Track quality 100.0 %
Test CRC C4B473E5
Copy CRC C4B473E5
Accurately ripped (confidence 9) [B39E9A33]
Copy OK
Track 2
Filename F:\Exact Audio Copy\Scriabin - Complete Symphonies - Ashkenazy\CD2\02 - Symphony No. 2 in C Minor, op 29 - II Allegro.wav
Peak level 92.1 %
Track quality 100.0 %
Test CRC EFC8A5F4
Copy CRC EFC8A5F4
Accurately ripped (confidence 9) [0DCA46E8]
Copy OK
Track 3
Filename F:\Exact Audio Copy\Scriabin - Complete Symphonies - Ashkenazy\CD2\03 - Symphony No. 2 in C Minor, op 29 - III Andante.wav
Pre-gap length 0:00:04.30
Peak level 67.4 %
Track quality 99.9 %
Test CRC 921E6C9F
Copy CRC 921E6C9F
Accurately ripped (confidence 9) [D6482BDC]
Copy OK
Track 4
Filename F:\Exact Audio Copy\Scriabin - Complete Symphonies - Ashkenazy\CD2\04 - Symphony No. 2 in C Minor, op 29 - IV Tempestoso.wav
Pre-gap length 0:00:03.93
Peak level 100.0 %
Track quality 100.0 %
Test CRC 76687D9B
Copy CRC 76687D9B
Accurately ripped (confidence 9) [2FA1B34D]
Copy OK
Track 5
Filename F:\Exact Audio Copy\Scriabin - Complete Symphonies - Ashkenazy\CD2\05 - Symphony No. 2 in C Minor, op 29 - V Maestoso.wav
Peak level 85.8 %
Track quality 100.0 %
Test CRC 491B20EE
Copy CRC 491B20EE
Accurately ripped (confidence 9) [1AD651DD]
Copy OK
Track 6
Filename F:\Exact Audio Copy\Scriabin - Complete Symphonies - Ashkenazy\CD2\06 - Piano Concerto in F minor, op 20 - I Allegro.wav
Pre-gap length 0:00:09.80
Peak level 96.6 %
Track quality 100.0 %
Test CRC C4AD255E
Copy CRC C4AD255E
Accurately ripped (confidence 9) [3FA21B56]
Copy OK
Track 7
Filename F:\Exact Audio Copy\Scriabin - Complete Symphonies - Ashkenazy\CD2\07 - Piano Concerto in F minor, op 20 - II Andante.wav
Pre-gap length 0:00:05.06
Peak level 44.2 %
Track quality 100.0 %
Test CRC 0474B916
Copy CRC 0474B916
Accurately ripped (confidence 9) [E9655902]
Copy OK
Track 8
Filename F:\Exact Audio Copy\Scriabin - Complete Symphonies - Ashkenazy\CD2\08 - Piano Concerto in F minor, op 20 - III Allegro Moderato.wav
Peak level 95.5 %
Track quality 99.9 %
Test CRC 831AF211
Copy CRC 831AF211
Accurately ripped (confidence 9) [7ABF30A0]
Copy OK
All tracks accurately ripped
No errors occurred
End of status report

Содержание индексной карты (.CUE):

REM GENRE Classical
REM DATE 2003
REM DISCID 6C104908
REM COMMENT "ExactAudioCopy v0.99pb5"
PERFORMER "Vladminr Ashkenazy, Peter Jablonski, Deutsches Symphonie - Orchester Berlin"
TITLE "Scriabin Symphony No 2, Piano Concerto"
FILE "01 - Symphony No. 2 in C Minor, op 29 - I Andante.wav" WAVE
TRACK 01 AUDIO
TITLE "Symphony No. 2 in C Minor, op 29 - I Andante"
PERFORMER "Vladminr Ashkenazy, Peter Jablonski, Deutsches Symphonie - Orchester Berlin"
PREGAP 00:00:33
INDEX 01 00:00:00
FILE "02 - Symphony No. 2 in C Minor, op 29 - II Allegro.wav" WAVE
TRACK 02 AUDIO
TITLE "Symphony No. 2 in C Minor, op 29 - II Allegro"
PERFORMER "Vladminr Ashkenazy, Peter Jablonski, Deutsches Symphonie - Orchester Berlin"
INDEX 01 00:00:00
TRACK 03 AUDIO
TITLE "Symphony No. 2 in C Minor, op 29 - III Andante"
PERFORMER "Vladminr Ashkenazy, Peter Jablonski, Deutsches Symphonie - Orchester Berlin"
INDEX 00 08:52:45
FILE "03 - Symphony No. 2 in C Minor, op 29 - III Andante.wav" WAVE
INDEX 01 00:00:00
TRACK 04 AUDIO
TITLE "Symphony No. 2 in C Minor, op 29 - IV Tempestoso"
PERFORMER "Vladminr Ashkenazy, Peter Jablonski, Deutsches Symphonie - Orchester Berlin"
INDEX 00 11:49:50
FILE "04 - Symphony No. 2 in C Minor, op 29 - IV Tempestoso.wav" WAVE
INDEX 01 00:00:00
FILE "05 - Symphony No. 2 in C Minor, op 29 - V Maestoso.wav" WAVE
TRACK 05 AUDIO
TITLE "Symphony No. 2 in C Minor, op 29 - V Maestoso"
PERFORMER "Vladminr Ashkenazy, Peter Jablonski, Deutsches Symphonie - Orchester Berlin"
INDEX 01 00:00:00
TRACK 06 AUDIO
TITLE "Piano Concerto in F minor, op 20 - I Allegro"
PERFORMER "Vladminr Ashkenazy, Peter Jablonski, Deutsches Symphonie - Orchester Berlin"
INDEX 00 07:44:35
FILE "06 - Piano Concerto in F minor, op 20 - I Allegro.wav" WAVE
INDEX 01 00:00:00
TRACK 07 AUDIO
TITLE "Piano Concerto in F minor, op 20 - II Andante"
PERFORMER "Vladminr Ashkenazy, Peter Jablonski, Deutsches Symphonie - Orchester Berlin"
INDEX 00 07:49:40
FILE "07 - Piano Concerto in F minor, op 20 - II Andante.wav" WAVE
INDEX 01 00:00:00
FILE "08 - Piano Concerto in F minor, op 20 - III Allegro Moderato.wav" WAVE
TRACK 08 AUDIO
TITLE "Piano Concerto in F minor, op 20 - III Allegro Moderato"
PERFORMER "Vladminr Ashkenazy, Peter Jablonski, Deutsches Symphonie - Orchester Berlin"
INDEX 01 00:00:00

CD3:Треклист:

01. Reverie, Op. 24
02-05. Symphony No. 3, Op. 43 'Le Divin Poeme'
06. Le poeme de l'extase, Op. 54
Total 70.12

Лог создания рипа:

Exact Audio Copy V0.99 prebeta 5 from 4. May 2009
EAC extraction logfile from 2. July 2011, 23:08
Vl.Ashkenazy - Radio-Symphonie-Orchester-Berlin / Scriabin - Reverie - Symphony no 3 - Le poeme de l'extase
Used drive : _NEC DVD_RW ND-3570A Adapter: 3 ID: 1
Read mode : Secure
Utilize accurate stream : Yes
Defeat audio cache : Yes
Make use of C2 pointers : No
Read offset correction : 48
Overread into Lead-In and Lead-Out : No
Fill up missing offset samples with silence : Yes
Delete leading and trailing silent blocks : No
Null samples used in CRC calculations : Yes
Used interface : Installed external ASPI interface
Gap handling : Appended to previous track
Used output format : User Defined Encoder
Selected bitrate : 128 kBit/s
Quality : High
Add ID3 tag : No
Command line compressor : C:\Program Files\Exact Audio Copy\Flac\flac.exe
Additional command line options : -8 -V -T "ARTIST=%a" -T "TITLE=%t" -T "ALBUM=%g" -T "DATE=%y" -T "TRACKNUMBER=%n" -T "GENRE=%m" -T "COMMENT=EAC FLAC -8" %s
TOC of the extracted CD
Track | Start | Length | Start sector | End sector
---------------------------------------------------------
1 | 0:00.33 | 4:16.15 | 33 | 19247
2 | 4:16.48 | 1:08.15 | 19248 | 24362
3 | 5:24.63 | 23:26.45 | 24363 | 129857
4 | 28:51.33 | 12:21.42 | 129858 | 185474
5 | 41:13.00 | 9:52.63 | 185475 | 229937
6 | 51:05.63 | 19:08.72 | 229938 | 316109
Track 1
Filename F:\Exact Audio Copy\Scriabin - Complete Symphonies - Ashkenazy\CD3\01 - Reverie, op. 24.wav
Pre-gap length 0:00:02.44
Peak level 93.3 %
Track quality 100.0 %
Test CRC 743B3612
Copy CRC 743B3612
Accurately ripped (confidence 7) [0B7630AA]
Copy OK
Track 2
Filename F:\Exact Audio Copy\Scriabin - Complete Symphonies - Ashkenazy\CD3\02 - Symphony No.3, op 43 'Le divin poeme' - introduction.wav
Pre-gap length 0:00:06.60
Peak level 88.5 %
Track quality 100.0 %
Test CRC B05B0699
Copy CRC B05B0699
Accurately ripped (confidence 7) [A7B3DD49]
Copy OK
Track 3
Filename F:\Exact Audio Copy\Scriabin - Complete Symphonies - Ashkenazy\CD3\03 - Symphony No.3, op 43 'Le divin poeme' - Luttes.wav
Peak level 94.6 %
Track quality 99.9 %
Test CRC 74163BFF
Copy CRC 74163BFF
Accurately ripped (confidence 7) [8FA3D35D]
Copy OK
Track 4
Filename F:\Exact Audio Copy\Scriabin - Complete Symphonies - Ashkenazy\CD3\04 - Symphony No.3, op 43 'Le divin poeme' - Voluptes.wav
Pre-gap length 0:00:01.06
Peak level 93.5 %
Track quality 100.0 %
Test CRC BAC42B29
Copy CRC BAC42B29
Accurately ripped (confidence 6) [CDF411FE]
Copy OK
Track 5
Filename F:\Exact Audio Copy\Scriabin - Complete Symphonies - Ashkenazy\CD3\05 - Symphony No.3, op 43 'Le divin poeme' - Jeu divin.wav
Peak level 93.5 %
Track quality 100.0 %
Test CRC 965084B2
Copy CRC 965084B2
Accurately ripped (confidence 6) [0A4446BE]
Copy OK
Track 6
Filename F:\Exact Audio Copy\Scriabin - Complete Symphonies - Ashkenazy\CD3\06 - Le poeme de l'extase, op. 54.wav
Pre-gap length 0:00:05.30
Peak level 92.5 %
Track quality 99.5 %
Test CRC 800F36F9
Copy CRC 800F36F9
Accurately ripped (confidence 6) [5336DDE9]
Copy OK
All tracks accurately ripped
No errors occurred
End of status report

Содержание индексной карты (.CUE):

REM GENRE Classical
REM DATE 2003
REM DISCID 4C107606
REM COMMENT "ExactAudioCopy v0.99pb5"
PERFORMER "Vl.Ashkenazy - Radio-Symphonie-Orchester-Berlin"
TITLE "Scriabin - Reverie - Symphony no 3 - Le poeme de l'extase"
FILE "01 - Reverie, op. 24.wav" WAVE
TRACK 01 AUDIO
TITLE "Reverie, op. 24"
PERFORMER "Vl.Ashkenazy - Radio-Symphonie-Orchester-Berlin"
PREGAP 00:00:33
INDEX 01 00:00:00
TRACK 02 AUDIO
TITLE "Symphony No.3, op 43 'Le divin poeme' - introduction"
PERFORMER "Vl.Ashkenazy - Radio-Symphonie-Orchester-Berlin"
INDEX 00 04:09:45
FILE "02 - Symphony No.3, op 43 'Le divin poeme' - introduction.wav" WAVE
INDEX 01 00:00:00
FILE "03 - Symphony No.3, op 43 'Le divin poeme' - Luttes.wav" WAVE
TRACK 03 AUDIO
TITLE "Symphony No.3, op 43 'Le divin poeme' - Luttes"
PERFORMER "Vl.Ashkenazy - Radio-Symphonie-Orchester-Berlin"
INDEX 01 00:00:00
TRACK 04 AUDIO
TITLE "Symphony No.3, op 43 'Le divin poeme' - Voluptes"
PERFORMER "Vl.Ashkenazy - Radio-Symphonie-Orchester-Berlin"
INDEX 00 23:25:40
FILE "04 - Symphony No.3, op 43 'Le divin poeme' - Voluptes.wav" WAVE
INDEX 01 00:00:00
FILE "05 - Symphony No.3, op 43 'Le divin poeme' - Jeu divin.wav" WAVE
TRACK 05 AUDIO
TITLE "Symphony No.3, op 43 'Le divin poeme' - Jeu divin"
PERFORMER "Vl.Ashkenazy - Radio-Symphonie-Orchester-Berlin"
INDEX 01 00:00:00
TRACK 06 AUDIO
TITLE "Le poeme de l'extase, op. 54"
PERFORMER "Vl.Ashkenazy - Radio-Symphonie-Orchester-Berlin"
INDEX 00 09:47:40
FILE "06 - Le poeme de l'extase, op. 54.wav" WAVE
INDEX 01 00:00:00
[teatrix.ru].t10026.torrent 
Торрент: Зарегистрирован [ 2015-10-25 20:37 ] · 85A286FDDB8615A23DC104851F1323EEF5F72069

Скачать .torrent

Скачать

21 KB

Статус: проверено
Скачан: 1 раз
Размер: 902 MB
terms.php



Быстрый ответ

Имя:

      
Для отправки сообщений необходимо включить JavaScript
Показать сообщения:    

Текущее время: 05-Дек 11:33

Часовой пояс: UTC + 3


Вы можете начинать темы
Вы можете отвечать на сообщения
Вы не можете редактировать свои сообщения
Вы не можете удалять свои сообщения
Вы не можете голосовать в опросах
Вы не можете прикреплять файлы к сообщениям
Вы можете скачивать файлы