(Classical/Piano) Cziffra: Les Rendez-vous de Senlis - Chopin; Liszt; Schubert; Brahms; Saint-Saens; Bach/Busoni; F. Couperin; Rameau; Lully et Daquin (1980-1986) - 2003, FLAC (tracks+.cue) lossless


Статистика раздачи [Обновить пиров]
Размер:  891 MB   |    Зарегистрирован:  1 год 1 месяц   |    Скачан:  0 раз

Полного источника не было: Никогда

 
   
 
 
 

[Цитировать]

Cziffra: Les Rendez-vous de Senlis (1980-1986)
Жанр: Classical/Piano
Страна-производитель диска: France
Год издания диска: 2003
Издатель (лейбл): EMI Classics France
Номер по каталогу: EMI 5 85340 2
Дата записи: 1980-1986
Аудиокодек: FLAC
Тип рипа: tracks+.cue
Битрейт аудио: lossless
Продолжительность: 4 CDs
Источник: скачано с
сайт-источник/ник/другое: Demonoid, релизер valvefolly
Наличие сканов в содержимом раздачи: нет
Треклист:
Oeuvres de Chopin; Liszt; Schubert; Brahms; Saint-Saens; Bach/Busoni; F. Couperin; Rameau; Lully et Daquin

Disque : 1

François Couperin
[1] Les Folies Françaises Ou Les Dominos
Jean-Philippe Rameau
[2] Le Rappel Des Oiseaux
[3] Tambourin
François Couperin
[4] Les Barricades Mystérieuses
[5] L'Anguille
[6] La Bandoline
[7] Le Tic-Toc-Choc Ou Les Maillotins
Jean-Philippe Rameau
[8] L'Egyptienne
[9] La Poule
François Couperin
[10] Les Papillons
[11] Les Moissonneurs
Jean-Baptiste Lully
[12] Gavotte En Rondeau
Louis-Claude Daquin
[13] L'Hirondelle
Jean-Philippe Rameau
[14] Dardanus : Rigaudon
François Couperin
[15] Les Petis Moulins A Vent
Louis-Claude Daquin
[16] Louis-Claude Daquin - Le Coucou
Иоганн Себастьян Бах
Prélude & Fugue, Bwv532
[17] Prélude
[18] Fugue

Disque : 2

Frederic Chopin
Nocturnes, Opus 9
[1] En Si Bémol Mineur, N°1
[2] En Mi Bémol Majeur, N°2
[3] Scherzo N°2 En Si Bémol Mineur, Opus 31
Etudes, Opus 10
[4] En Mi Majeur, N°3
[5] En Ut Dièse Mineur, N°4
[6] En Sol Bémol Majeur, N°5
[7] En La Bémol Majeur, N°10
[8] En Ut Mineur, N°12
[9] Introduciton & Variations Brillantes En Si Bémol Majeur, Opus 12
Franz Liszt
[10] Polonaise N°2 En Mi Majeur
[11] Etude D'Exécution Transcendante N°10 En Fa Mineur
Camille Saint-Saens
[12] Etude En Forme De Valse En Ré Bémol Majeur, Opus 52 N°6

Disque : 3

Franz Liszt
[1] Mephisto-Valse
[2] Jeux D'Eau A La Villa D'Este
[3] Valse-Impromptu En La Bémol Majeur
[4] Valse-Caprice N°6
[5] Saint-François De Paule Marchant Sur Les Flots
[6] Chasse-Neige
[7] Ricordanza
[8] Gaudeamus Igitur

Disque : 4

Franz Schubert
Impromptus
[1] En La Bémol Majeur, D899
[2] En Fa Mineur, D935
Johannes Brahms
Danses Hongroises
[3] N° 1 En Sol Mineur
[4] N°2 En Ré Mineur
[5] N°3 En Fa Majeur
[6] N°4 En Fa Dièse Mineur
[7] N°5 En Fa Dièse Mineur
[8] N°6 En Ré Bémol Majeur
[9] N°8 En La Mineur
[10] N°9 En Mi Mineur
[11] N°10 En Mi Majeur
[12] N°12 En Ré Mineur
[13] N°13 En Ré Majeur
[14] N°16 En Fa Mineur
[15] N°17 En Fa Dièse Mineur
[16] N°19 En Si Mineur
[17] N°21 En Mi Mineur
Исполнители:
Georges Cziffra, piano

Лог создания рипаGeorges Cziffra - Les rendez-vous de Senlis (Disc 1).log

Exact Audio Copy V1.0 beta 1 from 15. November 2010
EAC extraction logfile from 1. January 2011, 14:35
Georges Cziffra / Les rendez-vous de Senlis (Disc 1)
Used drive : PLDS DVD+-RW DU-8A2S Adapter: 0 ID: 1
Read mode : SecureUtilize accurate stream : YesDefeat audio cache : NoMake use of C2 pointers : Yes
Read offset correction : 6Overread into Lead-In and Lead-Out : NoFill up missing offset samples with silence : YesDelete leading and trailing silent blocks : NoNull samples used in CRC calculations : YesUsed interface : Native Win32 interface for Win NT & 2000Gap handling : Appended to previous track
Used output format : User Defined EncoderSelected bitrate : 1024 kBit/sQuality : HighAdd ID3 tag : YesCommand line compressor : c:\Program Files (x86)\FLAC\flac.exeAdditional command line options : -5 -V -T "ARTIST=%a" -T "TITLE=%t" -T "ALBUM=%g" -T "DATE=%y" -T "TRACKNUMBER=%n" -T "GENRE=%m" -T "COMMENT=%e" %s -o %d
TOC of the extracted CD
Track | Start | Length | Start sector | End sector --------------------------------------------------------- 1 | 0:00.00 | 7:19.57 | 0 | 32981 2 | 7:19.57 | 2:57.29 | 32982 | 46285 3 | 10:17.11 | 2:36.55 | 46286 | 58040 4 | 12:53.66 | 2:33.35 | 58041 | 69550 5 | 15:27.26 | 3:06.61 | 69551 | 83561 6 | 18:34.12 | 2:41.52 | 83562 | 95688 7 | 21:15.64 | 2:51.33 | 95689 | 108546 8 | 24:07.22 | 3:27.20 | 108547 | 124091 9 | 27:34.42 | 3:03.16 | 124092 | 137832 10 | 30:37.58 | 1:32.48 | 137833 | 144780 11 | 32:10.31 | 3:38.64 | 144781 | 161194 12 | 35:49.20 | 4:00.39 | 161195 | 179233 13 | 39:49.59 | 2:55.48 | 179234 | 192406 14 | 42:45.32 | 3:03.35 | 192407 | 206166 15 | 45:48.67 | 1:47.19 | 206167 | 214210 16 | 47:36.11 | 2:35.70 | 214211 | 225905 17 | 50:12.06 | 4:48.53 | 225906 | 247558 18 | 55:00.59 | 6:11.49 | 247559 | 275432
Track 1
Filename C:\1-DATA\EAC Temp\Georges Cziffra\Les rendez-vous de Senlis (Disc 1)\01 les folies francaises ou les dominos.wav
Pre-gap length 0:00:02.00
Peak level 100.0 % Extraction speed 9.2 X Track quality 100.0 % Copy CRC 79810F49 Track not present in AccurateRip database Copy OK
Track 2
Filename C:\1-DATA\EAC Temp\Georges Cziffra\Les rendez-vous de Senlis (Disc 1)\02 le rappel des oiseaux.wav
Peak level 36.2 % Extraction speed 10.4 X Track quality 100.0 % Copy CRC B474EF2A Track not present in AccurateRip database Copy OK
Track 3
Filename C:\1-DATA\EAC Temp\Georges Cziffra\Les rendez-vous de Senlis (Disc 1)\03 Tambourin.wav
Peak level 56.8 % Extraction speed 10.7 X Track quality 100.0 % Copy CRC DF39F1B2 Track not present in AccurateRip database Copy OK
Track 4
Filename C:\1-DATA\EAC Temp\Georges Cziffra\Les rendez-vous de Senlis (Disc 1)\04 Les barricades musterieuses.wav
Peak level 50.6 % Extraction speed 11.4 X Track quality 100.0 % Copy CRC 6FA7BE63 Track not present in AccurateRip database Copy OK
Track 5
Filename C:\1-DATA\EAC Temp\Georges Cziffra\Les rendez-vous de Senlis (Disc 1)\05 L'anguille.wav
Peak level 99.8 % Extraction speed 11.9 X Track quality 100.0 % Copy CRC 2D8DB721 Track not present in AccurateRip database Copy OK
Track 6
Filename C:\1-DATA\EAC Temp\Georges Cziffra\Les rendez-vous de Senlis (Disc 1)\06 La Bandoline.wav
Peak level 43.4 % Extraction speed 12.3 X Track quality 100.0 % Copy CRC 36C7D8DD Track not present in AccurateRip database Copy OK
Track 7
Filename C:\1-DATA\EAC Temp\Georges Cziffra\Les rendez-vous de Senlis (Disc 1)\07 Le tic-toc-choc ou les maillotins.wav
Peak level 86.5 % Extraction speed 12.3 X Track quality 100.0 % Copy CRC B9D7787F Track not present in AccurateRip database Copy OK
Track 8
Filename C:\1-DATA\EAC Temp\Georges Cziffra\Les rendez-vous de Senlis (Disc 1)\08 L'Egyptienne.wav
Peak level 96.6 % Extraction speed 13.3 X Track quality 100.0 % Copy CRC B47B4BC9 Track not present in AccurateRip database Copy OK
Track 9
Filename C:\1-DATA\EAC Temp\Georges Cziffra\Les rendez-vous de Senlis (Disc 1)\09 La Poule.wav
Peak level 90.5 % Extraction speed 13.4 X Track quality 100.0 % Copy CRC D4EEE147 Track not present in AccurateRip database Copy OK
Track 10
Filename C:\1-DATA\EAC Temp\Georges Cziffra\Les rendez-vous de Senlis (Disc 1)\10 Les papillons.wav
Peak level 73.8 % Extraction speed 13.3 X Track quality 100.0 % Copy CRC 33B8D537 Track not present in AccurateRip database Copy OK
Track 11
Filename C:\1-DATA\EAC Temp\Georges Cziffra\Les rendez-vous de Senlis (Disc 1)\11 Les Moisonneurs.wav
Peak level 76.3 % Extraction speed 14.2 X Track quality 100.0 % Copy CRC C4B4E737 Track not present in AccurateRip database Copy OK
Track 12
Filename C:\1-DATA\EAC Temp\Georges Cziffra\Les rendez-vous de Senlis (Disc 1)\12 Gavotte en rondeau.wav
Peak level 44.5 % Extraction speed 14.9 X Track quality 100.0 % Copy CRC 9074484B Track not present in AccurateRip database Copy OK
Track 13
Filename C:\1-DATA\EAC Temp\Georges Cziffra\Les rendez-vous de Senlis (Disc 1)\13 L'hirondelle.wav
Peak level 54.3 % Extraction speed 15.5 X Track quality 100.0 % Copy CRC 89745151 Track not present in AccurateRip database Copy OK
Track 14
Filename C:\1-DATA\EAC Temp\Georges Cziffra\Les rendez-vous de Senlis (Disc 1)\14 Rigaudon.wav
Peak level 81.5 % Extraction speed 15.5 X Track quality 100.0 % Copy CRC B39B9127 Track not present in AccurateRip database Copy OK
Track 15
Filename C:\1-DATA\EAC Temp\Georges Cziffra\Les rendez-vous de Senlis (Disc 1)\15 Les petits moulins a vent.wav
Peak level 70.1 % Extraction speed 15.3 X Track quality 100.0 % Copy CRC EE2A8159 Track not present in AccurateRip database Copy OK
Track 16
Filename C:\1-DATA\EAC Temp\Georges Cziffra\Les rendez-vous de Senlis (Disc 1)\16 Le coucou.wav
Peak level 72.3 % Extraction speed 15.8 X Track quality 100.0 % Copy CRC 003A3684 Track not present in AccurateRip database Copy OK
Track 17
Filename C:\1-DATA\EAC Temp\Georges Cziffra\Les rendez-vous de Senlis (Disc 1)\17 Prelude.wav
Peak level 77.9 % Extraction speed 16.5 X Track quality 100.0 % Copy CRC DC7EEA04 Track not present in AccurateRip database Copy OK
Track 18
Filename C:\1-DATA\EAC Temp\Georges Cziffra\Les rendez-vous de Senlis (Disc 1)\18 Fugue.wav
Peak level 99.2 % Extraction speed 16.7 X Track quality 99.9 % Copy CRC A1980EBD Track not present in AccurateRip database Copy OK
None of the tracks are present in the AccurateRip database
No errors occurred
End of status report

Georges Cziffra - Les rendez-vous de Senlis (Disc 2).log

Exact Audio Copy V1.0 beta 1 from 15. November 2010
EAC extraction logfile from 1. January 2011, 14:51
Georges Cziffra / Les rendez-vous de Senlis (Disc 2)
Used drive : PLDS DVD+-RW DU-8A2S Adapter: 0 ID: 1
Read mode : SecureUtilize accurate stream : YesDefeat audio cache : NoMake use of C2 pointers : Yes
Read offset correction : 6Overread into Lead-In and Lead-Out : NoFill up missing offset samples with silence : YesDelete leading and trailing silent blocks : NoNull samples used in CRC calculations : YesUsed interface : Native Win32 interface for Win NT & 2000Gap handling : Appended to previous track
Used output format : User Defined EncoderSelected bitrate : 1024 kBit/sQuality : HighAdd ID3 tag : YesCommand line compressor : c:\Program Files (x86)\FLAC\flac.exeAdditional command line options : -5 -V -T "ARTIST=%a" -T "TITLE=%t" -T "ALBUM=%g" -T "DATE=%y" -T "TRACKNUMBER=%n" -T "GENRE=%m" -T "COMMENT=%e" %s -o %d
TOC of the extracted CD
Track | Start | Length | Start sector | End sector --------------------------------------------------------- 1 | 0:00.00 | 6:01.20 | 0 | 27094 2 | 6:01.20 | 5:05.45 | 27095 | 50014 3 | 11:06.65 | 9:41.30 | 50015 | 93619 4 | 20:48.20 | 4:12.01 | 93620 | 112520 5 | 25:00.21 | 2:11.10 | 112521 | 122355 6 | 27:11.31 | 1:49.70 | 122356 | 130600 7 | 29:01.26 | 2:35.06 | 130601 | 142231 8 | 31:36.32 | 2:48.46 | 142232 | 154877 9 | 34:25.03 | 7:53.10 | 154878 | 190362 10 | 42:18.13 | 8:37.03 | 190363 | 229140 11 | 50:55.16 | 5:00.59 | 229141 | 251699 12 | 55:56.00 | 6:37.01 | 251700 | 281475
Track 1
Filename C:\1-DATA\EAC Temp\Georges Cziffra\Les rendez-vous de Senlis (Disc 2)\01 Chopin Nocturne Op9 No1.wav
Pre-gap length 0:00:02.00
Peak level 32.4 % Extraction speed 8.8 X Track quality 100.0 % Copy CRC CBB84EEE Track not present in AccurateRip database Copy OK
Track 2
Filename C:\1-DATA\EAC Temp\Georges Cziffra\Les rendez-vous de Senlis (Disc 2)\02 Chopin Nocturne Op9 No2.wav
Peak level 67.3 % Extraction speed 10.5 X Track quality 100.0 % Copy CRC 42E917C4 Track not present in AccurateRip database Copy OK
Track 3
Filename C:\1-DATA\EAC Temp\Georges Cziffra\Les rendez-vous de Senlis (Disc 2)\03 Chopin Scherzo No2.wav
Peak level 81.0 % Extraction speed 12.0 X Track quality 100.0 % Copy CRC 15AA64E6 Track not present in AccurateRip database Copy OK
Track 4
Filename C:\1-DATA\EAC Temp\Georges Cziffra\Les rendez-vous de Senlis (Disc 2)\04 Chopin Etude Op10 No3.wav
Peak level 80.9 % Extraction speed 12.8 X Track quality 100.0 % Copy CRC D84D58F0 Track not present in AccurateRip database Copy OK
Track 5
Filename C:\1-DATA\EAC Temp\Georges Cziffra\Les rendez-vous de Senlis (Disc 2)\05 Chopin Etude Op10 No4.wav
Peak level 77.7 % Extraction speed 13.0 X Track quality 100.0 % Copy CRC 4666E446 Track not present in AccurateRip database Copy OK
Track 6
Filename C:\1-DATA\EAC Temp\Georges Cziffra\Les rendez-vous de Senlis (Disc 2)\06 Chopin Etude Op10 No5.wav
Peak level 67.3 % Extraction speed 12.8 X Track quality 100.0 % Copy CRC D2644F7E Track not present in AccurateRip database Copy OK
Track 7
Filename C:\1-DATA\EAC Temp\Georges Cziffra\Les rendez-vous de Senlis (Disc 2)\07 Chopin Etude Op10 No10.wav
Peak level 87.7 % Extraction speed 13.5 X Track quality 100.0 % Copy CRC F98037C3 Track not present in AccurateRip database Copy OK
Track 8
Filename C:\1-DATA\EAC Temp\Georges Cziffra\Les rendez-vous de Senlis (Disc 2)\08 Chopin Etude Op10 No12.wav
Peak level 86.8 % Extraction speed 11.8 X Track quality 99.8 % Copy CRC 0CDC0CB2 Track not present in AccurateRip database Copy OK
Track 9
Filename C:\1-DATA\EAC Temp\Georges Cziffra\Les rendez-vous de Senlis (Disc 2)\09 Chopin Op12 Ludovic Intro et Variations brillantes.wav
Peak level 77.3 % Extraction speed 15.0 X Track quality 100.0 % Copy CRC AE54D59B Track not present in AccurateRip database Copy OK
Track 10
Filename C:\1-DATA\EAC Temp\Georges Cziffra\Les rendez-vous de Senlis (Disc 2)\10 Liszt Polonaise No2.wav
Peak level 100.0 % Extraction speed 16.3 X Track quality 100.0 % Copy CRC 96AEB1F4 Track not present in AccurateRip database Copy OK
Track 11
Filename C:\1-DATA\EAC Temp\Georges Cziffra\Les rendez-vous de Senlis (Disc 2)\11 Liszt Transcedental Etude No10.wav
Peak level 90.7 % Extraction speed 16.8 X Track quality 100.0 % Copy CRC 6F6605B2 Track not present in AccurateRip database Copy OK
Track 12
Filename C:\1-DATA\EAC Temp\Georges Cziffra\Les rendez-vous de Senlis (Disc 2)\12 Saint-saens Etude en forme de valse Op52 No6.wav
Pre-gap length 0:00:00.01
Peak level 100.0 % Extraction speed 17.4 X Track quality 100.0 % Copy CRC 50EAA807 Track not present in AccurateRip database Copy OK
None of the tracks are present in the AccurateRip database
No errors occurred
End of status report

Georges Cziffra - Les rendez-vous de Senlis (Disc 3).log

Exact Audio Copy V1.0 beta 1 from 15. November 2010
EAC extraction logfile from 1. January 2011, 14:59
Georges Cziffra / Les rendez-vous de Senlis (Disc 3)
Used drive : PLDS DVD+-RW DU-8A2S Adapter: 0 ID: 1
Read mode : SecureUtilize accurate stream : YesDefeat audio cache : NoMake use of C2 pointers : Yes
Read offset correction : 6Overread into Lead-In and Lead-Out : NoFill up missing offset samples with silence : YesDelete leading and trailing silent blocks : NoNull samples used in CRC calculations : YesUsed interface : Native Win32 interface for Win NT & 2000Gap handling : Appended to previous track
Used output format : User Defined EncoderSelected bitrate : 1024 kBit/sQuality : HighAdd ID3 tag : YesCommand line compressor : c:\Program Files (x86)\FLAC\flac.exeAdditional command line options : -5 -V -T "ARTIST=%a" -T "TITLE=%t" -T "ALBUM=%g" -T "DATE=%y" -T "TRACKNUMBER=%n" -T "GENRE=%m" -T "COMMENT=%e" %s -o %d
TOC of the extracted CD
Track | Start | Length | Start sector | End sector --------------------------------------------------------- 1 | 0:00.00 | 12:04.06 | 0 | 54305 2 | 12:04.06 | 7:18.02 | 54306 | 87157 3 | 19:22.08 | 5:59.70 | 87158 | 114152 4 | 25:22.03 | 7:41.57 | 114153 | 148784 5 | 33:03.60 | 9:00.33 | 148785 | 189317 6 | 42:04.18 | 5:38.61 | 189318 | 214728 7 | 47:43.04 | 9:20.18 | 214729 | 256746 8 | 57:03.22 | 8:09.26 | 256747 | 293447
Track 1
Filename C:\1-DATA\EAC Temp\Georges Cziffra\Les rendez-vous de Senlis (Disc 3)\01 Mephisto Valse.wav
Pre-gap length 0:00:02.00
Peak level 80.0 % Extraction speed 10.0 X Track quality 100.0 % Copy CRC 0F732E94 Track not present in AccurateRip database Copy OK
Track 2
Filename C:\1-DATA\EAC Temp\Georges Cziffra\Les rendez-vous de Senlis (Disc 3)\02 Jeux d'eau à villa d'Este.wav
Peak level 88.5 % Extraction speed 12.0 X Track quality 100.0 % Copy CRC E6F9F9DF Track not present in AccurateRip database Copy OK
Track 3
Filename C:\1-DATA\EAC Temp\Georges Cziffra\Les rendez-vous de Senlis (Disc 3)\03 Valse Impromptu.wav
Peak level 66.9 % Extraction speed 13.0 X Track quality 100.0 % Copy CRC 93F73B67 Track not present in AccurateRip database Copy OK
Track 4
Filename C:\1-DATA\EAC Temp\Georges Cziffra\Les rendez-vous de Senlis (Disc 3)\04 Valse caprice no 6.wav
Peak level 62.7 % Extraction speed 14.0 X Track quality 100.0 % Copy CRC 02B69D2D Track not present in AccurateRip database Copy OK
Track 5
Filename C:\1-DATA\EAC Temp\Georges Cziffra\Les rendez-vous de Senlis (Disc 3)\05 St François de Paule marchant sur les eaux.wav
Peak level 78.1 % Extraction speed 15.1 X Track quality 100.0 % Copy CRC 3711F2AA Track not present in AccurateRip database Copy OK
Track 6
Filename C:\1-DATA\EAC Temp\Georges Cziffra\Les rendez-vous de Senlis (Disc 3)\06 Chasse-neige.wav
Peak level 96.0 % Extraction speed 15.6 X Track quality 99.9 % Copy CRC 001BF625 Track not present in AccurateRip database Copy OK
Track 7
Filename C:\1-DATA\EAC Temp\Georges Cziffra\Les rendez-vous de Senlis (Disc 3)\07 Ricordanza.wav
Peak level 64.7 % Extraction speed 15.1 X Track quality 100.0 % Copy CRC 8692F988 Track not present in AccurateRip database Copy OK
Track 8
Filename C:\1-DATA\EAC Temp\Georges Cziffra\Les rendez-vous de Senlis (Disc 3)\08 Gaudeamus Igitur.wav
Peak level 100.0 % Extraction speed 18.1 X Track quality 100.0 % Copy CRC DD62516B Track not present in AccurateRip database Copy OK
None of the tracks are present in the AccurateRip database
No errors occurred
End of status report

Georges Cziffra - Les rendez-vous de Senlis (Disc 4).log

Exact Audio Copy V1.0 beta 1 from 15. November 2010
EAC extraction logfile from 1. January 2011, 15:08
Georges Cziffra / Les rendez-vous de Senlis (Disc 4)
Used drive : PLDS DVD+-RW DU-8A2S Adapter: 0 ID: 1
Read mode : SecureUtilize accurate stream : YesDefeat audio cache : NoMake use of C2 pointers : Yes
Read offset correction : 6Overread into Lead-In and Lead-Out : NoFill up missing offset samples with silence : YesDelete leading and trailing silent blocks : NoNull samples used in CRC calculations : YesUsed interface : Native Win32 interface for Win NT & 2000Gap handling : Not detected, thus appended to previous track
Used output format : User Defined EncoderSelected bitrate : 1024 kBit/sQuality : HighAdd ID3 tag : YesCommand line compressor : c:\Program Files (x86)\FLAC\flac.exeAdditional command line options : -5 -V -T "ARTIST=%a" -T "TITLE=%t" -T "ALBUM=%g" -T "DATE=%y" -T "TRACKNUMBER=%n" -T "GENRE=%m" -T "COMMENT=%e" %s -o %d
TOC of the extracted CD
Track | Start | Length | Start sector | End sector --------------------------------------------------------- 1 | 0:00.00 | 7:38.25 | 0 | 34374 2 | 7:38.25 | 11:15.74 | 34375 | 85073 3 | 18:54.24 | 3:18.19 | 85074 | 99942 4 | 22:12.43 | 3:58.73 | 99943 | 117865 5 | 26:11.41 | 2:07.42 | 117866 | 127432 6 | 28:19.08 | 4:36.27 | 127433 | 148159 7 | 32:55.35 | 2:39.66 | 148160 | 160150 8 | 35:35.26 | 3:14.23 | 160151 | 174723 9 | 38:49.49 | 2:36.70 | 174724 | 186493 10 | 41:26.44 | 2:02.39 | 186494 | 195682 11 | 43:29.08 | 2:31.61 | 195683 | 207068 12 | 46:00.69 | 3:07.62 | 207069 | 221155 13 | 49:08.56 | 2:30.20 | 221156 | 232425 14 | 51:39.01 | 3:35.40 | 232426 | 248590 15 | 55:14.41 | 3:49.41 | 248591 | 265806 16 | 59:04.07 | 2:39.36 | 265807 | 277767 17 | 61:43.43 | 1:59.04 | 277768 | 286696
Track 1
Filename C:\1-DATA\EAC Temp\Georges Cziffra\Les rendez-vous de Senlis (Disc 4)\01 Schubert - Impromptu en la bémol majeur D 899.wav
Peak level 85.0 % Extraction speed 9.4 X Track quality 99.9 % Copy CRC ED69CE00 Track not present in AccurateRip database Copy OK
Track 2
Filename C:\1-DATA\EAC Temp\Georges Cziffra\Les rendez-vous de Senlis (Disc 4)\02 Schubert - Impromptu en fa mineur D 935.wav
Peak level 84.3 % Extraction speed 11.4 X Track quality 100.0 % Copy CRC 145F4594 Track not present in AccurateRip database Copy OK
Track 3
Filename C:\1-DATA\EAC Temp\Georges Cziffra\Les rendez-vous de Senlis (Disc 4)\03 Brahms - Danses hongroises - n° 1 en sol mineur.wav
Peak level 89.0 % Extraction speed 10.8 X Track quality 99.8 % Copy CRC ED466277 Track not present in AccurateRip database Copy OK
Track 4
Filename C:\1-DATA\EAC Temp\Georges Cziffra\Les rendez-vous de Senlis (Disc 4)\04 Brahms - Danses hongroises - n° 2 en ré mineur.wav
Peak level 91.7 % Extraction speed 13.0 X Track quality 100.0 % Copy CRC A0C3513B Track not present in AccurateRip database Copy OK
Track 5
Filename C:\1-DATA\EAC Temp\Georges Cziffra\Les rendez-vous de Senlis (Disc 4)\05 Brahms - Danses hongroises - n° 3 en fa majeur.wav
Peak level 96.9 % Extraction speed 13.1 X Track quality 100.0 % Copy CRC D7BA6DF1 Track not present in AccurateRip database Copy OK
Track 6
Filename C:\1-DATA\EAC Temp\Georges Cziffra\Les rendez-vous de Senlis (Disc 4)\06 Brahms - Danses hongroises - n° 4 en fa dièse mineur.wav
Peak level 100.0 % Extraction speed 14.0 X Track quality 100.0 % Copy CRC CC1DFB51 Track not present in AccurateRip database Copy OK
Track 7
Filename C:\1-DATA\EAC Temp\Georges Cziffra\Les rendez-vous de Senlis (Disc 4)\07 Brahms - Danses hongroises - n° 5 en fa dièse mineur.wav
Peak level 100.0 % Extraction speed 14.4 X Track quality 100.0 % Copy CRC 29CFBE2E Track not present in AccurateRip database Copy OK
Track 8
Filename C:\1-DATA\EAC Temp\Georges Cziffra\Les rendez-vous de Senlis (Disc 4)\08 Brahms - Danses hongroises - n° 6 en ré bémol majeur.wav
Peak level 100.0 % Extraction speed 14.9 X Track quality 100.0 % Copy CRC 6B016CF8 Track not present in AccurateRip database Copy OK
Track 9
Filename C:\1-DATA\EAC Temp\Georges Cziffra\Les rendez-vous de Senlis (Disc 4)\09 Brahms - Danses hongroises - n° 8 en la mineur.wav
Peak level 94.7 % Extraction speed 15.0 X Track quality 100.0 % Copy CRC 0C1A89A9 Track not present in AccurateRip database Copy OK
Track 10
Filename C:\1-DATA\EAC Temp\Georges Cziffra\Les rendez-vous de Senlis (Disc 4)\10 Brahms - Danses hongroises - n° 9 en mi mineur.wav
Peak level 79.5 % Extraction speed 14.6 X Track quality 100.0 % Copy CRC 34247C8C Track not present in AccurateRip database Copy OK
Track 11
Filename C:\1-DATA\EAC Temp\Georges Cziffra\Les rendez-vous de Senlis (Disc 4)\11 Brahms - Danses hongroises - n° 10 en mi majeur.wav
Peak level 78.2 % Extraction speed 15.4 X Track quality 100.0 % Copy CRC 033CFDA9 Track not present in AccurateRip database Copy OK
Track 12
Filename C:\1-DATA\EAC Temp\Georges Cziffra\Les rendez-vous de Senlis (Disc 4)\12 Brahms - Danses hongroises - n° 12 en ré mineur.wav
Peak level 99.3 % Extraction speed 15.9 X Track quality 100.0 % Copy CRC C94B2597 Track not present in AccurateRip database Copy OK
Track 13
Filename C:\1-DATA\EAC Temp\Georges Cziffra\Les rendez-vous de Senlis (Disc 4)\13 Brahms - Danses hongroises - n° 13 en ré majeur.wav
Peak level 52.5 % Extraction speed 15.9 X Track quality 100.0 % Copy CRC D6D904A1 Track not present in AccurateRip database Copy OK
Track 14
Filename C:\1-DATA\EAC Temp\Georges Cziffra\Les rendez-vous de Senlis (Disc 4)\14 Brahms - Danses hongroises - n° 16 en fa mineur.wav
Peak level 89.0 % Extraction speed 16.7 X Track quality 100.0 % Copy CRC 64934B70 Track not present in AccurateRip database Copy OK
Track 15
Filename C:\1-DATA\EAC Temp\Georges Cziffra\Les rendez-vous de Senlis (Disc 4)\15 Brahms - Danses hongroises - n° 17 en fa dièse mineur.wav
Peak level 95.5 % Extraction speed 17.2 X Track quality 100.0 % Copy CRC 472BED82 Track not present in AccurateRip database Copy OK
Track 16
Filename C:\1-DATA\EAC Temp\Georges Cziffra\Les rendez-vous de Senlis (Disc 4)\16 Brahms - Danses hongroises - n° 19 en si mineur.wav
Peak level 89.1 % Extraction speed 17.3 X Track quality 100.0 % Copy CRC A141580D Track not present in AccurateRip database Copy OK
Track 17
Filename C:\1-DATA\EAC Temp\Georges Cziffra\Les rendez-vous de Senlis (Disc 4)\17 Brahms - Danses hongroises - n° 21 en mi mineur.wav
Peak level 95.2 % Extraction speed 16.8 X Track quality 100.0 % Copy CRC E462EA70 Track not present in AccurateRip database Copy OK
None of the tracks are present in the AccurateRip database
No errors occurred
End of status report

Содержание индексной карты (.CUE)Les rendez-vous de Senlis (Disc 1).cue

REM GENRE Classical/PianoREM DATE 1982REM DISCID 060E5812REM COMMENT "ExactAudioCopy v1.0b1"PERFORMER "Georges Cziffra"TITLE "Les rendez-vous de Senlis (Disc 1)"FILE "Georges Cziffra\Les rendez-vous de Senlis (Disc 1)\01 les folies francaises ou les dominos.wav" WAVE TRACK 01 AUDIO TITLE "les folies francaises ou les dominos" PERFORMER "Georges Cziffra" INDEX 01 00:00:00FILE "Georges Cziffra\Les rendez-vous de Senlis (Disc 1)\02 le rappel des oiseaux.wav" WAVE TRACK 02 AUDIO TITLE "le rappel des oiseaux" PERFORMER "Georges Cziffra" INDEX 01 00:00:00FILE "Georges Cziffra\Les rendez-vous de Senlis (Disc 1)\03 Tambourin.wav" WAVE TRACK 03 AUDIO TITLE "Tambourin" PERFORMER "Georges Cziffra" INDEX 01 00:00:00FILE "Georges Cziffra\Les rendez-vous de Senlis (Disc 1)\04 Les barricades musterieuses.wav" WAVE TRACK 04 AUDIO TITLE "Les barricades musterieuses" PERFORMER "Georges Cziffra" INDEX 01 00:00:00FILE "Georges Cziffra\Les rendez-vous de Senlis (Disc 1)\05 L'anguille.wav" WAVE TRACK 05 AUDIO TITLE "L'anguille" PERFORMER "Georges Cziffra" INDEX 01 00:00:00FILE "Georges Cziffra\Les rendez-vous de Senlis (Disc 1)\06 La Bandoline.wav" WAVE TRACK 06 AUDIO TITLE "La Bandoline" PERFORMER "Georges Cziffra" INDEX 01 00:00:00FILE "Georges Cziffra\Les rendez-vous de Senlis (Disc 1)\07 Le tic-toc-choc ou les maillotins.wav" WAVE TRACK 07 AUDIO TITLE "Le tic-toc-choc ou les maillotins" PERFORMER "Georges Cziffra" INDEX 01 00:00:00FILE "Georges Cziffra\Les rendez-vous de Senlis (Disc 1)\08 L'Egyptienne.wav" WAVE TRACK 08 AUDIO TITLE "L'Egyptienne" PERFORMER "Georges Cziffra" INDEX 01 00:00:00FILE "Georges Cziffra\Les rendez-vous de Senlis (Disc 1)\09 La Poule.wav" WAVE TRACK 09 AUDIO TITLE "La Poule" PERFORMER "Georges Cziffra" INDEX 01 00:00:00FILE "Georges Cziffra\Les rendez-vous de Senlis (Disc 1)\10 Les papillons.wav" WAVE TRACK 10 AUDIO TITLE "Les papillons" PERFORMER "Georges Cziffra" INDEX 01 00:00:00FILE "Georges Cziffra\Les rendez-vous de Senlis (Disc 1)\11 Les Moisonneurs.wav" WAVE TRACK 11 AUDIO TITLE "Les Moisonneurs" PERFORMER "Georges Cziffra" INDEX 01 00:00:00FILE "Georges Cziffra\Les rendez-vous de Senlis (Disc 1)\12 Gavotte en rondeau.wav" WAVE TRACK 12 AUDIO TITLE "Gavotte en rondeau" PERFORMER "Georges Cziffra" INDEX 01 00:00:00FILE "Georges Cziffra\Les rendez-vous de Senlis (Disc 1)\13 L'hirondelle.wav" WAVE TRACK 13 AUDIO TITLE "L'hirondelle" PERFORMER "Georges Cziffra" INDEX 01 00:00:00FILE "Georges Cziffra\Les rendez-vous de Senlis (Disc 1)\14 Rigaudon.wav" WAVE TRACK 14 AUDIO TITLE "Rigaudon" PERFORMER "Georges Cziffra" INDEX 01 00:00:00FILE "Georges Cziffra\Les rendez-vous de Senlis (Disc 1)\15 Les petits moulins a vent.wav" WAVE TRACK 15 AUDIO TITLE "Les petits moulins a vent" PERFORMER "Georges Cziffra" INDEX 01 00:00:00FILE "Georges Cziffra\Les rendez-vous de Senlis (Disc 1)\16 Le coucou.wav" WAVE TRACK 16 AUDIO TITLE "Le coucou" PERFORMER "Georges Cziffra" INDEX 01 00:00:00FILE "Georges Cziffra\Les rendez-vous de Senlis (Disc 1)\17 Prelude.wav" WAVE TRACK 17 AUDIO TITLE "Prelude" PERFORMER "Georges Cziffra" INDEX 01 00:00:00FILE "Georges Cziffra\Les rendez-vous de Senlis (Disc 1)\18 Fugue.wav" WAVE TRACK 18 AUDIO TITLE "Fugue" PERFORMER "Georges Cziffra" INDEX 01 00:00:00

Les rendez-vous de Senlis (Disc 2).cue

REM GENRE Classical/PianoREM DATE 2003REM DISCID A40EA90CREM COMMENT "ExactAudioCopy v1.0b1"PERFORMER "Georges Cziffra"TITLE "Les rendez-vous de Senlis (Disc 2)"FILE "Georges Cziffra\Les rendez-vous de Senlis (Disc 2)\01 Chopin Nocturne Op9 No1.wav" WAVE TRACK 01 AUDIO TITLE "Chopin Nocturne Op9 No1" PERFORMER "Georges Cziffra" INDEX 01 00:00:00FILE "Georges Cziffra\Les rendez-vous de Senlis (Disc 2)\02 Chopin Nocturne Op9 No2.wav" WAVE TRACK 02 AUDIO TITLE "Chopin Nocturne Op9 No2" PERFORMER "Georges Cziffra" INDEX 01 00:00:00FILE "Georges Cziffra\Les rendez-vous de Senlis (Disc 2)\03 Chopin Scherzo No2.wav" WAVE TRACK 03 AUDIO TITLE "Chopin Scherzo No2" PERFORMER "Georges Cziffra" INDEX 01 00:00:00FILE "Georges Cziffra\Les rendez-vous de Senlis (Disc 2)\04 Chopin Etude Op10 No3.wav" WAVE TRACK 04 AUDIO TITLE "Chopin Etude Op10 No3" PERFORMER "Georges Cziffra" INDEX 01 00:00:00FILE "Georges Cziffra\Les rendez-vous de Senlis (Disc 2)\05 Chopin Etude Op10 No4.wav" WAVE TRACK 05 AUDIO TITLE "Chopin Etude Op10 No4" PERFORMER "Georges Cziffra" INDEX 01 00:00:00FILE "Georges Cziffra\Les rendez-vous de Senlis (Disc 2)\06 Chopin Etude Op10 No5.wav" WAVE TRACK 06 AUDIO TITLE "Chopin Etude Op10 No5" PERFORMER "Georges Cziffra" INDEX 01 00:00:00FILE "Georges Cziffra\Les rendez-vous de Senlis (Disc 2)\07 Chopin Etude Op10 No10.wav" WAVE TRACK 07 AUDIO TITLE "Chopin Etude Op10 No10" PERFORMER "Georges Cziffra" INDEX 01 00:00:00FILE "Georges Cziffra\Les rendez-vous de Senlis (Disc 2)\08 Chopin Etude Op10 No12.wav" WAVE TRACK 08 AUDIO TITLE "Chopin Etude Op10 No12" PERFORMER "Georges Cziffra" INDEX 01 00:00:00FILE "Georges Cziffra\Les rendez-vous de Senlis (Disc 2)\09 Chopin Op12 Ludovic Intro et Variations brillantes.wav" WAVE TRACK 09 AUDIO TITLE "Chopin Op12 Ludovic Intro et Variations brillantes" PERFORMER "Georges Cziffra" INDEX 01 00:00:00FILE "Georges Cziffra\Les rendez-vous de Senlis (Disc 2)\10 Liszt Polonaise No2.wav" WAVE TRACK 10 AUDIO TITLE "Liszt Polonaise No2" PERFORMER "Georges Cziffra" INDEX 01 00:00:00FILE "Georges Cziffra\Les rendez-vous de Senlis (Disc 2)\11 Liszt Transcedental Etude No10.wav" WAVE TRACK 11 AUDIO TITLE "Liszt Transcedental Etude No10" PERFORMER "Georges Cziffra" INDEX 01 00:00:00 TRACK 12 AUDIO TITLE "Saint-saens Etude en forme de valse Op52 No6" PERFORMER "Georges Cziffra" INDEX 00 05:00:58FILE "Georges Cziffra\Les rendez-vous de Senlis (Disc 2)\12 Saint-saens Etude en forme de valse Op52 No6.wav" WAVE INDEX 01 00:00:00

Les rendez-vous de Senlis (Disc 3).cue

REM GENRE Classical/PianoREM DISCID 720F4808REM COMMENT "ExactAudioCopy v1.0b1"PERFORMER "Georges Cziffra"TITLE "Les rendez-vous de Senlis (Disc 3)"FILE "Georges Cziffra\Les rendez-vous de Senlis (Disc 3)\01 Mephisto Valse.wav" WAVE TRACK 01 AUDIO TITLE "Mephisto Valse" PERFORMER "Georges Cziffra" INDEX 01 00:00:00FILE "Georges Cziffra\Les rendez-vous de Senlis (Disc 3)\02 Jeux d'eau а villa d'Este.wav" WAVE TRACK 02 AUDIO TITLE "Jeux d'eau а villa d'Este" PERFORMER "Georges Cziffra" INDEX 01 00:00:00FILE "Georges Cziffra\Les rendez-vous de Senlis (Disc 3)\03 Valse Impromptu.wav" WAVE TRACK 03 AUDIO TITLE "Valse Impromptu" PERFORMER "Georges Cziffra" INDEX 01 00:00:00FILE "Georges Cziffra\Les rendez-vous de Senlis (Disc 3)\04 Valse caprice no 6.wav" WAVE TRACK 04 AUDIO TITLE "Valse caprice no 6" PERFORMER "Georges Cziffra" INDEX 01 00:00:00FILE "Georges Cziffra\Les rendez-vous de Senlis (Disc 3)\05 St Franзois de Paule marchant sur les eaux.wav" WAVE TRACK 05 AUDIO TITLE "St Franзois de Paule marchant sur les eaux" PERFORMER "Georges Cziffra" INDEX 01 00:00:00FILE "Georges Cziffra\Les rendez-vous de Senlis (Disc 3)\06 Chasse-neige.wav" WAVE TRACK 06 AUDIO TITLE "Chasse-neige" PERFORMER "Georges Cziffra" INDEX 01 00:00:00FILE "Georges Cziffra\Les rendez-vous de Senlis (Disc 3)\07 Ricordanza.wav" WAVE TRACK 07 AUDIO TITLE "Ricordanza" PERFORMER "Georges Cziffra" INDEX 01 00:00:00FILE "Georges Cziffra\Les rendez-vous de Senlis (Disc 3)\08 Gaudeamus Igitur.wav" WAVE TRACK 08 AUDIO TITLE "Gaudeamus Igitur" PERFORMER "Georges Cziffra" INDEX 01 00:00:00

Les rendez-vous de Senlis (Disc 4).cue

REM GENRE ClassicalREM DISCID DD0EEE11REM COMMENT "ExactAudioCopy v1.0b1"PERFORMER "Georges Cziffra"TITLE "Les rendez-vous de Senlis (Disc 4)"FILE "Georges Cziffra\Les rendez-vous de Senlis (Disc 4)\01 Schubert - Impromptu en la bйmol majeur D 899.wav" WAVE TRACK 01 AUDIO TITLE "Schubert - Impromptu en la bйmol majeur D 899" PERFORMER "Georges Cziffra" INDEX 01 00:00:00FILE "Georges Cziffra\Les rendez-vous de Senlis (Disc 4)\02 Schubert - Impromptu en fa mineur D 935.wav" WAVE TRACK 02 AUDIO TITLE "Schubert - Impromptu en fa mineur D 935" PERFORMER "Georges Cziffra" INDEX 01 00:00:00FILE "Georges Cziffra\Les rendez-vous de Senlis (Disc 4)\03 Brahms - Danses hongroises - n° 1 en sol mineur.wav" WAVE TRACK 03 AUDIO TITLE "Brahms - Danses hongroises - n° 1 en sol mineur" PERFORMER "Georges Cziffra" INDEX 01 00:00:00FILE "Georges Cziffra\Les rendez-vous de Senlis (Disc 4)\04 Brahms - Danses hongroises - n° 2 en rй mineur.wav" WAVE TRACK 04 AUDIO TITLE "Brahms - Danses hongroises - n° 2 en rй mineur" PERFORMER "Georges Cziffra" INDEX 01 00:00:00FILE "Georges Cziffra\Les rendez-vous de Senlis (Disc 4)\05 Brahms - Danses hongroises - n° 3 en fa majeur.wav" WAVE TRACK 05 AUDIO TITLE "Brahms - Danses hongroises - n° 3 en fa majeur" PERFORMER "Georges Cziffra" INDEX 01 00:00:00FILE "Georges Cziffra\Les rendez-vous de Senlis (Disc 4)\06 Brahms - Danses hongroises - n° 4 en fa diиse mineur.wav" WAVE TRACK 06 AUDIO TITLE "Brahms - Danses hongroises - n° 4 en fa diиse mineur" PERFORMER "Georges Cziffra" INDEX 01 00:00:00FILE "Georges Cziffra\Les rendez-vous de Senlis (Disc 4)\07 Brahms - Danses hongroises - n° 5 en fa diиse mineur.wav" WAVE TRACK 07 AUDIO TITLE "Brahms - Danses hongroises - n° 5 en fa diиse mineur" PERFORMER "Georges Cziffra" INDEX 01 00:00:00FILE "Georges Cziffra\Les rendez-vous de Senlis (Disc 4)\08 Brahms - Danses hongroises - n° 6 en rй bйmol majeur.wav" WAVE TRACK 08 AUDIO TITLE "Brahms - Danses hongroises - n° 6 en rй bйmol majeur" PERFORMER "Georges Cziffra" INDEX 01 00:00:00FILE "Georges Cziffra\Les rendez-vous de Senlis (Disc 4)\09 Brahms - Danses hongroises - n° 8 en la mineur.wav" WAVE TRACK 09 AUDIO TITLE "Brahms - Danses hongroises - n° 8 en la mineur" PERFORMER "Georges Cziffra" INDEX 01 00:00:00FILE "Georges Cziffra\Les rendez-vous de Senlis (Disc 4)\10 Brahms - Danses hongroises - n° 9 en mi mineur.wav" WAVE TRACK 10 AUDIO TITLE "Brahms - Danses hongroises - n° 9 en mi mineur" PERFORMER "Georges Cziffra" INDEX 01 00:00:00FILE "Georges Cziffra\Les rendez-vous de Senlis (Disc 4)\11 Brahms - Danses hongroises - n° 10 en mi majeur.wav" WAVE TRACK 11 AUDIO TITLE "Brahms - Danses hongroises - n° 10 en mi majeur" PERFORMER "Georges Cziffra" INDEX 01 00:00:00FILE "Georges Cziffra\Les rendez-vous de Senlis (Disc 4)\12 Brahms - Danses hongroises - n° 12 en rй mineur.wav" WAVE TRACK 12 AUDIO TITLE "Brahms - Danses hongroises - n° 12 en rй mineur" PERFORMER "Georges Cziffra" INDEX 01 00:00:00FILE "Georges Cziffra\Les rendez-vous de Senlis (Disc 4)\13 Brahms - Danses hongroises - n° 13 en rй majeur.wav" WAVE TRACK 13 AUDIO TITLE "Brahms - Danses hongroises - n° 13 en rй majeur" PERFORMER "Georges Cziffra" INDEX 01 00:00:00FILE "Georges Cziffra\Les rendez-vous de Senlis (Disc 4)\14 Brahms - Danses hongroises - n° 16 en fa mineur.wav" WAVE TRACK 14 AUDIO TITLE "Brahms - Danses hongroises - n° 16 en fa mineur" PERFORMER "Georges Cziffra" INDEX 01 00:00:00FILE "Georges Cziffra\Les rendez-vous de Senlis (Disc 4)\15 Brahms - Danses hongroises - n° 17 en fa diиse mineur.wav" WAVE TRACK 15 AUDIO TITLE "Brahms - Danses hongroises - n° 17 en fa diиse mineur" PERFORMER "Georges Cziffra" INDEX 01 00:00:00FILE "Georges Cziffra\Les rendez-vous de Senlis (Disc 4)\16 Brahms - Danses hongroises - n° 19 en si mineur.wav" WAVE TRACK 16 AUDIO TITLE "Brahms - Danses hongroises - n° 19 en si mineur" PERFORMER "Georges Cziffra" INDEX 01 00:00:00FILE "Georges Cziffra\Les rendez-vous de Senlis (Disc 4)\17 Brahms - Danses hongroises - n° 21 en mi mineur.wav" WAVE TRACK 17 AUDIO TITLE "Brahms - Danses hongroises - n° 21 en mi mineur" PERFORMER "Georges Cziffra" INDEX 01 00:00:00

Лог проверки качестваLes rendez-vous de Senlis (Disc 1)

AUDIOCHECKER v2.0 beta (build 457) - by Dester - opdester@freemail.hu~~~~~~~~~~~~~~~~~~~~~~~~~~~~~~~~~~-=== НЕ РЕДАКТИРУЙТЕ ЭТОТ ФАЙЛ! ===-
Путь: ...\Les rendez-vous de Senlis (Disc 1)
01 -=- 01 les folies francaises ou les dominos.flac -=- CDDA (100%)02 -=- 02 le rappel des oiseaux.flac -=- CDDA (100%)03 -=- 03 Tambourin.flac -=- CDDA (100%)04 -=- 04 Les barricades musterieuses.flac -=- CDDA (100%)05 -=- 05 L'anguille.flac -=- CDDA (100%)06 -=- 06 La Bandoline.flac -=- CDDA (100%)07 -=- 07 Le tic-toc-choc ou les maillotins.flac -=- CDDA (100%)08 -=- 08 L'Egyptienne.flac -=- CDDA (100%)09 -=- 09 La Poule.flac -=- CDDA (100%)10 -=- 10 Les papillons.flac -=- CDDA (99%)11 -=- 11 Les Moisonneurs.flac -=- CDDA (100%)12 -=- 12 Gavotte en rondeau.flac -=- CDDA (100%)13 -=- 13 L'hirondelle.flac -=- CDDA (99%)14 -=- 14 Rigaudon.flac -=- CDDA (100%)15 -=- 15 Les petits moulins a vent.flac -=- CDDA (100%)16 -=- 16 Le coucou.flac -=- CDDA (100%)17 -=- 17 Prelude.flac -=- MPEG (92%)18 -=- 18 Fugue.flac -=- MPEG (93%)
Сводка 89.61% CDDA
38283604

Les rendez-vous de Senlis (Disc 2)

AUDIOCHECKER v2.0 beta (build 457) - by Dester - opdester@freemail.hu~~~~~~~~~~~~~~~~~~~~~~~~~~~~~~~~~~-=== НЕ РЕДАКТИРУЙТЕ ЭТОТ ФАЙЛ! ===-
Путь: ...\Les rendez-vous de Senlis (Disc 2)
01 -=- 01 Chopin Nocturne Op9 No1.flac -=- CDDA (62%)02 -=- 02 Chopin Nocturne Op9 No2.flac -=- CDDA (100%)03 -=- 03 Chopin Scherzo No2.flac -=- MPEG (90%)04 -=- 04 Chopin Etude Op10 No3.flac -=- CDDA (43%)05 -=- 05 Chopin Etude Op10 No4.flac -=- MPEG (92%)06 -=- 06 Chopin Etude Op10 No5.flac -=- MPEG (80%)07 -=- 07 Chopin Etude Op10 No10.flac -=- MPEG (80%)08 -=- 08 Chopin Etude Op10 No12.flac -=- CDDA (49%)09 -=- 09 Chopin Op12 Ludovic Intro et Variations brillantes.flac -=- CDDA (62%)10 -=- 10 Liszt Polonaise No2.flac -=- MPEG (93%)11 -=- 11 Liszt Transcedental Etude No10.flac -=- MPEG (93%)12 -=- 12 Saint-saens Etude en forme de valse Op52 No6.flac -=- MPEG (90%)
Сводка 33.17% CDDA
223659860

Les rendez-vous de Senlis (Disc 3)

AUDIOCHECKER v2.0 beta (build 457) - by Dester - opdester@freemail.hu~~~~~~~~~~~~~~~~~~~~~~~~~~~~~~~~~~-=== НЕ РЕДАКТИРУЙТЕ ЭТОТ ФАЙЛ! ===-
Путь: ...\Les rendez-vous de Senlis (Disc 3)
01 -=- 01 Mephisto Valse.flac -=- MPEG (89%)02 -=- 02 Jeux d'eau a villa d'Este.flac -=- ERROR02 -=- 03 Valse Impromptu.flac -=- CDDA (42%)03 -=- 04 Valse caprice no 6.flac -=- CDDA (62%)04 -=- 05 St Francois de Paule marchant sur les eaux.flac -=- ERROR04 -=- 06 Chasse-neige.flac -=- MPEG (92%)05 -=- 07 Ricordanza.flac -=- CDDA (43%)06 -=- 08 Gaudeamus Igitur.flac -=- CDDA (94%)
Сводка 43.33% CDDA
223906612

Les rendez-vous de Senlis (Disc 4)

AUDIOCHECKER v2.0 beta (build 457) - by Dester - opdester@freemail.hu~~~~~~~~~~~~~~~~~~~~~~~~~~~~~~~~~~-=== НЕ РЕДАКТИРУЙТЕ ЭТОТ ФАЙЛ! ===-
Путь: ...\Les rendez-vous de Senlis (Disc 4)
01 -=- 01 Schubert - Impromptu en la bemol majeur D 899.flac -=- ERROR01 -=- 02 Schubert - Impromptu en fa mineur D 935.flac -=- CDDA (49%)02 -=- 03 Brahms - Danses hongroises - n° 1 en sol mineur.flac -=- CDDA (49%)03 -=- 04 Brahms - Danses hongroises - n° 2 en re mineur.flac -=- ERROR03 -=- 05 Brahms - Danses hongroises - n° 3 en fa majeur.flac -=- CDDA (43%)04 -=- 06 Brahms - Danses hongroises - n° 4 en fa diese mineur.flac -=- ERROR04 -=- 07 Brahms - Danses hongroises - n° 5 en fa diese mineur.flac -=- ERROR04 -=- 08 Brahms - Danses hongroises - n° 6 en re bemol majeur.flac -=- ERROR04 -=- 09 Brahms - Danses hongroises - n° 8 en la mineur.flac -=- MPEG (100%)05 -=- 10 Brahms - Danses hongroises - n° 9 en mi mineur.flac -=- MPEG (97%)06 -=- 11 Brahms - Danses hongroises - n° 10 en mi majeur.flac -=- CDDA (43%)07 -=- 12 Brahms - Danses hongroises - n° 12 en re mineur.flac -=- ERROR07 -=- 13 Brahms - Danses hongroises - n° 13 en re majeur.flac -=- ERROR07 -=- 14 Brahms - Danses hongroises - n° 16 en fa mineur.flac -=- CDDA (49%)08 -=- 15 Brahms - Danses hongroises - n° 17 en fa diese mineur.flac -=- ERROR08 -=- 16 Brahms - Danses hongroises - n° 19 en si mineur.flac -=- CDDA (76%)09 -=- 17 Brahms - Danses hongroises - n° 21 en mi mineur.flac -=- MPEG (92%)
Сводка 35.56% CDDA
137837188
[teatrix.ru].t10027.torrent 
Торрент: Зарегистрирован [ 2015-10-25 20:37 ] · DBA6FA8B462A014260720C1B92111FDDD5026FCA

Скачать .torrent

Скачать

25 KB

Статус: проверено
Скачан: 0 раз
Размер: 891 MB
terms.php



Быстрый ответ

Имя:

      
Для отправки сообщений необходимо включить JavaScript
Показать сообщения:    

Текущее время: 09-Дек 03:07

Часовой пояс: UTC + 3


Вы можете начинать темы
Вы можете отвечать на сообщения
Вы не можете редактировать свои сообщения
Вы не можете удалять свои сообщения
Вы не можете голосовать в опросах
Вы не можете прикреплять файлы к сообщениям
Вы можете скачивать файлы