(Classical, 20th century) Pierre Boulez - "Le Domaine Musical", 1956-1967 (Стравинский, Schoenberg, Webern, Berg) - Volume 2 - 4CD - 2006, FLAC (image+.cue) lossless


Статистика раздачи [Обновить пиров]
Размер:  1.3 GB   |    Зарегистрирован:  1 год 1 месяц   |    Скачан:  0 раз

Полного источника не было: Никогда

 
   
 
 
 

[Цитировать]

Pierre Boulez - "Le Domaine Musical", 1956-1967 (Стравинский, Schoenberg, Webern, Berg) - Volume 2 - 4CD
Жанр: Classical, 20th century
Страна-производитель диска: France
Год издания диска: 2006
Издатель (лейбл): Accord
Дата записи: 1956-1966
Аудиокодек: FLAC
Тип рипа: image+.cue
Битрейт аудио: lossless
Продолжительность: 4:31:52
Источник: собственный рип
Треклист:

CD1: Игорь Стравинский

Игорь Стравинский (1882-1971)
[1] Concertino pour douze instruments
arrangement du "Concertino pour quatuor à cordes" (1920/1952)
Jacques Parrenin, violon
Pierre Penassou, violoncelle
Jacques Castagner, flûte
Claude Maisonneuve, hautbois
Paul Taillefer, cor anglais
Guy Deplus, clarinette
André Rabot, Jean-Pierre Laroque, bassons
Pierre Pollin, Jacques Lecointre, trompettes
René Allain, trombone ténor
Maurice Suzan, trombone basse
Pierre Boulez, direction
[2]-[4] Trois pièces pour clarinette seule (1919)
Guy Deplus, clarinette
[5]-[7] Trois pièces pour quatuor à cordes (1914)
Quatuor Parrenin
[8] Symphonies d'instruments à vent à la mémoire de Claude Debussy (1920, version 1947)
Orchestre du Domaine musical
Pierre Boulez
, direction
[9] Renard histoire burlesque chantée et jouée (1915-1916)
Lean Giraudeau, Louis Devos, ténors
Louis-Jacques Rondeleux, Xavier Depraz, basses
Elemer Kiss, cymbalum
Orchestre du Domaine musical
Pierre Boulez,
direction
[10]-[24] Agon ballet pour 12 danseur (1953-1957)
Orchestre du Südwestfunk de Baden-Baden
Hans Rosbaud,
direction

CD2: L'École de Vienne I de 1899 à 1912

Arnold Schoenberg (1874-1951)
[1]-[5] Verklärte Nacht pour sextuor à cordes, opus 4 (1899/1917)
Jacques Parrenin, violon I
Marcel Charpentier, violon II
Denes Marton, alto I
Serge Collot, alto II
Pierre Penassou, violoncelle I
Michel Tournus, violoncelle II
Anton Webern (1883-1945)
[6]-[11] Sechs Stücke für Orchester, opus 6 (1909, révisé en 1928)
Orchestre du Südwestfunk de Baden-Baden
Hans Rosbaud,
direction
Arnold Schoenberg (1874-1951)
[12]-[14] Trois pièces pour 12 instruments (1910)
Orchestre du Domaine musical
Pierre Boulez,
direction
[15]-[35] Pierrot lunaire pour voix parlée et 5 instrumentistes, opus 21 (1912)
Helga Pilarczyk, récitante
Maria Bergmann, piano
Jacques Castagner, flûte et piccolo
Guy Deplus, clarinette
Louis Montaigne, clarinette basse
Luben Yordanoff, violon
Serge Collot, alto
Jean Huchot, violoncelle

CD3: L'École de Vienne II de 1906 à 1943

Alban Berg (1885-1935)
[1] Sonate en si mineur pour piano, opus 1 (1908)
Yvonne Loriod, piano
[2]-[4] Drei Stücke für Orchester, opus 6 (1915)
Orchestre du Südwestfunk de Baden-Baden
Hans Rosbaud,
direction
Arnold Schoenberg (1874-1951)
[5] Kammersymphonie No.1, opus 9 (1906)
Solistes du Domaine musical
Pierre Boulez,
direction
Anton Webern (1883-1945)
[6]-[7] Zwei Lieder pour voix de soprano et ensemble instrumental, opus 8 (1910-1925)
[8]-[11] Vier Lieder pour voix de soprano et ensemble instrumental, opus 13 (1914-1922)
Jeanne Hericard, soprano
Orchestre du Domaine musical
Pierre Boulez,
direction
[12]-[14] Cantate No.1 pour soprano solo, chœur mixte à 16 voix et ensemble instrumental, opus 29 (1939)
[15]-[20] Cantate No.2 pour soprano et basse soli, chœur mixte à 16 voix et ensemble instrumental, opus 31 (1943)
Ilona Steingruber, soprano
Xavier Depraz, basse
Chorale Elisabeth Brasseur
Orchestre du Domaine musical
Pierre Boulez,
direction

CD4: L'École de Vienne III: Le sérialisme

Arnold Schoenberg (1874-1951)
[1]-[7] Sérénade pour clarinette, clarinette basse, guitare, violon, alto, violoncelle et voix de baryton, opus 24 (1920-1923)
Guy Deplus, clarinette
Louis Montaigne, clarinette basse
Paul Grund, mandoline
Paul Stingl, guitare
Luben Yordanoff, violon
Serge Collot, alto
Jean Huchot, violoncelle
Louis-Jacques Rondeleux, baryton
[8]-[11 Suite pour sept instruments, opus 29 (1925-1926)
Yvonne Loriod, piano
Marcel Naulais, petite clarinette
Guy Deplus, clarinette
Louis Montaigne, clarinette basse
Jacques Ghestem, violon
Serge Collot, alto
Jean Huchot, violoncelle
Pierre Boulez, direction
Anton Webern (1883-1945)
[12]-[14] Variationen für Klavier, opus 27 (1936)
Yvonne Loriod, piano
[15]-[16] Symphonie pour clarinette, clarinette basse, 2 cors, harpe, 2 violons, alto, violoncelle, opus 21 (1928)
Orchestre du Domaine musical
Pierre Boulez,
direction

Лог создания рипа: CD1

Exact Audio Copy V0.99 prebeta 5 from 4. May 2009
EAC extraction logfile from 27. April 2011, 18:48
Pierre Boulez / Pierre Boulez: Le Domaine Musical 1956-1967 - Vol.2 - CD1 - Stravinsky
Used drive : Optiarc DVD+-RW AD-5170S Adapter: 1 ID: 2
Read mode : SecureUtilize accurate stream : YesDefeat audio cache : YesMake use of C2 pointers : No
Read offset correction : 48Overread into Lead-In and Lead-Out : NoFill up missing offset samples with silence : YesDelete leading and trailing silent blocks : NoNull samples used in CRC calculations : NoUsed interface : Native Win32 interface for Win NT & 2000
Used output format : User Defined EncoderSelected bitrate : 768 kBit/sQuality : HighAdd ID3 tag : NoCommand line compressor : C:\Program Files\Exact Audio Copy\FLAC\FLAC.EXEAdditional command line options : -6 -V -T "ARTIST=%a" -T "TITLE=%t" -T "ALBUM=%g" -T "DATE=%y" -T "TRACKNUMBER=%n" -T "GENRE=%m" -T "COMMENT=%e" %s -o %d
TOC of the extracted CD
Track | Start | Length | Start sector | End sector --------------------------------------------------------- 1 | 0:00.00 | 5:50.22 | 0 | 26271 2 | 5:50.22 | 1:52.60 | 26272 | 34731 3 | 7:43.07 | 1:08.32 | 34732 | 39863 4 | 8:51.39 | 1:19.71 | 39864 | 45859 5 | 10:11.35 | 0:55.51 | 45860 | 50035 6 | 11:07.11 | 1:54.52 | 50036 | 58637 7 | 13:01.63 | 3:36.59 | 58638 | 74896 8 | 16:38.47 | 8:37.62 | 74897 | 113733 9 | 25:16.34 | 15:06.19 | 113734 | 181702 10 | 40:22.53 | 1:34.09 | 181703 | 188761 11 | 41:56.62 | 1:26.65 | 188762 | 195276 12 | 43:23.52 | 0:59.38 | 195277 | 199739 13 | 44:23.15 | 0:50.07 | 199740 | 203496 14 | 45:13.22 | 1:14.04 | 203497 | 209050 15 | 46:27.26 | 1:12.27 | 209051 | 214477 16 | 47:39.53 | 1:15.64 | 214478 | 220166 17 | 48:55.42 | 0:49.46 | 220167 | 223887 18 | 49:45.13 | 0:56.26 | 223888 | 228113 19 | 50:41.39 | 0:52.37 | 228114 | 232050 20 | 51:34.01 | 1:20.16 | 232051 | 238066 21 | 52:54.17 | 0:49.65 | 238067 | 241806 22 | 53:44.07 | 5:36.33 | 241807 | 267039 23 | 59:20.40 | 0:34.65 | 267040 | 269654 24 | 59:55.30 | 2:18.45 | 269655 | 280049
Range status and errors
Selected range
Filename D:\temp\pics\Le Domaine Musical - Volume 2\Le Domaine Musical - Vol.2 - CD1.wav
Peak level 96.0 % Range quality 99.9 % Copy CRC 7A3527E5 Copy OK
No errors occurred
End of status report

Лог создания рипа: CD2

Exact Audio Copy V0.99 prebeta 5 from 4. May 2009
EAC extraction logfile from 28. April 2011, 17:46
Pierre Boulez / Pierre Boulez: Le Domaine Musical 1956-1967 - Vol.2 - CD2
Used drive : Optiarc DVD+-RW AD-5170S Adapter: 1 ID: 2
Read mode : SecureUtilize accurate stream : YesDefeat audio cache : YesMake use of C2 pointers : No
Read offset correction : 48Overread into Lead-In and Lead-Out : NoFill up missing offset samples with silence : YesDelete leading and trailing silent blocks : NoNull samples used in CRC calculations : NoUsed interface : Native Win32 interface for Win NT & 2000
Used output format : User Defined EncoderSelected bitrate : 768 kBit/sQuality : HighAdd ID3 tag : NoCommand line compressor : C:\Program Files\Exact Audio Copy\FLAC\FLAC.EXEAdditional command line options : -6 -V -T "ARTIST=%a" -T "TITLE=%t" -T "ALBUM=%g" -T "DATE=%y" -T "TRACKNUMBER=%n" -T "GENRE=%m" -T "COMMENT=%e" %s -o %d
TOC of the extracted CD
Track | Start | Length | Start sector | End sector --------------------------------------------------------- 1 | 0:00.00 | 3:18.08 | 0 | 14857 2 | 3:18.08 | 9:14.04 | 14858 | 56411 3 | 12:32.12 | 2:22.11 | 56412 | 67072 4 | 14:54.23 | 9:17.54 | 67073 | 108901 5 | 24:12.02 | 4:20.49 | 108902 | 128450 6 | 28:32.51 | 1:06.43 | 128451 | 133443 7 | 29:39.19 | 1:17.44 | 133444 | 139262 8 | 30:56.63 | 0:53.52 | 139263 | 143289 9 | 31:50.40 | 4:17.60 | 143290 | 162624 10 | 36:08.25 | 2:43.21 | 162625 | 174870 11 | 38:51.46 | 1:37.46 | 174871 | 182191 12 | 40:29.17 | 0:45.32 | 182192 | 185598 13 | 41:14.49 | 0:37.08 | 185599 | 188381 14 | 41:51.57 | 0:40.62 | 188382 | 191443 15 | 42:32.44 | 1:47.01 | 191444 | 199469 16 | 44:19.45 | 1:32.58 | 199470 | 206427 17 | 45:52.28 | 1:09.29 | 206428 | 211631 18 | 47:01.57 | 1:27.52 | 211632 | 218208 19 | 48:29.34 | 1:09.71 | 218209 | 223454 20 | 49:39.30 | 1:47.00 | 223455 | 231479 21 | 51:26.30 | 2:07.53 | 231480 | 241057 22 | 53:34.08 | 2:09.31 | 241058 | 250763 23 | 55:43.39 | 0:53.63 | 250764 | 254801 24 | 56:37.27 | 1:03.32 | 254802 | 259558 25 | 57:40.59 | 1:48.12 | 259559 | 267670 26 | 59:28.71 | 0:17.18 | 267671 | 268963 27 | 59:46.14 | 2:01.25 | 268964 | 278063 28 | 61:47.39 | 2:14.67 | 278064 | 288180 29 | 64:02.31 | 1:59.64 | 288181 | 297169 30 | 66:02.20 | 1:11.28 | 297170 | 302522 31 | 67:13.48 | 0:59.01 | 302523 | 306948 32 | 68:12.49 | 1:04.35 | 306949 | 311783 33 | 69:17.09 | 1:55.55 | 311784 | 320463 34 | 71:12.64 | 1:41.07 | 320464 | 328045 35 | 72:53.71 | 1:29.08 | 328046 | 334728
Range status and errors
Selected range
Filename D:\temp\pics\Le Domaine Musical - Volume 2\Le Domaine Musical - Vol.2 - CD2.wav
Peak level 96.9 % Range quality 100.0 % Copy CRC 9D8E4538 Copy OK
No errors occurred
End of status report

Лог создания рипа: CD3

Exact Audio Copy V0.99 prebeta 5 from 4. May 2009
EAC extraction logfile from 28. April 2011, 18:34
Pierre Boulez / Pierre Boulez: Le Domaine Musical 1956-1967 - Vol.2 - CD3
Used drive : Optiarc DVD+-RW AD-5170S Adapter: 1 ID: 2
Read mode : SecureUtilize accurate stream : YesDefeat audio cache : YesMake use of C2 pointers : No
Read offset correction : 48Overread into Lead-In and Lead-Out : NoFill up missing offset samples with silence : YesDelete leading and trailing silent blocks : NoNull samples used in CRC calculations : NoUsed interface : Native Win32 interface for Win NT & 2000
Used output format : User Defined EncoderSelected bitrate : 768 kBit/sQuality : HighAdd ID3 tag : NoCommand line compressor : C:\Program Files\Exact Audio Copy\FLAC\FLAC.EXEAdditional command line options : -6 -V -T "ARTIST=%a" -T "TITLE=%t" -T "ALBUM=%g" -T "DATE=%y" -T "TRACKNUMBER=%n" -T "GENRE=%m" -T "COMMENT=%e" %s -o %d
TOC of the extracted CD
Track | Start | Length | Start sector | End sector --------------------------------------------------------- 1 | 0:00.00 | 8:27.35 | 0 | 38059 2 | 8:27.35 | 5:02.00 | 38060 | 60709 3 | 13:29.35 | 5:32.20 | 60710 | 85629 4 | 19:01.55 | 8:31.26 | 85630 | 123980 5 | 27:33.06 | 17:15.57 | 123981 | 201662 6 | 44:48.63 | 0:58.25 | 201663 | 206037 7 | 45:47.13 | 1:05.46 | 206038 | 210958 8 | 46:52.59 | 2:04.39 | 210959 | 220297 9 | 48:57.23 | 1:16.44 | 220298 | 226041 10 | 50:13.67 | 1:08.23 | 226042 | 231164 11 | 51:22.15 | 1:56.12 | 231165 | 239876 12 | 53:18.27 | 2:12.43 | 239877 | 249819 13 | 55:30.70 | 2:00.59 | 249820 | 258878 14 | 57:31.54 | 4:20.21 | 258879 | 278399 15 | 61:52.00 | 1:42.25 | 278400 | 286074 16 | 63:34.25 | 2:46.03 | 286075 | 298527 17 | 66:20.28 | 2:05.24 | 298528 | 307926 18 | 68:25.52 | 1:07.37 | 307927 | 312988 19 | 69:33.14 | 3:23.14 | 312989 | 328227 20 | 72:56.28 | 1:25.54 | 328228 | 334656
Range status and errors
Selected range
Filename D:\temp\pics\Le Domaine Musical - Volume 2\Le Domaine Musical - Vol.2 - CD3.wav
Peak level 100.0 % Range quality 99.9 % Copy CRC 41584C51 Copy OK
No errors occurred
End of status report

Лог создания рипа: CD4

Exact Audio Copy V0.99 prebeta 5 from 4. May 2009
EAC extraction logfile from 28. April 2011, 19:12
Pierre Boulez / Pierre Boulez: Le Domaine Musical 1956-1967 - Vol.2 - CD4
Used drive : Optiarc DVD+-RW AD-5170S Adapter: 1 ID: 2
Read mode : SecureUtilize accurate stream : YesDefeat audio cache : YesMake use of C2 pointers : No
Read offset correction : 48Overread into Lead-In and Lead-Out : NoFill up missing offset samples with silence : YesDelete leading and trailing silent blocks : NoNull samples used in CRC calculations : NoUsed interface : Native Win32 interface for Win NT & 2000
Used output format : User Defined EncoderSelected bitrate : 768 kBit/sQuality : HighAdd ID3 tag : NoCommand line compressor : C:\Program Files\Exact Audio Copy\FLAC\FLAC.EXEAdditional command line options : -6 -V -T "ARTIST=%a" -T "TITLE=%t" -T "ALBUM=%g" -T "DATE=%y" -T "TRACKNUMBER=%n" -T "GENRE=%m" -T "COMMENT=%e" %s -o %d
TOC of the extracted CD
Track | Start | Length | Start sector | End sector --------------------------------------------------------- 1 | 0:00.00 | 4:15.22 | 0 | 19146 2 | 4:15.22 | 6:31.49 | 19147 | 48520 3 | 10:46.71 | 3:36.53 | 48521 | 64773 4 | 14:23.49 | 2:49.23 | 64774 | 77471 5 | 17:12.72 | 6:28.25 | 77472 | 106596 6 | 23:41.22 | 2:14.44 | 106597 | 116690 7 | 25:55.66 | 4:56.59 | 116691 | 138949 8 | 30:52.50 | 7:03.70 | 138950 | 170744 9 | 37:56.45 | 6:13.26 | 170745 | 198745 10 | 44:09.71 | 5:05.31 | 198746 | 221651 11 | 49:15.27 | 6:15.24 | 221652 | 249800 12 | 55:30.51 | 1:36.63 | 249801 | 257063 13 | 57:07.39 | 0:38.65 | 257064 | 259978 14 | 57:46.29 | 3:01.34 | 259979 | 273587 15 | 60:47.63 | 6:50.18 | 273588 | 304355 16 | 67:38.06 | 2:43.40 | 304356 | 316620
Range status and errors
Selected range
Filename D:\temp\pics\Le Domaine Musical - Volume 2\Le Domaine Musical - Vol.2 - CD4.wav
Peak level 100.0 % Range quality 99.9 % Copy CRC C4F4D5B1 Copy OK
No errors occurred
End of status report
Доп. информация:
Второго диска пока нет
[teatrix.ru].t10028.torrent 
Торрент: Зарегистрирован [ 2015-10-25 20:37 ] · FCA7191DB5209C2321831901F06A5B96B55C5AF2

Скачать .torrent

Скачать

31 KB

Статус: проверено
Скачан: 0 раз
Размер: 1.3 GB
terms.php



Быстрый ответ

Имя:

      
Для отправки сообщений необходимо включить JavaScript
Показать сообщения:    

Текущее время: 03-Дек 16:44

Часовой пояс: UTC + 3


Вы можете начинать темы
Вы можете отвечать на сообщения
Вы не можете редактировать свои сообщения
Вы не можете удалять свои сообщения
Вы не можете голосовать в опросах
Вы не можете прикреплять файлы к сообщениям
Вы можете скачивать файлы