(classical / piano) Martha Argerich and Friends: Live from Lugano 2010: Schumann, Chopin, Liszt, Korngold, Bartok, Granados, Стравинский, Gerschwin, Шнитке - 2011, FLAC (image+.cue) lossless


Статистика раздачи [Обновить пиров]
Размер:  1002 MB   |    Зарегистрирован:  1 год 1 месяц   |    Скачан:  0 раз

Полного источника не было: Никогда

 
   
 
 
 

[Цитировать]

Martha Argerich and Friends: Live from Lugano 2010-- Жанр: classical / piano
Страна-производитель диска: EU
Год издания диска: 2011
Издатель (лейбл): EMI
Номер по каталогу: 50999 0 70836 2 4
Дата записи: июнь 2010
Аудиокодек: FLAC
Тип рипа: image+.cue
Битрейт аудио: lossless
Продолжительность: 80.33 + 80.38 + 78.53
Источник: собственный рип
Наличие сканов в содержимом раздачи: да

Треклист и исполнители

CD1
Р. Шуман
Соната для скрипки и фортепиано a-moll op.105
1. Mit leidenschaftlichem Ausdruck
2. Allegretto
3. Lebhaft
R. Capucon (скрипка), M. Argerich (фортепиано)
Ф. Шопен
4. Рондо C-dur op.73
N. Angelich, L. Maisky (фортепиано)
И. Брамс
5. Вариации на тему Шумана op.23
N. Angelich, L. Maisky (фортепиано)
Ф. Шопен
Концерт для фортепиано с оркестром №1 e -moll op.11
6. Allegro maestoso
7. Romance. Larghetto
8. Rondo. Vivace
M. Argerich (фортепиано)
Orchestra della Svizzera Italiana
Дирижер J. Kaspszyk

CD2
Р. Шуман
Adagio und Allegro op.70
1. Langsam, mit innigem Ausdruck
2. Allegro, rasch und feurig
G. Capucon (виолончель), M. Argerich (фортепиано)
Ф. Лист
3. Прелюды (авторское переложение для двух фортепиано)
M. Argerich, D. Rivera (фортепиано)
Э. Корнгольд
Фортепианный квинтет E-dur op.15
4. Maessiges Zeitmass, mit schwungvoll bluehendem Ausdruck
5. Adagio: mit groesster Ruhe, stets ausserst ausdrucksvoll
6. Finale: Gemessen, beinahe pathetisch
А. Могилевский (фортепиано), А. Маргулис, L. Hall (скрипки), Н. Романова-Шварцберг (альт), М. Дробинский (виолончель)
Б. Барток
Соната для двух фортепиано и ударных
7. Assai lento - Allegro molto
8. Lento ma non troppo - Un poco piu andante - Agitato
9. Allegro non troppo
M. Argerich, S, Kovacevich (фортепиано), L. Sauvetre, D. Grassi (ударные)
CD3
Э. Гранадос
Фортепианный квинтет g-moll op.49
1. Allegro
2. Allegretto quasi andantino
3. Largo - Molto presto
G. Montero (фортепиано), А. Маргулис, G. Hosszu-Legozky (скрипки), L. Chen (альт), Н. Маргулис (виолончель)
И. Стравинский
Жар-птица, сюита из балета
4. Introduction
5. Dance and variations
6. The Princesses` Dance
7. Infernal Dance of King Kashchei
8. Berceuse (Firebird`s Lullaby)
9. Finale
G. Tomassi, C.-M. Griguoli, A. Stella (фортепиано)
G. Gershwin - P. Grainger
10. Фантазия на темы из "Порги и Бесс" для двух фортепиано
G. Montero, A. Gurning (фортепиано)
А. Шнитке
Фортепианный квинтет op.108
11. Moderato
12. In tempo di valse
13. Andante
14. Lento
15. Moderato pastorale
Л. Зильберштейн (фортепиано), Д. Шварцберг, L. Hall (скрипки), L. Chen (альт), J. Bosso (виолончель)

Лог создания рипаCD1

X Lossless Decoder version 20100904 (120.7)
XLD extraction logfile from 2011-03-30 18:08:05 +0400
Различные исполнители / Martha Argerich & Friends CD1
Used drive : MATSHITA DVD-R UJ-898 (revision HA07)
Use cdparanoia mode : YES (CDParanoia III 10.2 engine)
Disable audio cache : OK for the drive with cache less than 2750KB
Make use of C2 pointers : NO
Read offset correction : 102
Max retry count : 100
Gap status : Analyzed, Appended
TOC of the extracted CD
Track | Start | Length | Start sector | End sector
---------------------------------------------------------
1 | 00:00:00 | 07:19:66 | 0 | 32990
2 | 07:19:66 | 03:52:39 | 32991 | 50429
3 | 11:12:30 | 05:15:13 | 50430 | 74067
4 | 16:27:43 | 09:03:70 | 74068 | 114862
5 | 25:31:38 | 16:39:23 | 114863 | 189810
6 | 42:10:61 | 19:28:58 | 189811 | 277468
7 | 61:39:44 | 09:19:07 | 277469 | 319400
8 | 70:58:51 | 09:34:24 | 319401 | 362474
All Tracks
Filename : /Users/aleksandr/Music/Argerich & Friends/Martha Argerich & Friends CD1.flac
CRC32 hash (test run) : 811F5B3F
CRC32 hash : 811F5B3F
CRC32 hash (skip zero) : 611E610F
Statistics
Read error : 0
Skipped (treated as error) : 0
Edge jitter error (maybe fixed) : 0
Atom jitter error (maybe fixed) : 0
Drift error (maybe fixed) : 0
Dropped bytes error (maybe fixed) : 0
Duplicated bytes error (maybe fixed) : 0
Inconsistency in error sectors : 0
Track 01
Pre-gap length : 00:02:00
CRC32 hash (test run) : F95F6108
CRC32 hash : F95F6108
CRC32 hash (skip zero) : E4EDB346
AccurateRip signature : 65AC6576
->Track not present in AccurateRip database.
Statistics
Read error : 0
Skipped (treated as error) : 0
Edge jitter error (maybe fixed) : 0
Atom jitter error (maybe fixed) : 0
Drift error (maybe fixed) : 0
Dropped bytes error (maybe fixed) : 0
Duplicated bytes error (maybe fixed) : 0
Inconsistency in error sectors : 0
Track 02
CRC32 hash (test run) : A65DCD48
CRC32 hash : A65DCD48
CRC32 hash (skip zero) : FC956824
AccurateRip signature : 5C579E0C
->Track not present in AccurateRip database.
Statistics
Read error : 0
Skipped (treated as error) : 0
Edge jitter error (maybe fixed) : 0
Atom jitter error (maybe fixed) : 0
Drift error (maybe fixed) : 0
Dropped bytes error (maybe fixed) : 0
Duplicated bytes error (maybe fixed) : 0
Inconsistency in error sectors : 0
Track 03
CRC32 hash (test run) : A92F31AB
CRC32 hash : A92F31AB
CRC32 hash (skip zero) : 00A4CDC4
AccurateRip signature : 770BEF16
->Track not present in AccurateRip database.
Statistics
Read error : 0
Skipped (treated as error) : 0
Edge jitter error (maybe fixed) : 0
Atom jitter error (maybe fixed) : 0
Drift error (maybe fixed) : 0
Dropped bytes error (maybe fixed) : 0
Duplicated bytes error (maybe fixed) : 0
Inconsistency in error sectors : 0
Track 04
Pre-gap length : 00:05:60
CRC32 hash (test run) : 05ACF477
CRC32 hash : 05ACF477
CRC32 hash (skip zero) : 91550A9C
AccurateRip signature : B98129B5
->Track not present in AccurateRip database.
Statistics
Read error : 0
Skipped (treated as error) : 0
Edge jitter error (maybe fixed) : 0
Atom jitter error (maybe fixed) : 0
Drift error (maybe fixed) : 0
Dropped bytes error (maybe fixed) : 0
Duplicated bytes error (maybe fixed) : 0
Inconsistency in error sectors : 0
Track 05
Pre-gap length : 00:05:60
CRC32 hash (test run) : ACDC5FCD
CRC32 hash : ACDC5FCD
CRC32 hash (skip zero) : E9A2D6B1
AccurateRip signature : 35EE9DBD
->Track not present in AccurateRip database.
Statistics
Read error : 0
Skipped (treated as error) : 0
Edge jitter error (maybe fixed) : 0
Atom jitter error (maybe fixed) : 0
Drift error (maybe fixed) : 0
Dropped bytes error (maybe fixed) : 0
Duplicated bytes error (maybe fixed) : 0
Inconsistency in error sectors : 0
Track 06
Pre-gap length : 00:05:60
CRC32 hash (test run) : 86086186
CRC32 hash : 86086186
CRC32 hash (skip zero) : D8496EDD
AccurateRip signature : E134FEED
->Track not present in AccurateRip database.
Statistics
Read error : 0
Skipped (treated as error) : 0
Edge jitter error (maybe fixed) : 0
Atom jitter error (maybe fixed) : 0
Drift error (maybe fixed) : 0
Dropped bytes error (maybe fixed) : 0
Duplicated bytes error (maybe fixed) : 0
Inconsistency in error sectors : 0
Track 07
CRC32 hash (test run) : 7117245C
CRC32 hash : 7117245C
CRC32 hash (skip zero) : D0527EC4
AccurateRip signature : ED62E2DB
->Track not present in AccurateRip database.
Statistics
Read error : 0
Skipped (treated as error) : 0
Edge jitter error (maybe fixed) : 0
Atom jitter error (maybe fixed) : 0
Drift error (maybe fixed) : 0
Dropped bytes error (maybe fixed) : 0
Duplicated bytes error (maybe fixed) : 0
Inconsistency in error sectors : 0
Track 08
CRC32 hash (test run) : CF7F661B
CRC32 hash : CF7F661B
CRC32 hash (skip zero) : DE84374B
AccurateRip signature : CC81262E
->Track not present in AccurateRip database.
Statistics
Read error : 0
Skipped (treated as error) : 0
Edge jitter error (maybe fixed) : 0
Atom jitter error (maybe fixed) : 0
Drift error (maybe fixed) : 0
Dropped bytes error (maybe fixed) : 0
Duplicated bytes error (maybe fixed) : 0
Inconsistency in error sectors : 0
No errors occurred
End of status report

CD2

X Lossless Decoder version 20100904 (120.7)
XLD extraction logfile from 2011-03-30 20:41:41 +0400
Различные исполнители / Martha Argerich & Friends CD2
Used drive : MATSHITA DVD-R UJ-898 (revision HA07)
Use cdparanoia mode : YES (CDParanoia III 10.2 engine)
Disable audio cache : OK for the drive with cache less than 2750KB
Make use of C2 pointers : NO
Read offset correction : 102
Max retry count : 100
Gap status : Analyzed, Appended
TOC of the extracted CD
Track | Start | Length | Start sector | End sector
---------------------------------------------------------
1 | 00:00:00 | 03:48:08 | 0 | 17107
2 | 03:48:08 | 05:02:05 | 17108 | 39762
3 | 08:50:13 | 15:32:01 | 39763 | 109663
4 | 24:22:14 | 10:32:71 | 109664 | 157134
5 | 34:55:10 | 10:35:20 | 157135 | 204779
6 | 45:30:30 | 08:05:37 | 204780 | 241191
7 | 53:35:67 | 13:25:22 | 241192 | 301588
8 | 67:01:14 | 06:39:56 | 301589 | 331569
9 | 73:40:70 | 06:57:05 | 331570 | 362849
All Tracks
Filename : /Volumes/           /Martha Argerich & Friends CD2.flac
CRC32 hash (test run) : 0B516B8F
CRC32 hash : 0B516B8F
CRC32 hash (skip zero) : FAAB4AEC
Statistics
Read error : 0
Skipped (treated as error) : 0
Edge jitter error (maybe fixed) : 0
Atom jitter error (maybe fixed) : 0
Drift error (maybe fixed) : 0
Dropped bytes error (maybe fixed) : 0
Duplicated bytes error (maybe fixed) : 0
Inconsistency in error sectors : 0
Track 01
Pre-gap length : 00:02:00
CRC32 hash (test run) : 475729CC
CRC32 hash : 475729CC
CRC32 hash (skip zero) : B2BCE53F
AccurateRip signature : 1BA3F78A
->Track not present in AccurateRip database.
Statistics
Read error : 0
Skipped (treated as error) : 0
Edge jitter error (maybe fixed) : 0
Atom jitter error (maybe fixed) : 0
Drift error (maybe fixed) : 0
Dropped bytes error (maybe fixed) : 0
Duplicated bytes error (maybe fixed) : 0
Inconsistency in error sectors : 0
Track 02
CRC32 hash (test run) : 6D8CF81C
CRC32 hash : 6D8CF81C
CRC32 hash (skip zero) : 093E7C8E
AccurateRip signature : 334316AC
->Track not present in AccurateRip database.
Statistics
Read error : 0
Skipped (treated as error) : 0
Edge jitter error (maybe fixed) : 0
Atom jitter error (maybe fixed) : 0
Drift error (maybe fixed) : 0
Dropped bytes error (maybe fixed) : 0
Duplicated bytes error (maybe fixed) : 0
Inconsistency in error sectors : 0
Track 03
Pre-gap length : 00:05:60
CRC32 hash (test run) : 0B191890
CRC32 hash : 0B191890
CRC32 hash (skip zero) : 5CA66A9D
AccurateRip signature : C886C817
->Track not present in AccurateRip database.
Statistics
Read error : 0
Skipped (treated as error) : 0
Edge jitter error (maybe fixed) : 0
Atom jitter error (maybe fixed) : 0
Drift error (maybe fixed) : 0
Dropped bytes error (maybe fixed) : 0
Duplicated bytes error (maybe fixed) : 0
Inconsistency in error sectors : 0
Track 04
Pre-gap length : 00:05:60
CRC32 hash (test run) : 1408A14D
CRC32 hash : 1408A14D
CRC32 hash (skip zero) : 948F71A8
AccurateRip signature : AF42F0FF
->Track not present in AccurateRip database.
Statistics
Read error : 0
Skipped (treated as error) : 0
Edge jitter error (maybe fixed) : 0
Atom jitter error (maybe fixed) : 0
Drift error (maybe fixed) : 0
Dropped bytes error (maybe fixed) : 0
Duplicated bytes error (maybe fixed) : 0
Inconsistency in error sectors : 0
Track 05
CRC32 hash (test run) : E9F3CA96
CRC32 hash : E9F3CA96
CRC32 hash (skip zero) : 5FA39B85
AccurateRip signature : DB9C0552
->Track not present in AccurateRip database.
Statistics
Read error : 0
Skipped (treated as error) : 0
Edge jitter error (maybe fixed) : 0
Atom jitter error (maybe fixed) : 0
Drift error (maybe fixed) : 0
Dropped bytes error (maybe fixed) : 0
Duplicated bytes error (maybe fixed) : 0
Inconsistency in error sectors : 0
Track 06
CRC32 hash (test run) : 05A424A3
CRC32 hash : 05A424A3
CRC32 hash (skip zero) : 89266120
AccurateRip signature : 150B4106
->Track not present in AccurateRip database.
Statistics
Read error : 0
Skipped (treated as error) : 0
Edge jitter error (maybe fixed) : 0
Atom jitter error (maybe fixed) : 0
Drift error (maybe fixed) : 0
Dropped bytes error (maybe fixed) : 0
Duplicated bytes error (maybe fixed) : 0
Inconsistency in error sectors : 0
Track 07
Pre-gap length : 00:05:60
CRC32 hash (test run) : 0A519A0B
CRC32 hash : 0A519A0B
CRC32 hash (skip zero) : 8442A744
AccurateRip signature : 86E03A97
->Track not present in AccurateRip database.
Statistics
Read error : 0
Skipped (treated as error) : 0
Edge jitter error (maybe fixed) : 0
Atom jitter error (maybe fixed) : 0
Drift error (maybe fixed) : 0
Dropped bytes error (maybe fixed) : 0
Duplicated bytes error (maybe fixed) : 0
Inconsistency in error sectors : 0
Track 08
CRC32 hash (test run) : A8336EF3
CRC32 hash : A8336EF3
CRC32 hash (skip zero) : C3061FE0
AccurateRip signature : E45F5E84
->Track not present in AccurateRip database.
Statistics
Read error : 0
Skipped (treated as error) : 0
Edge jitter error (maybe fixed) : 0
Atom jitter error (maybe fixed) : 0
Drift error (maybe fixed) : 0
Dropped bytes error (maybe fixed) : 0
Duplicated bytes error (maybe fixed) : 0
Inconsistency in error sectors : 0
Track 09
CRC32 hash (test run) : 55CE25CB
CRC32 hash : 55CE25CB
CRC32 hash (skip zero) : E4B48752
AccurateRip signature : 66353A9F
->Track not present in AccurateRip database.
Statistics
Read error : 0
Skipped (treated as error) : 0
Edge jitter error (maybe fixed) : 0
Atom jitter error (maybe fixed) : 0
Drift error (maybe fixed) : 0
Dropped bytes error (maybe fixed) : 0
Duplicated bytes error (maybe fixed) : 0
Inconsistency in error sectors : 0
No errors occurred
End of status report

CD3

X Lossless Decoder version 20100904 (120.7)
XLD extraction logfile from 2011-03-30 21:39:35 +0400
Различные исполнители / Martha Argerich & Friends CD3
Used drive : MATSHITA DVD-R UJ-898 (revision HA07)
Use cdparanoia mode : YES (CDParanoia III 10.2 engine)
Disable audio cache : OK for the drive with cache less than 2750KB
Make use of C2 pointers : NO
Read offset correction : 102
Max retry count : 100
Gap status : Analyzed, Appended
TOC of the extracted CD
Track | Start | Length | Start sector | End sector
---------------------------------------------------------
1 | 00:00:00 | 04:52:50 | 0 | 21949
2 | 04:52:50 | 05:07:67 | 21950 | 45041
3 | 10:00:42 | 04:33:31 | 45042 | 65547
4 | 14:33:73 | 02:31:45 | 65548 | 76917
5 | 17:05:43 | 01:26:71 | 76918 | 83438
6 | 18:32:39 | 03:57:58 | 83439 | 101271
7 | 22:30:22 | 04:21:65 | 101272 | 120911
8 | 26:52:12 | 02:41:58 | 120912 | 133044
9 | 29:33:70 | 02:43:26 | 133045 | 145295
10 | 32:17:21 | 16:26:11 | 145296 | 219256
11 | 48:43:32 | 06:33:52 | 219257 | 248783
12 | 55:17:09 | 07:09:68 | 248784 | 281026
13 | 62:27:02 | 07:01:52 | 281027 | 312653
14 | 69:28:54 | 04:37:51 | 312654 | 333479
15 | 74:06:30 | 04:46:45 | 333480 | 354974
All Tracks
Filename : /Volumes/           /Martha Argerich & Friends CD3.flac
CRC32 hash (test run) : 155B9587
CRC32 hash : 155B9587
CRC32 hash (skip zero) : 055B123A
Statistics
Read error : 0
Skipped (treated as error) : 0
Edge jitter error (maybe fixed) : 0
Atom jitter error (maybe fixed) : 0
Drift error (maybe fixed) : 0
Dropped bytes error (maybe fixed) : 0
Duplicated bytes error (maybe fixed) : 0
Inconsistency in error sectors : 0
Track 01
Pre-gap length : 00:02:00
CRC32 hash (test run) : 15D29972
CRC32 hash : 15D29972
CRC32 hash (skip zero) : 165F0FCE
AccurateRip signature : ACC81187
->Track not present in AccurateRip database.
Statistics
Read error : 0
Skipped (treated as error) : 0
Edge jitter error (maybe fixed) : 0
Atom jitter error (maybe fixed) : 0
Drift error (maybe fixed) : 0
Dropped bytes error (maybe fixed) : 0
Duplicated bytes error (maybe fixed) : 0
Inconsistency in error sectors : 0
Track 02
CRC32 hash (test run) : 58EA3F5F
CRC32 hash : 58EA3F5F
CRC32 hash (skip zero) : D644EDB6
AccurateRip signature : 810CDD64
->Track not present in AccurateRip database.
Statistics
Read error : 0
Skipped (treated as error) : 0
Edge jitter error (maybe fixed) : 0
Atom jitter error (maybe fixed) : 0
Drift error (maybe fixed) : 0
Dropped bytes error (maybe fixed) : 0
Duplicated bytes error (maybe fixed) : 0
Inconsistency in error sectors : 0
Track 03
CRC32 hash (test run) : 3BB507FD
CRC32 hash : 3BB507FD
CRC32 hash (skip zero) : 27ECFB55
AccurateRip signature : 4522CF2A
->Track not present in AccurateRip database.
Statistics
Read error : 0
Skipped (treated as error) : 0
Edge jitter error (maybe fixed) : 0
Atom jitter error (maybe fixed) : 0
Drift error (maybe fixed) : 0
Dropped bytes error (maybe fixed) : 0
Duplicated bytes error (maybe fixed) : 0
Inconsistency in error sectors : 0
Track 04
Pre-gap length : 00:05:60
CRC32 hash (test run) : 5410914B
CRC32 hash : 5410914B
CRC32 hash (skip zero) : DA8C8CEE
AccurateRip signature : 17EE7F50
->Track not present in AccurateRip database.
Statistics
Read error : 0
Skipped (treated as error) : 0
Edge jitter error (maybe fixed) : 0
Atom jitter error (maybe fixed) : 0
Drift error (maybe fixed) : 0
Dropped bytes error (maybe fixed) : 0
Duplicated bytes error (maybe fixed) : 0
Inconsistency in error sectors : 0
Track 05
CRC32 hash (test run) : 3804C318
CRC32 hash : 3804C318
CRC32 hash (skip zero) : 38622C99
AccurateRip signature : 0FFD55C6
->Track not present in AccurateRip database.
Statistics
Read error : 0
Skipped (treated as error) : 0
Edge jitter error (maybe fixed) : 0
Atom jitter error (maybe fixed) : 0
Drift error (maybe fixed) : 0
Dropped bytes error (maybe fixed) : 0
Duplicated bytes error (maybe fixed) : 0
Inconsistency in error sectors : 0
Track 06
CRC32 hash (test run) : 5D58EEB0
CRC32 hash : 5D58EEB0
CRC32 hash (skip zero) : EF0E6907
AccurateRip signature : 365A304D
->Track not present in AccurateRip database.
Statistics
Read error : 0
Skipped (treated as error) : 0
Edge jitter error (maybe fixed) : 0
Atom jitter error (maybe fixed) : 0
Drift error (maybe fixed) : 0
Dropped bytes error (maybe fixed) : 0
Duplicated bytes error (maybe fixed) : 0
Inconsistency in error sectors : 0
Track 07
CRC32 hash (test run) : 8EB89F01
CRC32 hash : 8EB89F01
CRC32 hash (skip zero) : 00EF8010
AccurateRip signature : E476C9A9
->Track not present in AccurateRip database.
Statistics
Read error : 0
Skipped (treated as error) : 0
Edge jitter error (maybe fixed) : 0
Atom jitter error (maybe fixed) : 0
Drift error (maybe fixed) : 0
Dropped bytes error (maybe fixed) : 0
Duplicated bytes error (maybe fixed) : 0
Inconsistency in error sectors : 0
Track 08
CRC32 hash (test run) : 9BE09DE8
CRC32 hash : 9BE09DE8
CRC32 hash (skip zero) : 71BF3AD9
AccurateRip signature : 84A417FB
->Track not present in AccurateRip database.
Statistics
Read error : 0
Skipped (treated as error) : 0
Edge jitter error (maybe fixed) : 0
Atom jitter error (maybe fixed) : 0
Drift error (maybe fixed) : 0
Dropped bytes error (maybe fixed) : 0
Duplicated bytes error (maybe fixed) : 0
Inconsistency in error sectors : 0
Track 09
CRC32 hash (test run) : 6D182D68
CRC32 hash : 6D182D68
CRC32 hash (skip zero) : E8A6DBC1
AccurateRip signature : 714A401F
->Track not present in AccurateRip database.
Statistics
Read error : 0
Skipped (treated as error) : 0
Edge jitter error (maybe fixed) : 0
Atom jitter error (maybe fixed) : 0
Drift error (maybe fixed) : 0
Dropped bytes error (maybe fixed) : 0
Duplicated bytes error (maybe fixed) : 0
Inconsistency in error sectors : 0
Track 10
Pre-gap length : 00:05:60
CRC32 hash (test run) : 90F3B906
CRC32 hash : 90F3B906
CRC32 hash (skip zero) : CA64086A
AccurateRip signature : B94F0D13
->Track not present in AccurateRip database.
Statistics
Read error : 0
Skipped (treated as error) : 0
Edge jitter error (maybe fixed) : 0
Atom jitter error (maybe fixed) : 0
Drift error (maybe fixed) : 0
Dropped bytes error (maybe fixed) : 0
Duplicated bytes error (maybe fixed) : 0
Inconsistency in error sectors : 0
Track 11
Pre-gap length : 00:05:60
CRC32 hash (test run) : 5CB046F8
CRC32 hash : 5CB046F8
CRC32 hash (skip zero) : 46C043D7
AccurateRip signature : 17C1E29E
->Track not present in AccurateRip database.
Statistics
Read error : 0
Skipped (treated as error) : 0
Edge jitter error (maybe fixed) : 0
Atom jitter error (maybe fixed) : 0
Drift error (maybe fixed) : 0
Dropped bytes error (maybe fixed) : 0
Duplicated bytes error (maybe fixed) : 0
Inconsistency in error sectors : 0
Track 12
CRC32 hash (test run) : ABC4CA23
CRC32 hash : ABC4CA23
CRC32 hash (skip zero) : D8099124
AccurateRip signature : A3EF270A
->Track not present in AccurateRip database.
Statistics
Read error : 0
Skipped (treated as error) : 0
Edge jitter error (maybe fixed) : 0
Atom jitter error (maybe fixed) : 0
Drift error (maybe fixed) : 0
Dropped bytes error (maybe fixed) : 0
Duplicated bytes error (maybe fixed) : 0
Inconsistency in error sectors : 0
Track 13
CRC32 hash (test run) : 18E67965
CRC32 hash : 18E67965
CRC32 hash (skip zero) : 79075E74
AccurateRip signature : 65739609
->Track not present in AccurateRip database.
Statistics
Read error : 0
Skipped (treated as error) : 0
Edge jitter error (maybe fixed) : 0
Atom jitter error (maybe fixed) : 0
Drift error (maybe fixed) : 0
Dropped bytes error (maybe fixed) : 0
Duplicated bytes error (maybe fixed) : 0
Inconsistency in error sectors : 0
Track 14
CRC32 hash (test run) : C8237221
CRC32 hash : C8237221
CRC32 hash (skip zero) : 68B35E2B
AccurateRip signature : EF949788
->Track not present in AccurateRip database.
Statistics
Read error : 0
Skipped (treated as error) : 0
Edge jitter error (maybe fixed) : 0
Atom jitter error (maybe fixed) : 0
Drift error (maybe fixed) : 0
Dropped bytes error (maybe fixed) : 0
Duplicated bytes error (maybe fixed) : 0
Inconsistency in error sectors : 0
Track 15
CRC32 hash (test run) : E3EA208D
CRC32 hash : E3EA208D
CRC32 hash (skip zero) : 1446BD28
AccurateRip signature : 2485E05C
->Track not present in AccurateRip database.
Statistics
Read error : 0
Skipped (treated as error) : 0
Edge jitter error (maybe fixed) : 0
Atom jitter error (maybe fixed) : 0
Drift error (maybe fixed) : 0
Dropped bytes error (maybe fixed) : 0
Duplicated bytes error (maybe fixed) : 0
Inconsistency in error sectors : 0
No errors occurred
End of status report
25 исполнителей, 12 произведений самых разных составов - от дуэта до фортепианного концерта, 4 часа музыки. Как и в прежние годы, великая и прекрасная Марта собрала в Лугано своих друзей. Чтобы немножко помузицировать.
[teatrix.ru].t10030.torrent 
Торрент: Зарегистрирован [ 2015-10-25 20:37 ] · 5C5693C4BA7731538BB3513DEC0F9D8B7E9A1CF6

Скачать .torrent

Скачать

21 KB

Статус: проверено
Скачан: 0 раз
Размер: 1002 MB
terms.php



Быстрый ответ

Имя:

      
Для отправки сообщений необходимо включить JavaScript
Показать сообщения:    

Текущее время: 04-Дек 02:54

Часовой пояс: UTC + 3


Вы можете начинать темы
Вы можете отвечать на сообщения
Вы не можете редактировать свои сообщения
Вы не можете удалять свои сообщения
Вы не можете голосовать в опросах
Вы не можете прикреплять файлы к сообщениям
Вы можете скачивать файлы