(Classical / Piano) Johannes Brahms - Works for piano (Ballades, Sonatas 2 & 3, Scherzo, Variations on a Theme by Handel & Paganini, Piano concertos 1 & 2) (Claudio Arrau, Bernard Haitink) [Arrau Heritage, 4CD] - 2003, FLAC (image+.cue) l


Статистика раздачи [Обновить пиров]
Размер:  1.05 GB   |    Зарегистрирован:  1 год 1 месяц   |    Скачан:  1 раз

Полного источника не было: 17 дней

 
   
 
 
 

[Цитировать]

Johannes Brahms
Works for piano
Жанр: Classical / Piano
Страна-производитель диска: France
Год издания диска: 2003
Издатель (лейбл): Philips
Номер по каталогу: 475 024-2
Дата записи: 1969-1978
Аудиокодек: FLAC
Тип рипа: image+.cue
Битрейт аудио: lossless
Продолжительность: 78:12+77:30+52:38+50:37
Источник: web
Наличие сканов в содержимом раздачи: да
Треклист:

CD1

Ballades op. 10
1. No 1 in D minor. Andante-Allegro-Andante
2. No 2 in D major. Andante-Allegro non troppo-Molto staccato e legiero-Andante
3. No 3 in B minor. Intermezzo-Allegro
4. No 4 in B major. Andante con moto
5. Variations on a Theme by Handel in B flat, op. 24
Variations on a Theme by Paganini in A minor, op. 35
6. Book 1
7. Book 2

CD2

Sonata No 2 in F sharp minor,op. 2
1. Allegro non troppo
2. Andante
3. Sherzo
4. Finale - Allegro non troppo e rubato
Sonata No 3 in F minor, op. 5
5. Allegro maestoso
6. Andante
7. Scherzo
8. Intermezzo
9. Finale
10. Scherzo in E flat minor, op. 4

CD3

Piano concerto No 1 in D minor, op. 15
1. Maestoso - Poco piu moderato
2. Adagio
3. Rondo (Allegro non troppo - Piu animato - Tempo I)

CD4

Piano concerto No 2 in B flat, op. 83
1. Allegro non troppo
2. Allegro appassionato
3. Andante - Piu adagio
4. Allegretto grazioso - Un poco piu presto
Исполнители:
Claudio Arrau - piano
Royal Concertgebouw Orchestra, Amsterdam (CD3, CD4)
Conductor: Bernard Haitink
(CD3, CD4)

Лог создания рипаCD1

Exact Audio Copy V0.99 prebeta 4 from 23. January 2008
EAC extraction logfile from 3. July 2008, 16:04
Brahms / Claudio Arrau CD1
Used drive : HL-DT-STDVD-ROM GDRH20N Adapter: 7 ID: 0
Read mode : SecureUtilize accurate stream : YesDefeat audio cache : YesMake use of C2 pointers : No
Read offset correction : 102Overread into Lead-In and Lead-Out : NoFill up missing offset samples with silence : YesDelete leading and trailing silent blocks : NoNull samples used in CRC calculations : YesUsed interface : Installed external ASPI interface
Used output format : User Defined EncoderSelected bitrate : 128 kBit/sQuality : HighAdd ID3 tag : NoCommand line compressor : D:\Program files\Exact Audio Copy\Flac\flac.exeAdditional command line options : -T "artist=%a" -T "title=%t" -T "album=%g" -T "date=%y" -T "tracknumber=%n" -T "genre=%m" -5 -V %s
TOC of the extracted CD
Track | Start | Length | Start sector | End sector --------------------------------------------------------- 1 | 0:00.00 | 3:55.37 | 0 | 17661 2 | 3:55.37 | 7:35.38 | 17662 | 51824 3 | 11:31.00 | 3:21.00 | 51825 | 66899 4 | 14:52.00 | 9:22.74 | 66900 | 109123 5 | 24:14.74 | 29:09.00 | 109124 | 240298 6 | 53:23.74 | 14:09.00 | 240299 | 303973 7 | 67:32.74 | 11:28.74 | 303974 | 355647
Range status and errors
Selected range
Filename G:\CDs\Brahms - Claudio Arrau CD1.wav
Peak level 99.4 % Range quality 99.9 % Copy CRC F3A086CC Copy OK
No errors occurred
End of status report

CD2

Exact Audio Copy V0.99 prebeta 4 from 23. January 2008
EAC extraction logfile from 3. July 2008, 16:22
Brahms / Claudio Arrau - CD 2
Used drive : HL-DT-STDVD-ROM GDRH20N Adapter: 7 ID: 0
Read mode : SecureUtilize accurate stream : YesDefeat audio cache : YesMake use of C2 pointers : No
Read offset correction : 102Overread into Lead-In and Lead-Out : NoFill up missing offset samples with silence : YesDelete leading and trailing silent blocks : NoNull samples used in CRC calculations : YesUsed interface : Installed external ASPI interface
Used output format : User Defined EncoderSelected bitrate : 128 kBit/sQuality : HighAdd ID3 tag : NoCommand line compressor : D:\Program files\Exact Audio Copy\Flac\flac.exeAdditional command line options : -T "artist=%a" -T "title=%t" -T "album=%g" -T "date=%y" -T "tracknumber=%n" -T "genre=%m" -5 -V %s
TOC of the extracted CD
Track | Start | Length | Start sector | End sector --------------------------------------------------------- 1 | 0:00.00 | 6:26.00 | 0 | 28949 2 | 6:26.00 | 5:22.25 | 28950 | 53124 3 | 11:48.25 | 3:52.50 | 53125 | 70574 4 | 15:41.00 | 12:16.00 | 70575 | 125774 5 | 27:57.00 | 10:41.00 | 125775 | 173849 6 | 38:38.00 | 13:48.00 | 173850 | 235949 7 | 52:26.00 | 4:58.00 | 235950 | 258299 8 | 57:24.00 | 4:16.00 | 258300 | 277499 9 | 61:40.00 | 7:47.00 | 277500 | 312524 10 | 69:27.00 | 9:22.74 | 312525 | 354748
Range status and errors
Selected range
Filename G:\CDs\Brahms - Claudio Arrau - CD 2.wav
Peak level 97.5 % Range quality 100.0 % Copy CRC 9651534A Copy OK
No errors occurred
End of status report

CD3

Exact Audio Copy V0.99 prebeta 4 from 23. January 2008
EAC extraction logfile from 3. July 2008, 16:31
Claudio Arrau / Brahms - Arrau Heritage (Disc 3 of 4)
Used drive : HL-DT-STDVD-ROM GDRH20N Adapter: 7 ID: 0
Read mode : SecureUtilize accurate stream : YesDefeat audio cache : YesMake use of C2 pointers : No
Read offset correction : 102Overread into Lead-In and Lead-Out : NoFill up missing offset samples with silence : YesDelete leading and trailing silent blocks : NoNull samples used in CRC calculations : YesUsed interface : Installed external ASPI interface
Used output format : User Defined EncoderSelected bitrate : 128 kBit/sQuality : HighAdd ID3 tag : NoCommand line compressor : D:\Program files\Exact Audio Copy\Flac\flac.exeAdditional command line options : -T "artist=%a" -T "title=%t" -T "album=%g" -T "date=%y" -T "tracknumber=%n" -T "genre=%m" -5 -V %s
TOC of the extracted CD
Track | Start | Length | Start sector | End sector --------------------------------------------------------- 1 | 0:00.00 | 24:19.00 | 0 | 109424 2 | 24:19.00 | 15:53.00 | 109425 | 180899 3 | 40:12.00 | 13:00.00 | 180900 | 239399
Range status and errors
Selected range
Filename G:\CDs\Brahms - Claudio Arrau - CD 3.wav
Peak level 99.9 % Range quality 100.0 % Copy CRC 1C651B57 Copy OK
No errors occurred
End of status report

CD4

Exact Audio Copy V0.99 prebeta 4 from 23. January 2008
EAC extraction logfile from 3. July 2008, 16:41
Claudio Arrau / Brahms - Arrau Heritage (Disc 4 of 4)
Used drive : HL-DT-STDVD-ROM GDRH20N Adapter: 7 ID: 0
Read mode : SecureUtilize accurate stream : YesDefeat audio cache : YesMake use of C2 pointers : No
Read offset correction : 102Overread into Lead-In and Lead-Out : NoFill up missing offset samples with silence : YesDelete leading and trailing silent blocks : NoNull samples used in CRC calculations : YesUsed interface : Installed external ASPI interface
Used output format : User Defined EncoderSelected bitrate : 128 kBit/sQuality : HighAdd ID3 tag : NoCommand line compressor : D:\Program files\Exact Audio Copy\Flac\flac.exeAdditional command line options : -T "artist=%a" -T "title=%t" -T "album=%g" -T "date=%y" -T "tracknumber=%n" -T "genre=%m" -5 -V %s
TOC of the extracted CD
Track | Start | Length | Start sector | End sector --------------------------------------------------------- 1 | 0:00.00 | 19:19.38 | 0 | 86962 2 | 19:19.38 | 9:22.37 | 86963 | 129149 3 | 28:42.00 | 12:09.38 | 129150 | 183862 4 | 40:51.38 | 10:06.25 | 183863 | 229337
Range status and errors
Selected range
Filename G:\CDs\Brahms - Claudio Arrau - CD 4.wav
Peak level 99.1 % Range quality 100.0 % Copy CRC 1E0E2F37 Copy OK
No errors occurred
End of status report
[teatrix.ru].t10032.torrent 
Торрент: Зарегистрирован [ 2015-10-25 20:37 ] · 7E493FE0447AA35A6E67D97A4171B0402F18CAC4

Скачать .torrent

Скачать

13 KB

Статус: проверено
Скачан: 1 раз
Размер: 1.05 GB
terms.php



Быстрый ответ

Имя:

      
Для отправки сообщений необходимо включить JavaScript
Показать сообщения:    

Текущее время: 06-Дек 11:14

Часовой пояс: UTC + 3


Вы можете начинать темы
Вы можете отвечать на сообщения
Вы не можете редактировать свои сообщения
Вы не можете удалять свои сообщения
Вы не можете голосовать в опросах
Вы не можете прикреплять файлы к сообщениям
Вы можете скачивать файлы