(Chamber) Janacek Quartet - The Complete Recordings on DG (Beethoven, Brahms, Dvorak, Haydn, Janacek, Mendelssohn, Mozart, Smetana) - 2002, FLAC (image+.cue) lossless


Статистика раздачи [Обновить пиров]
Размер:  1.73 GB   |    Зарегистрирован:  1 год 1 месяц   |    Скачан:  1 раз

Полного источника не было: 8 дней

 
   
 
 
 

[Цитировать]

JANÁČEK QUARTET - the complete recordings on dg
beethoven • brahms • dvořák • haydn • janáček • mendelssohn • mozart • smetana

-
-
-
--Жанр: Chamber
Страна-производитель диска: EU
Год издания диска: 2002
Издатель (лейбл): DGG
Дата записи: 50s
Аудиокодек: FLAC
Тип рипа: image+.cue
Битрейт аудио: lossless
Продолжительность: 7:08'55''
Источник: собственный рип
Наличие сканов в содержимом раздачи: да
Треклист:

CD1

[1-4] Wolfgang Amadeus Mozart - String Quartet G-Dur, K.387
rec. Hanover, Beethoven-Saal, 8. - 9.03.1956
[5-8] Joseph Haydn - String Quartet C-Dur, op.33 No.3 "Vogel-Quartett"
rec. Hanover, Beethoven-Saal, 9.06.1958

Лог создания рипа

Exact Audio Copy V0.99 prebeta 5 from 4. May 2009
EAC extraction logfile from 10. February 2011, 15:14
Janacek Quartet / The Complete Recordings On DG (CD1)
Used drive : Optiarc DVD RW AD-5200A Adapter: 0 ID: 0
Read mode : SecureUtilize accurate stream : YesDefeat audio cache : YesMake use of C2 pointers : No
Read offset correction : 48Overread into Lead-In and Lead-Out : NoFill up missing offset samples with silence : YesDelete leading and trailing silent blocks : NoNull samples used in CRC calculations : YesUsed interface : Native Win32 interface for Win NT & 2000
Used output format : Internal WAV RoutinesSample format : 44.100 Hz; 16 Bit; Stereo
TOC of the extracted CD
Track | Start | Length | Start sector | End sector --------------------------------------------------------- 1 | 0:00.00 | 7:21.20 | 0 | 33094 2 | 7:21.20 | 7:28.10 | 33095 | 66704 3 | 14:49.30 | 8:28.69 | 66705 | 104873 4 | 23:18.24 | 5:55.51 | 104874 | 131549 5 | 29:14.00 | 7:38.09 | 131550 | 165908 6 | 36:52.09 | 3:30.66 | 165909 | 181724 7 | 40:23.00 | 7:42.07 | 181725 | 216381 8 | 48:05.07 | 3:05.68 | 216382 | 230324
Range status and errors
Selected range
Filename D:\Musiс\Performers\Janacek Quartet\CD1\Janacek Quartet - The Complete Recordings On DG (CD1).wav
Peak level 73.3 % Range quality 100.0 % Test CRC 3159A32E Copy CRC 3159A32E Copy OK
No errors occurred
AccurateRip summary
Track 1 accurately ripped (confidence 3) [3C02288E]Track 2 accurately ripped (confidence 3) [B96BB682]Track 3 accurately ripped (confidence 3) [BB0D1B8E]Track 4 accurately ripped (confidence 3) [9D07C760]Track 5 accurately ripped (confidence 3) [4D357E33]Track 6 accurately ripped (confidence 3) [1DE66D40]Track 7 accurately ripped (confidence 3) [EA4E2762]Track 8 accurately ripped (confidence 3) [A0D7AE6F]
All tracks accurately ripped
End of status report______________Ripped from original CD by el coronel, rutracker.org

Содержание индексной карты (.CUE)

REM GENRE ClassicalREM DATE 2002REM DISCID 660BFF08REM COMMENT "ExactAudioCopy v0.99pb5"PERFORMER "Janacek Quartet"TITLE "The Complete Recordings On DG (CD1)"FILE "Janacek Quartet - The Complete Recordings On DG (CD1).flac" WAVE TRACK 01 AUDIO TITLE "Mozart - String Quartet in G, K.387: 1. Allegro vivace assai" PERFORMER "Janacek Quartet" INDEX 01 00:00:00 TRACK 02 AUDIO TITLE "Mozart - String Quartet in G, K.387: 2. Menuetto. Allegretto - Trio" PERFORMER "Janacek Quartet" INDEX 01 07:21:20 TRACK 03 AUDIO TITLE "Mozart - String Quartet in G, K.387: 3. Andante cantabile" PERFORMER "Janacek Quartet" INDEX 01 14:49:30 TRACK 04 AUDIO TITLE "Mozart - String Quartet in G, K.387: 4. Molto Allegro" PERFORMER "Janacek Quartet" INDEX 01 23:18:24 TRACK 05 AUDIO TITLE "Haydn - String Quartet in C, op. 33 No. 3 'The Bird': 1. Allegro moderato" PERFORMER "Janacek Quartet" INDEX 00 29:05:36 INDEX 01 29:14:00 TRACK 06 AUDIO TITLE "Haydn - String Quartet in C, op. 33 No. 3 'The Bird': 2. Scherzo - Trio" PERFORMER "Janacek Quartet" INDEX 01 36:52:09 TRACK 07 AUDIO TITLE "Haydn - String Quartet in C, op. 33 No. 3 'The Bird': 3. Adagio" PERFORMER "Janacek Quartet" INDEX 01 40:23:00 TRACK 08 AUDIO TITLE "Haydn - String Quartet in C, op. 33 No. 3 'The Bird': 4. Finale. Rondo - Presto" PERFORMER "Janacek Quartet" INDEX 01 48:05:07

CD2

[1-4] Joseph Haydn - String Quartet Es-Dur, op.33 No.2 "Der Scherz"
rec. Vienna, Sofiensaal, 05.1963
[5-8] Joseph Haydn - String Quartet F-Dur, op.3 No.5 "Serenade"
rec. Vienna, Sofiensaal, 05.1963
[9-12] Joseph Haydn - String Quartet d-moll, op.76 No.2 "Quintenquartett"
rec. Vienna, Sofiensaal, 05.1963

Лог создания рипа

Exact Audio Copy V0.99 prebeta 5 from 4. May 2009
EAC extraction logfile from 10. February 2011, 15:54
Janacek Quartet / The Complete Recordings On DG (CD2)
Used drive : Optiarc DVD RW AD-5200A Adapter: 0 ID: 0
Read mode : SecureUtilize accurate stream : YesDefeat audio cache : YesMake use of C2 pointers : No
Read offset correction : 48Overread into Lead-In and Lead-Out : NoFill up missing offset samples with silence : YesDelete leading and trailing silent blocks : NoNull samples used in CRC calculations : YesUsed interface : Native Win32 interface for Win NT & 2000
Used output format : Internal WAV RoutinesSample format : 44.100 Hz; 16 Bit; Stereo
TOC of the extracted CD
Track | Start | Length | Start sector | End sector --------------------------------------------------------- 1 | 0:00.00 | 5:20.06 | 0 | 24005 2 | 5:20.06 | 3:05.04 | 24006 | 37884 3 | 8:25.10 | 6:16.60 | 37885 | 66144 4 | 14:41.70 | 3:30.31 | 66145 | 81925 5 | 18:12.26 | 4:42.29 | 81926 | 103104 6 | 22:54.55 | 4:17.07 | 103105 | 122386 7 | 27:11.62 | 2:58.08 | 122387 | 135744 8 | 30:09.70 | 3:16.45 | 135745 | 150489 9 | 33:26.40 | 6:50.55 | 150490 | 181294 10 | 40:17.20 | 5:25.55 | 181295 | 205724 11 | 45:43.00 | 3:39.62 | 205725 | 222211 12 | 49:22.62 | 4:18.65 | 222212 | 241626
Range status and errors
Selected range
Filename D:\Musiс\Performers\Janacek Quartet\CD2\Janacek Quartet - The Complete Recordings On DG (CD2).wav
Peak level 94.1 % Range quality 99.9 % Test CRC B615F8CE Copy CRC B615F8CE Copy OK
No errors occurred
AccurateRip summary
Track 1 accurately ripped (confidence 3) [44FE3B01]Track 2 accurately ripped (confidence 3) [E8FC16DF]Track 3 accurately ripped (confidence 3) [41CB0C96]Track 4 accurately ripped (confidence 3) [A1848C9C]Track 5 accurately ripped (confidence 3) [471A7F4D]Track 6 accurately ripped (confidence 3) [C2F970C2]Track 7 accurately ripped (confidence 3) [AC5A8A77]Track 8 accurately ripped (confidence 3) [89237D31]Track 9 accurately ripped (confidence 3) [B6A462C2]Track 10 accurately ripped (confidence 3) [A070826D]Track 11 accurately ripped (confidence 3) [503C22BF]Track 12 accurately ripped (confidence 3) [96E5F8C9]
All tracks accurately ripped
End of status report______________Ripped from original CD by el coronel, rutracker.org

Содержание индексной карты (.CUE)

REM GENRE ClassicalREM DATE 1963REM DISCID A00C950CREM COMMENT "ExactAudioCopy v0.99pb5"PERFORMER "Janacek Quartet"TITLE "The Complete Recordings On DG (CD2)"FILE "Janacek Quartet - The Complete Recordings On DG (CD2).flac" WAVE TRACK 01 AUDIO TITLE "Haydn - String Quartet in Es, op. 33 No. 2 'TheJoke': 1. Allegro moderato" PERFORMER "Janacek Quartet" INDEX 01 00:00:00 TRACK 02 AUDIO TITLE "Haydn - String Quartet in Es, op. 33 No. 2 'TheJoke': 2. Scherzando - Trio" PERFORMER "Janacek Quartet" INDEX 01 05:20:06 TRACK 03 AUDIO TITLE "Haydn - String Quartet in Es, op. 33 No. 2 'TheJoke': 3. Largo" PERFORMER "Janacek Quartet" INDEX 01 08:25:10 TRACK 04 AUDIO TITLE "Haydn - String Quartet in Es, op. 33 No. 2 'TheJoke': 4. Finale. Presto" PERFORMER "Janacek Quartet" INDEX 01 14:41:70 TRACK 05 AUDIO TITLE "Haydn - String Quartet in F, op. 3 No. 5 'Serenade': 1. Presto" PERFORMER "Janacek Quartet" INDEX 00 18:03:00 INDEX 01 18:12:26 TRACK 06 AUDIO TITLE "Haydn - String Quartet in F, op. 3 No. 5 'Serenade': 2. Andante cantabile" PERFORMER "Janacek Quartet" INDEX 01 22:54:55 TRACK 07 AUDIO TITLE "Haydn - String Quartet in F, op. 3 No. 5 'Serenade': 3. Menuetto - Trio" PERFORMER "Janacek Quartet" INDEX 01 27:11:62 TRACK 08 AUDIO TITLE "Haydn - String Quartet in F, op. 3 No. 5 'Serenade': 4. Scherzando" PERFORMER "Janacek Quartet" INDEX 01 30:09:70 TRACK 09 AUDIO TITLE "Haydn - String Quartet in d, op. 76 No. 2 'Fifths': 1. Allegro" PERFORMER "Janacek Quartet" INDEX 00 33:17:02 INDEX 01 33:26:40 TRACK 10 AUDIO TITLE "Haydn - String Quartet in d, op. 76 No. 2 'Fifths': 2. Andante o piu tosto al..." PERFORMER "Janacek Quartet" INDEX 01 40:17:20 TRACK 11 AUDIO TITLE "Haydn - String Quartet in d, op. 76 No. 2 'Fifths': 3. Menuetto - Trio" PERFORMER "Janacek Quartet" INDEX 01 45:43:00 TRACK 12 AUDIO TITLE "Haydn - String Quartet in d, op. 76 No. 2 'Fifths': 4. Finale. Vivace assai" PERFORMER "Janacek Quartet" INDEX 01 49:22:62

CD3

[1-4] *Felix Mendelssohn - Octet Es-Dur, op.20
rec. Vienna, Konzerthaus, Mozartsaal, 06.1959
[5-8] Ludwig van Beethoven - String Quartet e-moll, op.59 No.2 "Razumovsky"
rec. Vienna, Konzerthaus, Mozartsaal, 06.1959

Лог создания рипа

Exact Audio Copy V0.99 prebeta 5 from 4. May 2009
EAC extraction logfile from 17. February 2011, 15:18
Janacek Quartet + Smetana Quartet / The Complete Recordings on Deutsche Grammophon
Used drive : Optiarc DVD RW AD-5200A Adapter: 0 ID: 0
Read mode : SecureUtilize accurate stream : YesDefeat audio cache : YesMake use of C2 pointers : No
Read offset correction : 48Overread into Lead-In and Lead-Out : NoFill up missing offset samples with silence : YesDelete leading and trailing silent blocks : NoNull samples used in CRC calculations : YesUsed interface : Native Win32 interface for Win NT & 2000
Used output format : Internal WAV RoutinesSample format : 44.100 Hz; 16 Bit; Stereo
TOC of the extracted CD
Track | Start | Length | Start sector | End sector --------------------------------------------------------- 1 | 0:00.00 | 15:01.22 | 0 | 67596 2 | 15:01.22 | 8:11.63 | 67597 | 104484 3 | 23:13.10 | 4:45.66 | 104485 | 125925 4 | 27:59.01 | 6:05.19 | 125926 | 153319 5 | 34:04.20 | 9:40.69 | 153320 | 196888 6 | 43:45.14 | 13:52.11 | 196889 | 259299 7 | 57:37.25 | 8:32.40 | 259300 | 297739 8 | 66:09.65 | 5:50.25 | 297740 | 324014
Range status and errors
Selected range
Filename D:\Musiс\Performers\Janacek Quartet\CD3\Janacek Quartet + Smetana Quartet - The Complete Recordings on Deutsche Grammophon.wav
Peak level 100.0 % Range quality 100.0 % Test CRC 8B4BFAC6 Copy CRC 8B4BFAC6 Copy OK
No errors occurred
AccurateRip summary
Track 1 accurately ripped (confidence 3) [AD87CE65]Track 2 accurately ripped (confidence 3) [A91D4D26]Track 3 accurately ripped (confidence 3) [D2B71C5F]Track 4 accurately ripped (confidence 3) [42785D85]Track 5 accurately ripped (confidence 3) [D2C41C60]Track 6 accurately ripped (confidence 3) [55692576]Track 7 accurately ripped (confidence 3) [BC72FFF3]Track 8 accurately ripped (confidence 3) [714DEEBB]
All tracks accurately ripped
End of status report______________Ripped from original CD by el coronel, rutracker.org

Содержание индексной карты (.CUE)

REM GENRE "Chamber Music"REM DISCID 7610E008REM COMMENT "ExactAudioCopy v0.99pb5"PERFORMER "Janacek Quartet + Smetana Quartet"TITLE "The Complete Recordings on Deutsche Grammophon "FILE "Janacek Quartet + Smetana Quartet - The Complete Recordings on Deutsche Grammophon.flac" WAVE TRACK 01 AUDIO TITLE "Mendelssohn - Octet in E flat Major, op. 20: 1. Allegro moderato ma con fuoco" PERFORMER "Janacek Quartet + Smetana Quartet" INDEX 01 00:00:00 TRACK 02 AUDIO TITLE "Mendelssohn - Octet in E flat Major, op. 20: 2. Andante" PERFORMER "Janacek Quartet + Smetana Quartet" INDEX 01 15:01:22 TRACK 03 AUDIO TITLE "Mendelssohn - Octet in E flat Major, op. 20: 3. Scherzo" PERFORMER "Janacek Quartet + Smetana Quartet" INDEX 01 23:13:10 TRACK 04 AUDIO TITLE "Mendelssohn - Octet in E flat Major, op. 20: 4. Presto" PERFORMER "Janacek Quartet + Smetana Quartet" INDEX 01 27:59:01 TRACK 05 AUDIO TITLE "Beethoven - Quartet in E minor, op. 59 no. 2 'Razumovsky': 1. Allegro" PERFORMER "Janacek Quartet + Smetana Quartet" INDEX 01 34:04:20 TRACK 06 AUDIO TITLE "Beethoven - Quartet in E minor, op. 59 no. 2 'Razumovsky': 2. Molto adagio" PERFORMER "Janacek Quartet + Smetana Quartet" INDEX 01 43:45:14 TRACK 07 AUDIO TITLE "Beethoven - Quartet in E minor, op. 59 no. 2 'Razumovsky': 3. Allegretto" PERFORMER "Janacek Quartet + Smetana Quartet" INDEX 01 57:37:25 TRACK 08 AUDIO TITLE "Beethoven - Quartet in E minor, op. 59 no. 2 'Razumovsky': 4. Finale" PERFORMER "Janacek Quartet + Smetana Quartet" INDEX 01 66:09:65

CD4

[1-4] **Johannes Brahms - Piano Quintet f-moll, op.34
rec. Hannover, Beethovensaal, 5. - 7.06.1958
[5-8] **Antonin Dvorak - Piano Quintet A-Dur, op.81
rec. Hannover, Beethovensaal, 12. - 14.02.1957

Лог создания рипа

Exact Audio Copy V0.99 prebeta 5 from 4. May 2009
EAC extraction logfile from 2. March 2011, 16:24
Janacek Quartet, Eva Bernathova / The Complete Recordings On DG (CD4)
Used drive : Optiarc DVD RW AD-5200A Adapter: 0 ID: 0
Read mode : SecureUtilize accurate stream : YesDefeat audio cache : YesMake use of C2 pointers : No
Read offset correction : 48Overread into Lead-In and Lead-Out : NoFill up missing offset samples with silence : YesDelete leading and trailing silent blocks : NoNull samples used in CRC calculations : YesUsed interface : Native Win32 interface for Win NT & 2000
Used output format : Internal WAV RoutinesSample format : 44.100 Hz; 16 Bit; Stereo
TOC of the extracted CD
Track | Start | Length | Start sector | End sector --------------------------------------------------------- 1 | 0:00.00 | 14:52.60 | 0 | 66959 2 | 14:52.60 | 8:51.74 | 66960 | 106858 3 | 23:44.59 | 7:25.72 | 106859 | 140305 4 | 31:10.56 | 10:12.08 | 140306 | 186213 5 | 41:22.64 | 10:12.22 | 186214 | 232135 6 | 51:35.11 | 11:02.55 | 232136 | 281840 7 | 62:37.66 | 4:33.33 | 281841 | 302348 8 | 67:11.24 | 7:07.51 | 302349 | 334424
Range status and errors
Selected range
Filename D:\Musiс\Performers\Janacek Quartet\CD4\Janacek Quartet, Eva Bernathova - The Complete Recordings On DG (CD4).wav
Peak level 99.9 % Range quality 100.0 % Test CRC DC91DB84 Copy CRC DC91DB84 Copy OK
No errors occurred
AccurateRip summary
Track 1 accurately ripped (confidence 3) [FD39D7D9]Track 2 accurately ripped (confidence 3) [7111A628]Track 3 accurately ripped (confidence 3) [3C2C2E85]Track 4 accurately ripped (confidence 3) [ADAD060A]Track 5 accurately ripped (confidence 3) [DCF1BB43]Track 6 accurately ripped (confidence 3) [1D7339D5]Track 7 accurately ripped (confidence 3) [E4A30EDA]Track 8 accurately ripped (confidence 3) [75024C67]
All tracks accurately ripped
End of status report______________Ripped from original CD by el coronel, rutracker.org

Содержание индексной карты (.CUE)

REM GENRE "Chamber Music"REM DATE 2002REM DISCID 7D116B08REM COMMENT "ExactAudioCopy v0.99pb5"PERFORMER "Janacek Quartet, Eva Bernathova"TITLE "The Complete Recordings On DG (CD4)"FILE "Janacek Quartet, Eva Bernathova - The Complete Recordings On DG (CD4).flac" WAVE TRACK 01 AUDIO TITLE "Brahms - Piano Quintet in F minor, op. 34: Allegro non troppo - Poco sostenut..." PERFORMER "Janacek Quartet, Eva Bernathova" INDEX 01 00:00:00 TRACK 02 AUDIO TITLE "Brahms - Piano Quintet in F minor, op. 34: Andante, un poco Adagio" PERFORMER "Janacek Quartet, Eva Bernathova" INDEX 01 14:52:60 TRACK 03 AUDIO TITLE "Brahms - Piano Quintet in F minor, op. 34: Scherzo. Allegro - Trio" PERFORMER "Janacek Quartet, Eva Bernathova" INDEX 01 23:44:59 TRACK 04 AUDIO TITLE "Brahms - Piano Quintet in F minor, op. 34: Finale" PERFORMER "Janacek Quartet, Eva Bernathova" INDEX 01 31:10:56 TRACK 05 AUDIO TITLE "Dvorak - Piano Quintet in A major, op. 81 (B. 155): Allegro, ma non tanto" PERFORMER "Janacek Quartet, Eva Bernathova" INDEX 00 41:15:20 INDEX 01 41:22:64 TRACK 06 AUDIO TITLE "Dvorak - Piano Quintet in A major, op. 81 (B. 155): Dumka: Andante con moto" PERFORMER "Janacek Quartet, Eva Bernathova" INDEX 01 51:35:11 TRACK 07 AUDIO TITLE "Dvorak - Piano Quintet in A major, op. 81 (B. 155): Scherzo (Furiant): Molto ..." PERFORMER "Janacek Quartet, Eva Bernathova" INDEX 01 62:37:66 TRACK 08 AUDIO TITLE "Dvorak - Piano Quintet in A major, op. 81 (B. 155): Finale: Allegro" PERFORMER "Janacek Quartet, Eva Bernathova" INDEX 01 67:11:24

CD5

[1-4] Antonin Dvorak - String Quartet d-moll, op.34
rec. Decca Studio No.3, 10.1963
[5-8] Antonin Dvorak - String Quartet F-Dur, op.96 "American"
rec. Decca Studio No.3, 10.1963

Лог создания рипа

Exact Audio Copy V0.99 prebeta 5 from 4. May 2009
EAC extraction logfile from 3. March 2011, 17:31
Janacek Quartet / The Complete Recordings On DG (CD5)
Used drive : Optiarc DVD RW AD-5200A Adapter: 0 ID: 0
Read mode : SecureUtilize accurate stream : YesDefeat audio cache : YesMake use of C2 pointers : No
Read offset correction : 48Overread into Lead-In and Lead-Out : NoFill up missing offset samples with silence : YesDelete leading and trailing silent blocks : NoNull samples used in CRC calculations : YesUsed interface : Native Win32 interface for Win NT & 2000
Used output format : Internal WAV RoutinesSample format : 44.100 Hz; 16 Bit; Stereo
TOC of the extracted CD
Track | Start | Length | Start sector | End sector --------------------------------------------------------- 1 | 0:00.00 | 8:45.00 | 0 | 39374 2 | 8:45.00 | 5:40.68 | 39375 | 64942 3 | 14:25.68 | 8:20.45 | 64943 | 102487 4 | 22:46.38 | 5:56.37 | 102488 | 129224 5 | 28:43.00 | 7:05.45 | 129225 | 161144 6 | 35:48.45 | 8:12.61 | 161145 | 198105 7 | 44:01.31 | 3:56.48 | 198106 | 215853 8 | 47:58.04 | 5:51.71 | 215854 | 242249
Range status and errors
Selected range
Filename D:\Musiс\Performers\Janacek Quartet\CD5\Janacek Quartet - The Complete Recordings On DG (CD5).wav
Peak level 84.6 % Range quality 99.9 % Test CRC 5A827228 Copy CRC 5A827228 Copy OK
No errors occurred
AccurateRip summary
Track 1 accurately ripped (confidence 3) [200BC009]Track 2 accurately ripped (confidence 3) [4AF3D214]Track 3 accurately ripped (confidence 3) [BF1F3FD0]Track 4 accurately ripped (confidence 3) [8EC2388E]Track 5 accurately ripped (confidence 3) [15604DD2]Track 6 accurately ripped (confidence 3) [BA4EC08A]Track 7 accurately ripped (confidence 3) [62B9F98D]Track 8 accurately ripped (confidence 3) [DCA82502]
All tracks accurately ripped
End of status report______________Ripped from original CD by el coronel, rutracker.org

Содержание индексной карты (.CUE)

REM GENRE ClassicalREM DATE 2002REM DISCID 6F0C9E08REM COMMENT "ExactAudioCopy v0.99pb5"PERFORMER "Janacek Quartet"TITLE "The Complete Recordings On DG (CD5)"FILE "Janacek Quartet - The Complete Recordings On DG (CD5).flac" WAVE TRACK 01 AUDIO TITLE "Dvorak: String Quartet in D minor, op. 34 (B. 75): Allegro" PERFORMER "Janacek Quartet" INDEX 01 00:00:00 TRACK 02 AUDIO TITLE "Dvorak: String Quartet in D minor, op. 34 (B. 75): : Allegretto scherzando - ..." PERFORMER "Janacek Quartet" INDEX 01 08:45:00 TRACK 03 AUDIO TITLE "Dvorak: String Quartet in D minor, op. 34 (B. 75): Adagio" PERFORMER "Janacek Quartet" INDEX 01 14:25:68 TRACK 04 AUDIO TITLE "Dvorak: String Quartet in D minor, op. 34 (B. 75): Finale: Poco allegro" PERFORMER "Janacek Quartet" INDEX 01 22:46:38 TRACK 05 AUDIO TITLE "Dvorak: String Quartet in F major, op. 96 'American' (B. 179): Allegro ma non..." PERFORMER "Janacek Quartet" INDEX 00 28:37:02 INDEX 01 28:43:00 TRACK 06 AUDIO TITLE "Dvorak: String Quartet in F major, op. 96 'American' (B. 179): Lento" PERFORMER "Janacek Quartet" INDEX 01 35:48:45 TRACK 07 AUDIO TITLE "Dvorak: String Quartet in F major, op. 96 'American' (B. 179): Molto vivace" PERFORMER "Janacek Quartet" INDEX 01 44:01:31 TRACK 08 AUDIO TITLE "Dvorak: String Quartet in F major, op. 96 'American' (B. 179): Finale: Vivace..." PERFORMER "Janacek Quartet" INDEX 01 47:58:04

CD6

[1-4] Antonin Dvorak - String Quartet Es-Dur, op.51
rec. Hannover, Beethovensaal, 16. - 18.02.1957
[5-8] Antonin Dvorak - String Quartet As-Dur, op.105
rec. Hannover, Beethovensaal, 16. - 18.02.1957

Лог создания рипа

Exact Audio Copy V0.99 prebeta 5 from 4. May 2009
EAC extraction logfile from 5. March 2011, 16:28
Janacek Quartet / The Complete Recordings On DG (CD6)
Used drive : Optiarc DVD RW AD-5200A Adapter: 0 ID: 0
Read mode : SecureUtilize accurate stream : YesDefeat audio cache : YesMake use of C2 pointers : No
Read offset correction : 48Overread into Lead-In and Lead-Out : NoFill up missing offset samples with silence : YesDelete leading and trailing silent blocks : NoNull samples used in CRC calculations : YesUsed interface : Native Win32 interface for Win NT & 2000
Used output format : Internal WAV RoutinesSample format : 44.100 Hz; 16 Bit; Stereo
TOC of the extracted CD
Track | Start | Length | Start sector | End sector --------------------------------------------------------- 1 | 0:00.00 | 8:20.72 | 0 | 37571 2 | 8:20.72 | 8:09.47 | 37572 | 74293 3 | 16:30.44 | 8:04.60 | 74294 | 110653 4 | 24:35.29 | 7:17.38 | 110654 | 143466 5 | 31:52.67 | 8:16.69 | 143467 | 180735 6 | 40:09.61 | 6:08.53 | 180736 | 208388 7 | 46:18.39 | 9:24.03 | 208389 | 250691 8 | 55:42.42 | 9:51.17 | 250692 | 295033
Range status and errors
Selected range
Filename D:\Musiс\Performers\Janacek Quartet\CD6\Janacek Quartet - The Complete Recordings On DG (CD6).wav
Peak level 99.1 % Range quality 100.0 % Test CRC 7FA0C756 Copy CRC 7FA0C756 Copy OK
No errors occurred
AccurateRip summary
Track 1 accurately ripped (confidence 3) [4C9B35EC]Track 2 accurately ripped (confidence 3) [F70CF7AC]Track 3 accurately ripped (confidence 3) [AE8B8EC0]Track 4 accurately ripped (confidence 3) [8010D5BA]Track 5 accurately ripped (confidence 3) [6847F745]Track 6 accurately ripped (confidence 3) [5DA4D63C]Track 7 accurately ripped (confidence 3) [7B3F63F4]Track 8 accurately ripped (confidence 3) [B9F1EC10]
All tracks accurately ripped
End of status report______________Ripped from original CD by el coronel, rutracker.org

Содержание индексной карты (.CUE)

REM GENRE ClassicalREM DATE 1950REM DISCID 660F5D08REM COMMENT "ExactAudioCopy v0.99pb5"PERFORMER "Janacek Quartet"TITLE "The Complete Recordings On DG (CD6)"FILE "Janacek Quartet - The Complete Recordings On DG (CD6).flac" WAVE TRACK 01 AUDIO TITLE "A.Dvorak: String Quartet in Es - 1. Allegro ma non troppo" PERFORMER "Janacek Quartet" INDEX 01 00:00:00 TRACK 02 AUDIO TITLE "A.Dvorak: String Quartet in Es - 2. Dumka" PERFORMER "Janacek Quartet" INDEX 01 08:20:72 TRACK 03 AUDIO TITLE "A.Dvorak: String Quartet in Es - 3. Romanza" PERFORMER "Janacek Quartet" INDEX 01 16:30:44 TRACK 04 AUDIO TITLE "A.Dvorak: String Quartet in Es - 4. Finale" PERFORMER "Janacek Quartet" INDEX 01 24:35:29 TRACK 05 AUDIO TITLE "A.Dvorak: String Quartet in As - 1. Adagio ma non troppo" PERFORMER "Janacek Quartet" INDEX 00 31:44:00 INDEX 01 31:52:67 TRACK 06 AUDIO TITLE "A.Dvorak: String Quartet in As - 2. Molto vivace" PERFORMER "Janacek Quartet" INDEX 01 40:09:61 TRACK 07 AUDIO TITLE "A.Dvorak: String Quartet in As - 3. Lento e molto cantabile" PERFORMER "Janacek Quartet" INDEX 01 46:18:39 TRACK 08 AUDIO TITLE "A.Dvorak: String Quartet in As - 4. Allegro non tanto" PERFORMER "Janacek Quartet" INDEX 01 55:42:42

CD7

[1-4] Bedrich Smetana - String Quartet No.1 e-moll "Z mého života"
rec. Hannover, Beethovensaal, 31.10., 1. and 3.11.1956
[5-8] Leos Janacek - String Quartet No.2 "Listy důvěrné"
rec. Hannover, Beethovensaal, 8. - 9.03.1956

Лог создания рипа

Exact Audio Copy V0.99 prebeta 5 from 4. May 2009
EAC extraction logfile from 10. March 2011, 13:23
Janбcek Quartet / The Complete Recordings On Deutsche Grammophon (CD7)
Used drive : Optiarc DVD RW AD-5200A Adapter: 0 ID: 0
Read mode : SecureUtilize accurate stream : YesDefeat audio cache : YesMake use of C2 pointers : No
Read offset correction : 48Overread into Lead-In and Lead-Out : NoFill up missing offset samples with silence : YesDelete leading and trailing silent blocks : NoNull samples used in CRC calculations : YesUsed interface : Native Win32 interface for Win NT & 2000
Used output format : Internal WAV RoutinesSample format : 44.100 Hz; 16 Bit; Stereo
TOC of the extracted CD
Track | Start | Length | Start sector | End sector --------------------------------------------------------- 1 | 0:00.00 | 8:00.04 | 0 | 36003 2 | 8:00.04 | 5:53.59 | 36004 | 62537 3 | 13:53.63 | 9:38.71 | 62538 | 105958 4 | 23:32.59 | 6:49.41 | 105959 | 136674 5 | 30:22.25 | 6:22.20 | 136675 | 165344 6 | 36:44.45 | 6:56.53 | 165345 | 196597 7 | 43:41.23 | 6:37.19 | 196598 | 226391 8 | 50:18.42 | 8:01.03 | 226392 | 262469
Range status and errors
Selected range
Filename D:\Musiс\Performers\Janacek Quartet\CD7\Janacek Quartet - The Complete Recordings On Deutsche Grammophon (CD7).wav
Peak level 97.9 % Range quality 100.0 % Test CRC 7CD21ABB Copy CRC 7CD21ABB Copy OK
No errors occurred
AccurateRip summary
Track 1 accurately ripped (confidence 3) [524D4A73]Track 2 accurately ripped (confidence 3) [6B511AD7]Track 3 accurately ripped (confidence 3) [2D65A01E]Track 4 accurately ripped (confidence 3) [4F6B6EFD]Track 5 accurately ripped (confidence 3) [346FFD77]Track 6 accurately ripped (confidence 3) [AF4AAF6B]Track 7 accurately ripped (confidence 3) [867A663E]Track 8 accurately ripped (confidence 3) [C55276C1]
All tracks accurately ripped
End of status report______________Ripped from original CD by el coronel, rutracker.org

Содержание индексной карты (.CUE)

REM GENRE ClassicalREM DATE 2002REM DISCID 550DAB08REM COMMENT "ExactAudioCopy v0.99pb5"PERFORMER "Janбcek Quartet"TITLE "The Complete Recordings On Deutsche Grammophon (CD7)"FILE "Janacek Quartet - The Complete Recordings On Deutsche Grammophon (CD7).flac" WAVE TRACK 01 AUDIO TITLE "Smetana: String Quartet No. 1 in E minor - 1. Allegro vivo appassionato" PERFORMER "Janбcek Quartet" INDEX 01 00:00:00 TRACK 02 AUDIO TITLE "Smetana: String Quartet No. 1 in E minor - 2. Allegro moderato alla Polka" PERFORMER "Janбcek Quartet" INDEX 01 08:00:04 TRACK 03 AUDIO TITLE "Smetana: String Quartet No. 1 in E minor - 3. Largo sostenuto" PERFORMER "Janбcek Quartet" INDEX 01 13:53:63 TRACK 04 AUDIO TITLE "Smetana: String Quartet No. 1 in E minor - 4. Vivace" PERFORMER "Janбcek Quartet" INDEX 01 23:32:59 TRACK 05 AUDIO TITLE "Janacek: String Quartet No. 2 - 1. Andante - Con Moto - Allegro" PERFORMER "Janбcek Quartet" INDEX 00 30:12:52 INDEX 01 30:22:25 TRACK 06 AUDIO TITLE "Janacek: String Quartet No. 2 - 2. Adagio - Vivace - Andante - Presto - Alleg..." PERFORMER "Janбcek Quartet" INDEX 01 36:44:45 TRACK 07 AUDIO TITLE "Janacek: String Quartet No. 2 - 3. Moderato - Adagio - Allegro" PERFORMER "Janбcek Quartet" INDEX 01 43:41:23 TRACK 08 AUDIO TITLE "Janacek: String Quartet No. 2 - 4. Andante - Con moto - Adagio - Tempo I" PERFORMER "Janбcek Quartet" INDEX 01 50:18:42
Исполнители:
Janáček Quartet
*Smetana Quartet
**Eva Bernáthová
- piano- -релиз группы:
[teatrix.ru].t10033.torrent 
Торрент: Зарегистрирован [ 2015-10-25 20:37 ] · 714F8E02EA83FBE6536574E2451FB88E98B3E3A3

Скачать .torrent

Скачать

20 KB

Статус: проверено
Скачан: 1 раз
Размер: 1.73 GB
terms.php



Быстрый ответ

Имя:

      
Для отправки сообщений необходимо включить JavaScript
Показать сообщения:    

Текущее время: 06-Дек 15:15

Часовой пояс: UTC + 3


Вы можете начинать темы
Вы можете отвечать на сообщения
Вы не можете редактировать свои сообщения
Вы не можете удалять свои сообщения
Вы не можете голосовать в опросах
Вы не можете прикреплять файлы к сообщениям
Вы можете скачивать файлы