(Baroque/Oratorio/Concerto/Suite) Handel - Water Music; Concerti grossi, Op.3; Israel in Egypt; The Ways of Zion Do Mourn; Semele (John Eliot Gardiner, D.Jones, N.Burrowes, C.Denley, A.Rolfe-Johnson) [6 CD] - 2007, FLAC (image+.cue) lossless


Статистика раздачи [Обновить пиров]
Размер:  1.8 GB   |    Зарегистрирован:  1 год 1 месяц   |    Скачан:  0 раз

Полного источника не было: Никогда

 
   
 
 
 

[Цитировать]

George Frideric Handel - Water Music; Concerti grossi, Op.3; Israel in Egypt; The Ways of Zion Do Mourn; Semele (John Eliot Gardiner, Della Jones, Norma Burrowes, Catherine Denley, Anthony Rolfe-Johnson)
Жанр: Baroque/Oratorio/Concerto/Suite
Страна-производитель диска: EU
Год издания диска: 2007
Издатель (лейбл): Erato
Номер по каталогу: 2564 69838-5
Дата записи: 1978-1981
Аудиокодек: FLAC
Тип рипа: image+.cue
Битрейт аудио: lossless
Продолжительность: 6h52’20’’
Источник: собственный рип
Наличие сканов в содержимом раздачи: да
Исполнители:
CD1: Water Music, HWV 348-350 (Manuscript: John Eliot Gardiner)
English Baroque Soloists
Conductor - John Eliot Gardiner
Запись: 1980 год
CD2: Concerti Grossi, Op.3 HWV 312-317
Sophia McKenna – oboe
Simon Standage, Elizabeth Wilcock – violins
Lisa Beznosiuk - flute
English Baroque Soloists
Conductor - John Eliot Gardiner
Запись: 1980 год
CDs 3 & 4: Israel in Egypt, HWV 54; The Ways of Zion Do Mourn, HWV 264
Monteverdi Choir and Orchestra
Conductor - John Eliot Gardiner
Запись: 1978 год
CDs 5 & 6: Semele, HWV 58
Jupiter - Anthony Rolfe-Johnson (tenor)
Cadmus, King of Thebes - Robert Lloyd (bass)
Athamas, a prince of Boeotia - Timothy Penrose (countertenor)
Somnus, god of sleep - David Thomas (bass)
Apollo - Maldwyn Davies (tenor)
Juno - Della Jones (mezzo-soprano)
Iris - Patrizia Kwella (soprano)
Semele, daughter to Cadmus - Norma Burrowes (soprano)
Ino, sister to Semele - Catherine Denley (contralto)
Cupid - Elisabeth Priday (soprano)
Choruses of Priests and Augurs, Loves and Zephyrs, Nymphs and Swains, Attendants
Monteverdi Choir
English Baroque Soloists
Conductor - John Eliot Gardiner
Запись: 1981 год

Треклист

CD1:
Water Music, HWV 348-350
1. Suite in F major, HWV 348: I. Alla hornpipe
2. II. Ouverture (Largo - Allegro)
3. III. Adagio e staccato
4. IV. (Menuet)
5. V. Andante
6. VI. Menuet (reprise)
7. VII. (Passepied)
8. VIII. Air
9. IX. Menuet
10. X. Bourree
11. XI. Hornpipe (Andante)
12. XII. (Allegro)
13. Suite in G major, HWV 349: I. (Menuet)
14. II. Rigaudon I & II
15. III. Menuet I & II
16. IV. (Gigue) I & II
17. Suite in D major, HWV 350: I. (Allegro)
18. II. Alla hornpipe
19. III. Menuet
20. IV. Lentement
21. V. Bourree
CD2:
Concerti Grossi, Op.3 HWV 312-317
1. Concerto grosso F-Dur, No.4a: I. Largo-Allegro
2. II. Andante
3. III. Allegro
4. IV. Menuet. Alternat: Allegro
5. Concerto grosso d-moll, No.5: I. Largo
6. II. Allegro
7. III. Adagio
8. IV. Allegro ma non troppo
9. V. Allegro
10. Concerto grosso D-Dur, No.6: I. Vivace
11. II. Allegro
12. Concerto grosso B-Dur, No.2: I. Vivace
13. II. Largo
14. III. Allegro
15. IV. Minute
16. V. Gavotte
17. Concerto grosso G-Dur, No.3: I. Largo e staccato-Allegro
18. II. Adagio-Allegro
19. Concerto grosso B-Dur, No.1: I. Allegro
20. II. Largo
21. III. Allegro
CD3:
Israel in Egypt, HWV 54
1. Ouverture: Lamentations of the Israelites for the death of Joseph
2. Exodus. Now here arose (recitative tenor)
3. And the children of Israel sighed by reason of the bondage (chorus)
4. Then sent He Moses (recitative tenor)
5. They loathed to drink (chorus)
6. Their land brought (aria countertenor)
7. He spake the word (chorus)
8. He gave them hailstones (chorus)
9. He sent a thick darkness (chorus)
10. He smote all the first-born (chorus)
11. But as for His people (chorus)
12. Egypt was glad (chorus)
13. He rebuked the Red Sea (chorus)
14. He led them (chorus)
15. But the waters (chorus)
16. And Israel saw (chorus)
17. And believed the Lord (chorus)
18. Moses' Song. Moses, and the children (introitus - chorus)
19. I will sing (chorus)
20. The Lord is my strength (duo sopranos)
21. He is my God (chorus)
22. And I will exhalt him (chorus)
23. The Lord is a man of war (duo basses)
24. The depths have covered them (chorus)
25. Thy right hand (chorus)
26. And in the greatness (chorus)
27. Thou sentest forth (chorus)
28. And with the blast (chorus)
29. The enemy said (aria tenor)
30. Thou didst blow (aria soprano)
CD4:
1. Who is like unto Thee (chorus)
2. The earth swallowed them (chorus)
3. Thou is thy mercy (duo countertenor, tenor)
4. The people shall hear (chorus)
5. Thou shalt bring (aria countertenor)
6. The Lord shall reign (chorus)
7. For the horse of Pharoah (recitative tenor)
8. The Lord shall reign (chorus)
9. And Miriam the prophetess (recitative tenor)
10. Sing ye to the Lord, for He hath triumphed gloriously! (soprano, chorus)
The Ways of Zion Do Mourn, HWV 264
11. The Ways of Zion Do Mourn: Sinfonia
12. The ways of Zion (chorus)
13. How are the mighty fall'n! (chorus)
14. She put on righteousness (chorus)
15. When the ear heard her (soli & chorus)
16. How are the mighty fall'n! (chorus)
17. She deliver'd the poor (chorus)
18. How are the mighty fall'n! (chorus)
19. The righteous shall be had (soli & chorus)
20. Their bodies are buried in peace (chorus)
21. The people will tell (chorus)
22. They shall receive a glorious kingdom (soli)
23. The merciful goodness of the Lord (chorus)
CD5:
Semele, HWV 58
1. Overture
2. Act I. Scene 1. Behold! Auspicious flashes rise (Priest)
3. Lucky omens bless our rites (Chorus, Cadmus, Athamas)
4. Ah, me! (Semele, Ino, Athamas)
5. Why dost thou thus untimely grieve (Cadmus, Ino, Athamas, Semele)
6. Avert these omens (chorus of priests, Cadmus, Athamas, Semele)
7. Cease, cease your vows (chorus of priests)
8. Scene 2. Oh, Athamas; what torture hast thou borne! (Athamas, Ino)
9. You've undone me (Ino, Athamas)
10. Scene 3. Ah, wretched prince (Cadmus, Athamas)
11. Scene 4. See, see! (Cadmus, chorus of priests and augurs)
12. Endless pleasure (Semele)
13. Endless pleasure (chorus)
14. Act II. Sinfonia / Iris, impatient of thy stay (Juno, Iris)
15. Scene 1. Look, where Cithaeron proudly stands (Iris, Juno)
16. Hence, Iris, hence away! (Juno)
17. Scene 2. Come, Zephyrs, come (Cupid, Semele)
18. Scene 3. Let me not another moment (Semele)
19. Lay your doubts (Jupiter)
20. With fond desiring (Semele)
21. How engaging (chorus of loves and zephyrs, Semele, Jupiter)
22. Too well I read her meaning (Jupiter)
23. Now Love (chorus of loves and zephyrs)
CD6:
1. Scene 3. By my command (Jupiter, Semele)
2. See, she appears (Jupiter)
3. Scene 4. Dear sister, how was your journey hither? (Semele, Ino)
4. Prepare then, ye immortal choir! (Semele, Ino)
5. Bless the glad earth (Chorus)
6. Act III. Scene 1. Somnus, awake! (Juno, Iris)
7. Leave me, loathsome light! (Somnus, Iris, Juno)
8. More sweet is that name (Somnus, Juno)
9. Obey my will (Juno, Somnus)
10. Scene 2. My racking thoughts (Semele)
11. Scene 3. Thus shap'd like Ino (Juno, Semele)
12. O ecstasy of happiness! (Semele, Juno)
13. Conjure him by his oath (Juno)
14. Thus let my thanks be pay'd (Semele, Juno)
15. Scene 4. Come to my arms (Jupiter)
16. I ever am granting (Semele, Jupiter)
17. Ah, take heed what you press! (Jupiter)
18. No, no, I'll take no less (Semele)
19. Scene 5. Ah, whither is she gone! (Jupiter)
20. Scene 6. Above measure is the pleasure (Juno)
21. Scene 7. Ah, me! too late I now repent (Semele)
22. Scene 8. Of my ill-boding dream (Ino, chorus)
23. Scene the Last. See from above the bellying clouds descend (Cadmus, Apollo)
24. Happy, happy shall we be (Chorus)

Лог создания рипаОтчёт EAC CD1

Exact Audio Copy V0.99 prebeta 5 from 4. May 2009
EAC extraction logfile from 7. January 2011, 22:58
John Eliot Gardiner - English Baroque Soloists / Handel - Water Music (Manuscript: J.E.Gardiner)
Used drive : PIONEER DVD-RW DVR-218L Adapter: 1 ID: 0
Read mode : SecureUtilize accurate stream : YesDefeat audio cache : YesMake use of C2 pointers : No
Read offset correction : 6Overread into Lead-In and Lead-Out : NoFill up missing offset samples with silence : YesDelete leading and trailing silent blocks : NoNull samples used in CRC calculations : YesUsed interface : Native Win32 interface for Win NT & 2000
Used output format : User Defined EncoderSelected bitrate : 768 kBit/sQuality : HighAdd ID3 tag : NoCommand line compressor : C:\Program Files\Exact Audio Copy\FLAC\FLAC.EXEAdditional command line options : -T "DATE=%y" -T "GENRE=%m" -8 -V %s
TOC of the extracted CD
Track | Start | Length | Start sector | End sector --------------------------------------------------------- 1 | 0:00.00 | 4:15.00 | 0 | 19124 2 | 4:15.00 | 3:11.67 | 19125 | 33516 3 | 7:26.67 | 2:03.00 | 33517 | 42741 4 | 9:29.67 | 2:13.53 | 42742 | 52769 5 | 11:43.45 | 2:18.18 | 52770 | 63137 6 | 14:01.63 | 2:18.35 | 63138 | 73522 7 | 16:20.23 | 3:19.07 | 73523 | 88454 8 | 19:39.30 | 3:50.49 | 88455 | 105753 9 | 23:30.04 | 2:19.14 | 105754 | 116192 10 | 25:49.18 | 2:19.70 | 116193 | 126687 11 | 28:09.13 | 3:35.28 | 126688 | 142840 12 | 31:44.41 | 4:37.72 | 142841 | 163687 13 | 36:22.38 | 2:51.40 | 163688 | 176552 14 | 39:14.03 | 3:05.25 | 176553 | 190452 15 | 42:19.28 | 4:23.31 | 190453 | 210208 16 | 46:42.59 | 1:37.26 | 210209 | 217509 17 | 48:20.10 | 2:01.62 | 217510 | 226646 18 | 50:21.72 | 4:01.66 | 226647 | 244787 19 | 54:23.63 | 1:22.66 | 244788 | 251003 20 | 55:46.54 | 2:02.25 | 251004 | 260178 21 | 57:49.04 | 1:11.04 | 260179 | 265507
Range status and errors
Selected range
Filename C:\Handel - Water Music (Manuscript J.E.Gardiner).wav
Peak level 89.8 % Range quality 100.0 % Test CRC 3CD3C71E Copy CRC 3CD3C71E Copy OK
No errors occurred
AccurateRip summary
Track 1 accurately ripped (confidence 1) [8E86BACC]Track 2 accurately ripped (confidence 1) [F15D5AEE]Track 3 accurately ripped (confidence 1) [984AD22B]Track 4 accurately ripped (confidence 1) [E262E647]Track 5 accurately ripped (confidence 1) [B4679F04]Track 6 accurately ripped (confidence 1) [EF4063A4]Track 7 accurately ripped (confidence 1) [0A32DF8C]Track 8 accurately ripped (confidence 1) [583171B9]Track 9 accurately ripped (confidence 1) [764F538A]Track 10 accurately ripped (confidence 1) [C7B72E20]Track 11 accurately ripped (confidence 1) [35495E8C]Track 12 accurately ripped (confidence 1) [584CB919]Track 13 accurately ripped (confidence 1) [5E7FC943]Track 14 accurately ripped (confidence 1) [77986D51]Track 15 accurately ripped (confidence 1) [F8207912]Track 16 accurately ripped (confidence 1) [A0413F8B]Track 17 accurately ripped (confidence 1) [84554EB5]Track 18 accurately ripped (confidence 1) [B406D0DD]Track 19 accurately ripped (confidence 1) [5CEEDD25]Track 20 accurately ripped (confidence 1) [0028F5BD]Track 21 accurately ripped (confidence 1) [2BC46125]
All tracks accurately ripped
End of status report

Отчёт EAC CD2

Exact Audio Copy V0.99 prebeta 5 from 4. May 2009
EAC extraction logfile from 8. January 2011, 0:32
John Eliot Gardiner - English Baroque Soloists / Handel - Concerti Grossi, Op.3
Used drive : PIONEER DVD-RW DVR-218L Adapter: 1 ID: 0
Read mode : SecureUtilize accurate stream : YesDefeat audio cache : YesMake use of C2 pointers : No
Read offset correction : 6Overread into Lead-In and Lead-Out : NoFill up missing offset samples with silence : YesDelete leading and trailing silent blocks : NoNull samples used in CRC calculations : YesUsed interface : Native Win32 interface for Win NT & 2000
Used output format : User Defined EncoderSelected bitrate : 768 kBit/sQuality : HighAdd ID3 tag : NoCommand line compressor : C:\Program Files\Exact Audio Copy\FLAC\FLAC.EXEAdditional command line options : -T "DATE=%y" -T "GENRE=%m" -8 -V %s
TOC of the extracted CD
Track | Start | Length | Start sector | End sector --------------------------------------------------------- 1 | 0:00.00 | 5:51.11 | 0 | 26335 2 | 5:51.11 | 2:10.02 | 26336 | 36087 3 | 8:01.13 | 1:26.43 | 36088 | 42580 4 | 9:27.56 | 3:23.32 | 42581 | 57837 5 | 12:51.13 | 1:40.61 | 57838 | 65398 6 | 14:31.74 | 2:18.52 | 65399 | 75800 7 | 16:50.51 | 1:42.47 | 75801 | 83497 8 | 18:33.23 | 1:35.17 | 83498 | 90639 9 | 20:08.40 | 3:07.31 | 90640 | 104695 10 | 23:15.71 | 2:35.52 | 104696 | 116372 11 | 25:51.48 | 4:28.46 | 116373 | 136518 12 | 30:20.19 | 1:52.19 | 136519 | 144937 13 | 32:12.38 | 3:00.08 | 144938 | 158445 14 | 35:12.46 | 1:59.38 | 158446 | 167408 15 | 37:12.09 | 1:48.51 | 167409 | 175559 16 | 39:00.60 | 3:24.67 | 175560 | 190926 17 | 42:25.52 | 3:10.66 | 190927 | 205242 18 | 45:36.43 | 4:44.50 | 205243 | 226592 19 | 50:21.18 | 2:33.53 | 226593 | 238120 20 | 52:54.71 | 4:45.41 | 238121 | 259536 21 | 57:40.37 | 2:39.63 | 259537 | 271524
Range status and errors
Selected range
Filename C:\Handel - Concerti Grossi, Op.3.wav
Peak level 97.4 % Range quality 100.0 % Test CRC 44B8F180 Copy CRC 44B8F180 Copy OK
No errors occurred
AccurateRip summary
Track 1 accurately ripped (confidence 1) [6D634B24]Track 2 accurately ripped (confidence 1) [5AC578DB]Track 3 accurately ripped (confidence 1) [814E8123]Track 4 accurately ripped (confidence 1) [A991E06C]Track 5 accurately ripped (confidence 1) [2BDA8073]Track 6 accurately ripped (confidence 1) [19469968]Track 7 accurately ripped (confidence 1) [0DDF17A1]Track 8 accurately ripped (confidence 1) [3D8F21AF]Track 9 accurately ripped (confidence 1) [42FCFCCE]Track 10 accurately ripped (confidence 1) [5EDA6293]Track 11 accurately ripped (confidence 1) [367FAD56]Track 12 accurately ripped (confidence 1) [C186D2BE]Track 13 accurately ripped (confidence 1) [7FF4F01E]Track 14 accurately ripped (confidence 1) [0B2A2330]Track 15 accurately ripped (confidence 1) [9846D615]Track 16 accurately ripped (confidence 1) [29B2C8E1]Track 17 accurately ripped (confidence 1) [A118C0AF]Track 18 accurately ripped (confidence 1) [89AF7DB8]Track 19 accurately ripped (confidence 1) [55965919]Track 20 accurately ripped (confidence 1) [61347447]Track 21 accurately ripped (confidence 1) [95C09DD4]
All tracks accurately ripped
End of status report

Отчёт EAC CD3

Exact Audio Copy V0.99 prebeta 5 from 4. May 2009
EAC extraction logfile from 8. January 2011, 13:12
John Eliot Gardiner - Monteverdi Choir and Orchestra / Handel - Israel in Egypt CD1
Used drive : PIONEER DVD-RW DVR-218L Adapter: 1 ID: 0
Read mode : SecureUtilize accurate stream : YesDefeat audio cache : YesMake use of C2 pointers : No
Read offset correction : 6Overread into Lead-In and Lead-Out : NoFill up missing offset samples with silence : YesDelete leading and trailing silent blocks : NoNull samples used in CRC calculations : YesUsed interface : Native Win32 interface for Win NT & 2000
Used output format : User Defined EncoderSelected bitrate : 768 kBit/sQuality : HighAdd ID3 tag : NoCommand line compressor : C:\Program Files\Exact Audio Copy\FLAC\FLAC.EXEAdditional command line options : -T "DATE=%y" -T "GENRE=%m" -8 -V %s
TOC of the extracted CD
Track | Start | Length | Start sector | End sector --------------------------------------------------------- 1 | 0:00.00 | 2:15.38 | 0 | 10162 2 | 2:15.38 | 0:25.56 | 10163 | 12093 3 | 2:41.19 | 3:55.46 | 12094 | 29764 4 | 6:36.65 | 0:34.25 | 29765 | 32339 5 | 7:11.15 | 2:17.25 | 32340 | 42639 6 | 9:28.40 | 2:16.65 | 42640 | 52904 7 | 11:45.30 | 2:09.00 | 52905 | 62579 8 | 13:54.30 | 2:13.23 | 62580 | 72577 9 | 16:07.53 | 3:18.17 | 72578 | 87444 10 | 19:25.70 | 2:27.60 | 87445 | 98529 11 | 21:53.55 | 4:09.45 | 98530 | 117249 12 | 26:03.25 | 3:03.40 | 117250 | 131014 13 | 29:06.65 | 0:47.00 | 131015 | 134539 14 | 29:53.65 | 1:24.18 | 134540 | 140857 15 | 31:18.08 | 1:05.33 | 140858 | 145765 16 | 32:23.41 | 0:58.27 | 145766 | 150142 17 | 33:21.68 | 3:41.60 | 150143 | 166777 18 | 37:03.53 | 0:57.27 | 166778 | 171079 19 | 38:01.05 | 2:37.33 | 171080 | 182887 20 | 40:38.38 | 4:35.35 | 182888 | 203547 21 | 45:13.73 | 0:52.00 | 203548 | 207447 22 | 46:05.73 | 2:54.57 | 207448 | 220554 23 | 49:00.55 | 5:46.53 | 220555 | 246557 24 | 54:47.33 | 2:49.47 | 246558 | 259279 25 | 57:37.05 | 1:27.25 | 259280 | 265829 26 | 59:04.30 | 0:37.40 | 265830 | 268644 27 | 59:41.70 | 2:03.00 | 268645 | 277869 28 | 61:44.70 | 3:01.55 | 277870 | 291499 29 | 64:46.50 | 2:27.18 | 291500 | 302542 30 | 67:13.68 | 2:25.22 | 302543 | 313439
Range status and errors
Selected range
Filename C:\Handel - Israel in Egypt CD1.wav
Peak level 76.8 % Range quality 100.0 % Test CRC 58E1E87C Copy CRC 58E1E87C Copy OK
No errors occurred
AccurateRip summary
Track 1 accurately ripped (confidence 2) [E861C8E9]Track 2 accurately ripped (confidence 2) [8CEEF0AA]Track 3 accurately ripped (confidence 2) [2D94BC71]Track 4 accurately ripped (confidence 2) [88D86857]Track 5 accurately ripped (confidence 2) [731BAFA5]Track 6 accurately ripped (confidence 2) [45B60F5D]Track 7 accurately ripped (confidence 2) [BE624542]Track 8 accurately ripped (confidence 2) [7EA94C47]Track 9 accurately ripped (confidence 2) [C10B8C53]Track 10 accurately ripped (confidence 2) [AF174C18]Track 11 accurately ripped (confidence 2) [287971D2]Track 12 accurately ripped (confidence 2) [7E3E82A5]Track 13 accurately ripped (confidence 2) [495ABA46]Track 14 accurately ripped (confidence 2) [56D3E53E]Track 15 accurately ripped (confidence 2) [78FF8DFD]Track 16 accurately ripped (confidence 2) [A901D7B1]Track 17 accurately ripped (confidence 2) [92BD7108]Track 18 accurately ripped (confidence 2) [357BC698]Track 19 accurately ripped (confidence 2) [CBB63423]Track 20 accurately ripped (confidence 2) [A1BB34A1]Track 21 accurately ripped (confidence 2) [56A2ECBC]Track 22 accurately ripped (confidence 2) [D8054417]Track 23 accurately ripped (confidence 2) [1C4A35BF]Track 24 accurately ripped (confidence 2) [2CE5B062]Track 25 accurately ripped (confidence 2) [3C8670E6]Track 26 accurately ripped (confidence 2) [544DF51E]Track 27 accurately ripped (confidence 2) [E493E90B]Track 28 accurately ripped (confidence 2) [57D19C50]Track 29 accurately ripped (confidence 2) [12C3F998]Track 30 accurately ripped (confidence 2) [E9B00D34]
All tracks accurately ripped
End of status report

Отчёт EAC CD4

Exact Audio Copy V0.99 prebeta 5 from 4. May 2009
EAC extraction logfile from 8. January 2011, 15:14
John Eliot Gardiner - Monteverdi Choir and Orchestra / Handel - Israel in Egypt; The Ways of Zion Do Mourn CD2
Used drive : PIONEER DVD-RW DVR-218L Adapter: 1 ID: 0
Read mode : SecureUtilize accurate stream : YesDefeat audio cache : YesMake use of C2 pointers : No
Read offset correction : 6Overread into Lead-In and Lead-Out : NoFill up missing offset samples with silence : YesDelete leading and trailing silent blocks : NoNull samples used in CRC calculations : YesUsed interface : Native Win32 interface for Win NT & 2000
Used output format : User Defined EncoderSelected bitrate : 768 kBit/sQuality : HighAdd ID3 tag : NoCommand line compressor : C:\Program Files\Exact Audio Copy\FLAC\FLAC.EXEAdditional command line options : -T "DATE=%y" -T "GENRE=%m" -8 -V %s
TOC of the extracted CD
Track | Start | Length | Start sector | End sector --------------------------------------------------------- 1 | 0:00.00 | 1:36.28 | 0 | 7227 2 | 1:36.28 | 1:12.55 | 7228 | 12682 3 | 2:49.08 | 4:25.22 | 12683 | 32579 4 | 7:14.30 | 7:33.30 | 32580 | 66584 5 | 14:47.60 | 3:54.70 | 66585 | 84204 6 | 18:42.55 | 0:41.20 | 84205 | 87299 7 | 19:24.00 | 0:26.15 | 87300 | 89264 8 | 19:50.15 | 0:41.23 | 89265 | 92362 9 | 20:31.38 | 0:22.65 | 92363 | 94077 10 | 20:54.28 | 3:41.12 | 94078 | 110664 11 | 24:35.40 | 2:05.18 | 110665 | 120057 12 | 26:40.58 | 6:31.70 | 120058 | 149452 13 | 33:12.53 | 2:35.12 | 149453 | 161089 14 | 35:47.65 | 2:48.13 | 161090 | 173702 15 | 38:36.03 | 3:22.12 | 173703 | 188864 16 | 41:58.15 | 0:54.63 | 188865 | 192977 17 | 42:53.03 | 5:50.22 | 192978 | 219249 18 | 48:43.25 | 0:55.23 | 219250 | 223397 19 | 49:38.48 | 4:04.60 | 223398 | 241757 20 | 53:43.33 | 5:05.17 | 241758 | 264649 21 | 58:48.50 | 2:06.43 | 264650 | 274142 22 | 60:55.18 | 3:52.45 | 274143 | 291587 23 | 64:47.63 | 3:46.62 | 291588 | 308599
Range status and errors
Selected range
Filename C:\Handel - Israel in Egypt; The Ways of Zion Do Mourn CD2.wav
Peak level 84.5 % Range quality 100.0 % Test CRC 129858D8 Copy CRC 129858D8 Copy OK
No errors occurred
AccurateRip summary
Track 1 accurately ripped (confidence 2) [0DF09B9D]Track 2 accurately ripped (confidence 2) [CC7A8196]Track 3 accurately ripped (confidence 2) [2D4D25CD]Track 4 accurately ripped (confidence 2) [64890059]Track 5 accurately ripped (confidence 2) [709AD573]Track 6 accurately ripped (confidence 2) [18022D7B]Track 7 accurately ripped (confidence 2) [C1678F7B]Track 8 accurately ripped (confidence 2) [174FA196]Track 9 accurately ripped (confidence 2) [F669936C]Track 10 accurately ripped (confidence 2) [0C2753B5]Track 11 accurately ripped (confidence 2) [2E1C6E5D]Track 12 accurately ripped (confidence 2) [411B142F]Track 13 accurately ripped (confidence 2) [117A435E]Track 14 accurately ripped (confidence 2) [BDDCB84C]Track 15 accurately ripped (confidence 2) [D12B80A4]Track 16 accurately ripped (confidence 2) [D39F1BB7]Track 17 accurately ripped (confidence 2) [D78C2C61]Track 18 accurately ripped (confidence 2) [3EEE72B7]Track 19 accurately ripped (confidence 2) [2A012997]Track 20 accurately ripped (confidence 2) [FD5DFE79]Track 21 accurately ripped (confidence 2) [68BD01B8]Track 22 accurately ripped (confidence 2) [367E8BE5]Track 23 accurately ripped (confidence 2) [A606FF64]
All tracks accurately ripped
End of status report

Отчёт EAC CD5

Exact Audio Copy V0.99 prebeta 5 from 4. May 2009
EAC extraction logfile from 8. January 2011, 18:42
John Eliot Gardiner, A.Rolfe-Johnson, N,Burrowes, D.Jones, C.Denley, P.Kwella / Handel - Semele CD1
Used drive : PIONEER DVD-RW DVR-218L Adapter: 1 ID: 0
Read mode : SecureUtilize accurate stream : YesDefeat audio cache : YesMake use of C2 pointers : No
Read offset correction : 6Overread into Lead-In and Lead-Out : NoFill up missing offset samples with silence : YesDelete leading and trailing silent blocks : NoNull samples used in CRC calculations : YesUsed interface : Native Win32 interface for Win NT & 2000
Used output format : User Defined EncoderSelected bitrate : 768 kBit/sQuality : HighAdd ID3 tag : NoCommand line compressor : C:\Program Files\Exact Audio Copy\FLAC\FLAC.EXEAdditional command line options : -T "DATE=%y" -T "GENRE=%m" -8 -V %s
TOC of the extracted CD
Track | Start | Length | Start sector | End sector --------------------------------------------------------- 1 | 0:00.00 | 7:18.08 | 0 | 32857 2 | 7:18.08 | 1:46.22 | 32858 | 40829 3 | 9:04.30 | 4:38.70 | 40830 | 61749 4 | 13:43.25 | 3:52.65 | 61750 | 79214 5 | 17:36.15 | 3:23.40 | 79215 | 94479 6 | 20:59.55 | 3:04.40 | 94480 | 108319 7 | 24:04.20 | 0:33.23 | 108320 | 110817 8 | 24:37.43 | 0:56.47 | 110818 | 115064 9 | 25:34.15 | 3:07.05 | 115065 | 129094 10 | 28:41.20 | 1:48.10 | 129095 | 137204 11 | 30:29.30 | 2:06.35 | 137205 | 146689 12 | 32:35.65 | 2:51.18 | 146690 | 159532 13 | 35:27.08 | 1:46.20 | 159533 | 167502 14 | 37:13.28 | 1:58.22 | 167503 | 176374 15 | 39:11.50 | 6:49.35 | 176375 | 207084 16 | 46:01.10 | 3:38.38 | 207085 | 223472 17 | 49:39.48 | 6:30.35 | 223473 | 252757 18 | 56:10.08 | 3:26.20 | 252758 | 268227 19 | 59:36.28 | 3:32.02 | 268228 | 284129 20 | 63:08.30 | 3:28.05 | 284130 | 299734 21 | 66:36.35 | 4:45.73 | 299735 | 321182 22 | 71:22.33 | 4:15.47 | 321183 | 340354 23 | 75:38.05 | 2:29.40 | 340355 | 351569
Range status and errors
Selected range
Filename C:\Handel - Semele CD1.wav
Peak level 100.0 % Range quality 100.0 % Test CRC 0C667FD8 Copy CRC 0C667FD8 Copy OK
No errors occurred
AccurateRip summary
Track 1 accurately ripped (confidence 1) [7CF8E029]Track 2 accurately ripped (confidence 1) [3E60F07A]Track 3 accurately ripped (confidence 1) [BAEF6BE1]Track 4 accurately ripped (confidence 1) [E3236E7D]Track 5 accurately ripped (confidence 1) [CF44F953]Track 6 accurately ripped (confidence 1) [5384494B]Track 7 accurately ripped (confidence 1) [7414763A]Track 8 accurately ripped (confidence 1) [222EF5C9]Track 9 accurately ripped (confidence 1) [1B9609B9]Track 10 accurately ripped (confidence 1) [BBD8EC84]Track 11 accurately ripped (confidence 1) [5759AA9B]Track 12 accurately ripped (confidence 1) [30FCE02B]Track 13 accurately ripped (confidence 1) [B68C1994]Track 14 accurately ripped (confidence 1) [AF60026B]Track 15 accurately ripped (confidence 1) [2BD086DC]Track 16 accurately ripped (confidence 1) [71DB6300]Track 17 accurately ripped (confidence 1) [324A636B]Track 18 accurately ripped (confidence 1) [FD1D56F5]Track 19 accurately ripped (confidence 1) [3D8343B8]Track 20 accurately ripped (confidence 1) [6E8FD65E]Track 21 accurately ripped (confidence 1) [DC04C8F4]Track 22 accurately ripped (confidence 1) [E7DCFBE6]Track 23 accurately ripped (confidence 1) [4C1825A3]
All tracks accurately ripped
End of status report

Отчёт EAC CD6

Exact Audio Copy V0.99 prebeta 5 from 4. May 2009
EAC extraction logfile from 9. January 2011, 12:33
John Eliot Gardiner, A.Rolfe-Johnson, N,Burrowes, D.Jones, C.Denley, P.Kwella / Handel - Semele CD2
Used drive : PIONEER DVD-RW DVR-218L Adapter: 1 ID: 0
Read mode : SecureUtilize accurate stream : YesDefeat audio cache : YesMake use of C2 pointers : No
Read offset correction : 6Overread into Lead-In and Lead-Out : NoFill up missing offset samples with silence : YesDelete leading and trailing silent blocks : NoNull samples used in CRC calculations : YesUsed interface : Native Win32 interface for Win NT & 2000
Used output format : User Defined EncoderSelected bitrate : 768 kBit/sQuality : HighAdd ID3 tag : NoCommand line compressor : C:\Program Files\Exact Audio Copy\FLAC\FLAC.EXEAdditional command line options : -T "DATE=%y" -T "GENRE=%m" -8 -V %s
TOC of the extracted CD
Track | Start | Length | Start sector | End sector --------------------------------------------------------- 1 | 0:00.00 | 0:28.58 | 0 | 2157 2 | 0:28.58 | 5:56.60 | 2158 | 28917 3 | 6:25.43 | 2:53.47 | 28918 | 41939 4 | 9:19.15 | 1:57.60 | 41940 | 50774 5 | 11:17.00 | 2:46.45 | 50775 | 63269 6 | 14:03.45 | 2:25.30 | 63270 | 74174 7 | 16:29.00 | 4:32.43 | 74175 | 94617 8 | 21:01.43 | 4:14.02 | 94618 | 113669 9 | 25:15.45 | 2:17.28 | 113670 | 123972 10 | 27:32.73 | 2:52.57 | 123973 | 136929 11 | 30:25.55 | 1:38.25 | 136930 | 144304 12 | 32:04.05 | 8:07.68 | 144305 | 180897 13 | 40:11.73 | 1:21.45 | 180898 | 187017 14 | 41:33.43 | 3:14.12 | 187018 | 201579 15 | 44:47.55 | 2:51.10 | 201580 | 214414 16 | 47:38.65 | 3:10.38 | 214415 | 228702 17 | 50:49.28 | 1:13.42 | 228703 | 234219 18 | 52:02.70 | 5:11.00 | 234220 | 257544 19 | 57:13.70 | 3:21.13 | 257545 | 272632 20 | 60:35.08 | 2:27.32 | 272633 | 283689 21 | 63:02.40 | 3:22.25 | 283690 | 298864 22 | 66:24.65 | 4:11.73 | 298865 | 317762 23 | 70:36.63 | 2:31.65 | 317763 | 329152 24 | 73:08.53 | 3:16.07 | 329153 | 343859
Range status and errors
Selected range
Filename C:\Handel - Semele CD2.wav
Peak level 97.4 % Range quality 99.9 % Test CRC 60254EB8 Copy CRC 60254EB8 Copy OK
No errors occurred
AccurateRip summary
Track 1 accurately ripped (confidence 1) [35C31B88]Track 2 accurately ripped (confidence 1) [5D70810E]Track 3 accurately ripped (confidence 1) [C846C1C7]Track 4 accurately ripped (confidence 1) [28BDE065]Track 5 accurately ripped (confidence 1) [C55741A2]Track 6 accurately ripped (confidence 1) [16861576]Track 7 accurately ripped (confidence 1) [05BD56E4]Track 8 accurately ripped (confidence 1) [AAA68043]Track 9 accurately ripped (confidence 1) [D03E3A67]Track 10 accurately ripped (confidence 1) [25499E3F]Track 11 accurately ripped (confidence 1) [CBD69080]Track 12 accurately ripped (confidence 1) [E783E26C]Track 13 accurately ripped (confidence 1) [AF871D3D]Track 14 accurately ripped (confidence 1) [F6183E17]Track 15 accurately ripped (confidence 1) [E3E60FEA]Track 16 accurately ripped (confidence 1) [DABB2E5E]Track 17 accurately ripped (confidence 1) [05A3CF46]Track 18 accurately ripped (confidence 1) [EC11B6F7]Track 19 accurately ripped (confidence 1) [BDA02960]Track 20 accurately ripped (confidence 1) [5AD05BA5]Track 21 accurately ripped (confidence 1) [A57D45C4]Track 22 accurately ripped (confidence 1) [4A968BE0]Track 23 accurately ripped (confidence 1) [58C482D0]Track 24 accurately ripped (confidence 1) [EFEF964B]
All tracks accurately ripped
End of status report
[teatrix.ru].t10034.torrent 
Торрент: Зарегистрирован [ 2015-10-25 20:37 ] · F38B8410A493FDACBDD8D14B008C8DECDB6F43EB

Скачать .torrent

Скачать

22 KB

Статус: проверено
Скачан: 0 раз
Размер: 1.8 GB
terms.php



Быстрый ответ

Имя:

      
Для отправки сообщений необходимо включить JavaScript
Показать сообщения:    

Текущее время: 03-Дек 07:38

Часовой пояс: UTC + 3


Вы можете начинать темы
Вы можете отвечать на сообщения
Вы не можете редактировать свои сообщения
Вы не можете удалять свои сообщения
Вы не можете голосовать в опросах
Вы не можете прикреплять файлы к сообщениям
Вы можете скачивать файлы