(Classical) Ludwig van Beethoven - Unbekannte Meisterwerke | Людвиг ван Бетховен - Неизвестные шедевры (9CD: piano concertos, chamber music, lieder, arias, oratorio, ballet) - 2003, FLAC (image+.cue) lossless


Статистика раздачи [Обновить пиров]
Размер:  2.69 GB   |    Зарегистрирован:  1 год 2 месяца   |    Скачан:  1 раз

Полного источника не было: 15 дней

 
   
 
 
 

[Цитировать]

Ludwig van Beethoven - Unbekannte Meisterwerke
Жанр: Classical
Страна-производитель диска: Germany
Год издания диска: 2003
Издатель (лейбл): edel CLASSICS
Номер по каталогу: 0002682CCC
Аудиокодек: FLAC
Тип рипа: image+.cue
Битрейт аудио: lossless
Продолжительность: 9 CD
Источник: собственный рип
Наличие сканов в содержимом раздачи: да

CD1: Piano Concerto after the Violin Concerto, Piano Sonata No.9, String Quartet after the Piano Sonata No.9 (1:08'58")

Piano Concerto after the Violin Concerto, Op.61a
1. I. Allegro ma non troppo
2. II. Larghetto
3. III. Rondo. Allegro

Amadeus Webersinke, piano
Gewandhousorchester Leipzig
Kurt Masur

Piano Sonata No.9, Op.14 No.1
4. I. Allegro
5. II. Allegretto
6. III. Rondo. Allegro comodo

Dieter Zechlin, piano
String Quartet after the Piano Sonata No.9, H 34
7. I. Allegro moderato
8. II. Allegretto
9. III. Allegro

Suske-Quartett

CD2: Italian Arias, Singspiel Arias (1:06'04")

Italian Arias
1. Ah! perfido, Op.65
2. Primo amore, WoO 92
3. No, non turbati, WoO 92a
4. Ne' giorni tuoi felici, WoO 93
5. Tremate, empi, tremate, Op.116
Singspiel Arias
6. Prufung des Kussens, WoO 89
7. Mit Madeln sich vertragen, WoO 90
8. O welch ein Leben! WoO 91 No.1
9. Soll ein Schuh nicht drucken, WoO 91 No.2
Hanne-Lore Kuhse, soprano
Eberhard Buchner, tenor
Siegfried Vogel, bass
Staatskapelle Berlin
Arthur Apelt

CD3: 12 Contredanses, 6 Menuets, 11 Danses, 6 Dances in the Manner of a Landler, 12 German Dances (1:09'14")

12 Contredanses for small orchestra, WoO 14
01. No.1
02. No.2
03. No.3
04. No.4
05. No.5
06. No.6
07. No.7
08. No.8
09. No.9
10. No.10
11. No.11
12. No.12
6 Menuets for two violins and violoncello, WoO 9
13. No.1
14. No.2
15. No.3
16. No.4
17. No.5
18. No.6
11 Danses for seven string and wind instruments, WoO 17
19. No.1 Walzer
20. No.2 Menuett
21. No.3 Walzer
22. No.4 Menuett
23. No.5 Menuett
24. No.6 Landler
25. No.7 Menuett
26. No.8 Landler
27. No.9 Menuett
28. No.10 Walzer
29. No.11 Walzer
6 Dances in the Manner of a Landler for two violins and double-bass, WoO 15
30. No.1
31. No.2
32. No.3
33. No.4
34. No.5
35. No.6
12 German Dances for orchestra, WoO 8
36. No.1
37. No.2
38. No.3
39. No.4
40. No.5
41. No.6
42. No.7
43. No.8
44. No.9
45. No.10
46. No.11
47. No.12
Karl Suske, violin (WoO 9)
Klaus Peters, violin (WoO 9)
Matthias Pfaender, violoncello (WoO 9)
Kammerorchester Berlin
Helmut Koch

CD4: Christus am Olberge, etc. (1:10'18")

Christus am Olberge, Op.85
01. I. Introduction
02. I. 'Jehovah, du, mein Vater!'
03. I. 'Meine Seele ist erschuttert'
04. II. 'Erzittre, Erde, Jehovahs Sohn liegt hier'
05. II. 'Preist des Erlosers Gute'
06. II. 'O Heil euch! ihr Erlosten'
07. III. 'Verkundet, Seraph, mir dein Mund'
08. III. 'So ruhe denn mit ganzer Schwere'
09. IV. 'Willkommen, Tod!'
10. IV. 'Wir haben ihn gesehen'
11. V. 'Die mich zu fangen ausgezogen sind'
12. V. 'Hier ist er, hier ist er'
13. VI. 'Nicht ungestraft soll der Verwegnen Schar'
14. VI. 'In meinen Adern wuhlen'
15. VI. 'Welten singen' - 'Preiset ihn, ihr Engelschore'

Jozsef Reti, tenor
Sylvia Geszty, soprano
Hermann Christian Polster, bass
Solistenvereinigung und Grosse Chor des Berliner Rundfunks
Rundfunk-Sinfonie-Orchester Berlin
Helmut Koch

16. Es ist vollbracht, WoO 97
Siegfried Vogel, bass
Chor der Deutschen Staatsoper Berlin
Staatskapelle Berlin
Arthur Apelt

17. Meeresstille und gluckliche Fahrt, Op.112
Ingeborg Springer, soprano
Grosse Chor des Berliner Rundfunks
Rundfunk-Sinfonie-Orchester Berlin
Helmut Koch

18. Opferlied, Op.121b
Ingeborg Springer, soprano
Grosse Chor des Berliner Rundfunks
Rundfunk-Sinfonie-Orchester Berlin
Helmut Koch

CD5: 12 Minuets, Congratulation Minuet, Piano Concerto No.0, Music for a ballet of Knights (1:08'15")

12 Minuets for orchestra, WoO 7
01. No.1
02. No.2
03. No.3
04. No.4
05. No.5
06. No.6
07. No.7
08. No.8
09. No.9
10. No.10
11. No.11
12. No.12

Kammerorchester der Staatskapelle Weimar
Friedemann Batzel

13. Congratulation Minuet for orchestra, WoO 3
Kammerorchester der Staatskapelle Weimar
Friedemann Batzel

Piano Concerto No.0, WoO 4
14. I. Allegro moderato
15. II. Larghetto
16. III. Rondo. Allegretto

Eva Ander, piano
Kammerorchester Berlin
Peter Gulke

Music for a ballet of Knights, WoO 1
17. I. Marsch
18. II. Deutscher Gesang. Allegro moderato
19. III. Jagdlied. Allegretto - Deutscher Gesang d. C.
20. IV. Romanze. Andantino - Deutscher Gesang d. C.
21. V. Kriegslied. Allegro assai con brio - Deutscher Gesang d. C.
22. VI. Trinklied. Allegro con brio - Deutscher Gesang d. C.
23. VII. Deutscher Tanz. Walzer
24. VIII. Coda. Allegro vivace - Andantino - Tempo I

Staatskapelle Berlin
Gunter Herbig

CD6: Canons, epigrams and jokes, 25 Irish Songs, 20 Irish Songs (1:13'24")

Canons, epigrams and jokes
01. Lob auf den Dicken ''Schuppanzigh ist ein Lump'', WoO 100
02. Esel aller Esel, hi ha, Hess 277
03. Graf, liebster Graf, liebstes Schaf, WoO 101
04. Herr Graf, ich komme zu fragen, Hess 276
05. Bester Graf, Sie sind ein Schaf, WoO 183
06. Es muss sein, WoO 196
07. Canon for instruments, Hess 274
08. Das ist das Werk, sorgt um das Geld!, WoO 197
09. Glaube und hoffe, WoO 174
10. Auf einen, welche Hoffmann geheissen, WoO 180
11. Anglaise for piano, Hess 61
12. Rasch tritt der Tod den Menschen an, WoO 104
13. Ich war hier, Doktor, ich war hier, WoO 190
14. Signor abate, WoO 178
15. Kurz ist der Schmerz, und ewig ist die Freude, WoO 163
16. Hol'euch der Teufel! B'hut euch Gott!, WoO 173
17. Gott ist eine feste Burg, WoO 188
18. Sankt Petrus war ein Fels / Bernardus war ein Sankt, WoO 175
19. Tugend ist keinleerer name, WoO 181 No.3
20. Edel sei der mensch, hulfreich und gut, WoO 185
21. Bester Magistrat, Ihr friert, WoO 177
22. Kuhl, nicht lau, WoO 191
23. Wir irren allesamt, WoO 198
24. Auf einen, welcher Schwenke geheissen: ''Schwenke dich ohne Schwanke'', WoO 187
25. Brauchle, Linke, WoO 167
26. O Tobias!, WoO 182
27. Gedenket heute an Baden, WoO 181 No.1
28. Seiner Kaiserlichen Hoheit... Alles Gute, alles Schone, WoO 179
29. Gluck fehl'dir vor allem, WoO 171
30. Gehabt euch wohl, WoO 181 No.2
31. Freu dich des Lebens, WoO 195
32. Gluck zum neuen Jahr, WoO 165
33. Canons for instruments, Hess 275
34. Im Arm der Liebe ruht sich's wohl, WoO 159
35. Ich kusse Sie, WoO 169
36. Languisco e moro, Hess 229
37. Te solo adoro, WoO 186
38. Ewig dein, WoO 161
39. Freundschaft ist der Quell wahrer Gluckseligkeit, WoO 164
40. Canons for instruments, WoO 160 No.2
41. Ta ta ta, lieber Malzel, WoO 162
42. Ich bitt'dich, schreib'mir die Es-Scala auf, WoO 172
43. Ars longa, vita brevis, WoO 192
44. Canons for instruments, WoO 160 No.1
45. Das Schweigen : ''Lerne schweigen, o Freund'', WoO 168 No.1
46. Das Reden : ''Rede, wenn's um einen Freund dir gilt'', WoO 168 No.2
47. Falstafferel, WoO 184
48. Allegro, WoO 34
49. Abschiedsgesang ''Die Stunde schlagt'', WoO 102

Berliner Solisten
Kammerchor der Berliner Singakademie
Konzeptionelle und kunstlerische Vorbereitung, Choreinstudierung und Leitung
Dietrich Knothe

25 Irish Songs, WoO 152
50. No.2 Sweet power of song
51. No.5 On the massacre of Glencoe
52. No.6 What shall I do to shew how much I love her?
53. No.8 Come draw we round a cheerful ring
54. No.10 The deserter
55. No.11 Thou emblem of faith
56. No.13 Musing on the roaring ocean
57. No.15 Let brainspinning swains
58. No.17 In vain to this desert
59. No.19 Wife, children and friends
60. No.20 Farewell bliss and farewell Nancy
61. No.21 Morning a cruel turmoiler is
62. No.23 The wand'ring gypsy
63. No.24 The Traugh welcome

Renate Krahmer, soprano
Ingeborg Springer, mezzo-soprano
Eberhard Buchner, tenor
Armin Ude, tenor
Siegfried Lorenz, baritone
Berliner Solisten
Brahms-Trio

20 Irish Songs, WoO 153
64. No.1 When eve's last rays in twilight
65. No.4 Since greybeards inpourm us that youth will decay
66. No.5 I dream'd I lay where flowers were springing
67. No.7 O soothe me, my lyre
68. No.8 Norah of Balamagairy
69. No.10 The hapless soldier
70. No.15 't is but in vain, pour nothing thrives
71. No.17 Come, Darby dear, easy, be easy
72. No.20 Thy ship must sail, my Henry dear

Renate Krahmer, soprano
Ingeborg Springer, mezzo-soprano
Eberhard Buchner, tenor
Armin Ude, tenor
Siegfried Lorenz, baritone
Berliner Solisten
Brahms-Trio

CD7: Variations, etc. (1:10'35")

01. 12 Variations, WoO 40 for piano and violin on the theme from Mozart's 'The Marriage of Figaro'
Eva Ander, piano
Peter Glatte, violin

02. Adagio, WoO 43 No.2 for mandolin and piano
Erhard Fietz, mandolin
Amadeus Webersinke, piano

03. Sonatine (Allegro), WoO 44 No.1 for mandolin and piano
Erhard Fietz, mandolin
Amadeus Webersinke, piano

04. 12 Variations, WoO 45 for piano and violoncello on a theme from Handel's oratorio 'Judas Maccabaeus'
Mathilde Hermuth, piano
Friedemann, violoncello

Three pieces for musical clock, WoO 33
05. I. Adagio assai
06. II. Scherzo. Allegro
07. III. Allegro

Erich Piasetzki, organ
08. Variations, WoO 28 for two oboes and cor anglais on a theme from Mozart's opera 'Don Giovanni'
Peter Basche, oboe
Ekkehard Glocke, oboe
Dieter Wagner, cor anglais

Trio, WoO 37 for piano, flute and bassoon
09. I. Allegro
10. II. Adagio
11. III. Tema andante con variazioni

Bernd Casper, piano
Hermann Wolfframm, flute
Dieter Hahnchen, bassoon

CD8: 25 Scottish songs, 27 songs of different peoples (1:15'14")

25 Scottish songs, Op.108
01. Music, Love and Wine [1:35]
02. Sunset
03. O sweet were the hours
04. The maid of Isla
05. The sweetest lad was Laimie
06. Dim, dim is my eye
07. Bonnie, laddie, highland laddie
08. The lovely lass of Inverness
09. Behold my Love how green the groves
10. Sympathy
11. O, thou art the lad of my heart
12. O, had my fate been join'd with thine
13. Come fill, fill, my good fellow
14. O, how can I be blithe and glad
15. O cruel was my father
16. Could this ill world have been contriv'd
17. O Mary, at thy window be
18. Enchantress, farewell
19. O swiftly glides the bonny boat
20. Faithfu' Johnie
21. Jeanie's distress
22. The highland watch
23. The shepherd's song
24. Again, my dyre
25. Sally in our alley

Renate Krahmer, soprano
Ingeborg Springer, mezzo-soprano
Eberhard Buchner, tenor
Gunter Leib, baritone
Eva Ander, piano
Reinhard Ulbricht, violin
Joachim Bischof, violoncello
Mitglieder des Rundfunkchores Leipzig
Horst Neumann

27 songs of different peoples, WoO158/1
26. No.1 Ridder Stings Runer (Danish)
27. No.4 Wann i in der Fruh aufsteh (Tyroean)
28. No.7 Wer solche Buema afipackt (Tyrolean)
29. No.8 Ih mag di nit nehma, du toppeter Hecht (Tyroean)
30. No.9 Oj, oj upilem sie w karczmie (Polish)
31. No.10 Poszla baba po popiol (Polish)
32. No.12 Seus lindos olhos (Portugese)
33. No.13 Im Walde sind viele Mucklein geboren (Russian)
34. No.14 Ach Bachlein, Bachlein, kuhle Wasser (Russian)
35. No.15 Unsere Madchen gingen in den Wald (Russian)
36. No.17 Vaggvisa (Swedish)
37. No.18 An a Bergli bin I gesasse (Swiss)
38. No.20 Bolero a due - Como la mariposa (Spanish)
39. No.22 Magyar Szuretolo Enek (Hungarian)
40. No.24 Air de Colin from 'Le Devin du Village' (Rousseau)
41. No.27 Air Francais (French)

Renate Krahmer, soprano
Ingeborg Springer, mezzo-soprano
Eberhard Buchner, tenor
Gunter Leib, baritone
Eva Ander, piano
Reinhard Ulbricht, violin
Joachim Bischof, violoncello
Kurt Mahn, oboe
Werner Pauli, guitar
Mitglieder des Rundfunkchores Leipzig
Horst Neumann

CD9: 10 varied themes, etc. (1:10'38")

Sextet, Op.81b for two horns, two violins, viola and violoncello
01. I. Allegro con brio
02. II. Adagio
03. III. Rondo. Allegro

Erben-Quartett
Gerhard Meyer, horn
Rudolf Horold, horn

10 varied themes, Op.107 for piano with accompanement of either flute or violin
04. No.1 Air Tirolien
05. No.2 Air Ecossais
06. No.3 Air de la Petit Russie
07. No.4 Air Ecossais
08. No.5 Air Tirolien
09. No.6 Air Ecossais
10. No.7 Air Russe
11. No.8 Air Ecossais
12. No.9 Air Ecossais
13. No.10 Air Ecossais

Eva Ander, piano
Johannes Walter, flute
Peter Glatte, violin

Duo, WoO 27 No.1 for clarinet and bassoon
14. I. Allegro commodo
15. II. LLarghetto sostenuto
16. III. Rondo. Allegretto

Oskar Michallik, clarinet
Jurgen Reuter, bassoon

-

Лог создания рипа - CD1

Exact Audio Copy V0.99 prebeta 5 from 4. May 2009
Отчёт EAC об извлечении, выполненном 29. января 2011, 15:02
Ludwig van Beethoven / Unbekannte Meisterwerke (CD1)
Дисковод: Optiarc DVD RW AD-7203A Adapter: 4 ID: 1
Режим чтения : ДостоверностьИспользование точного потока : ДаОтключение кэша аудио : ДаИспользование указателей C2 : Нет
Коррекция смещения при чтении : 48Способность читать области Lead-in и Lead-out : НетЗаполнение пропущенных сэмплов тишиной : ДаУдаление блоков с тишиной в начале и конце : НетПри вычислениях CRC использовались нулевые сэмплы : ДаИнтерфейс : Встроенный Win32-интерфейс для Win NT/2000
Выходной формат : Пользовательский кодировщикВыбранный битрейт : 128 kBit/sКачество : ВысокийДобавление ID3-тэга : НетУтилита сжатия : C:\Program Files\FLAC\flac.exeДополнительные параметры : -5 -V %s
TOC извлечённого CD
Трек | Старт | Длительность | Начальный сектор | Конечный сектор --------------------------------------------------------------------- 1 | 0:00.00 | 23:21.00 | 0 | 105074 2 | 23:21.00 | 8:34.32 | 105075 | 143656 3 | 31:55.32 | 10:14.50 | 143657 | 189756 4 | 42:10.07 | 5:50.73 | 189757 | 216079 5 | 48:01.05 | 3:18.40 | 216080 | 230969 6 | 51:19.45 | 3:20.47 | 230970 | 246016 7 | 54:40.17 | 6:41.28 | 246017 | 276119 8 | 61:21.45 | 3:55.60 | 276120 | 293804 9 | 65:17.30 | 3:40.55 | 293805 | 310359
Характеристики диапазона извлечения и сообщения об ошибках
Выбранный диапазон
Имя файла D:\EAC\Ludwig van Beethoven - Unbekannte Meisterwerke (CD1).wav
Пиковый уровень 100.0 % Качество диапазона 99.9 % CRC теста 1ED6299D CRC копии 1ED6299D Копирование... OK
Ошибок не произошло
AccurateRip: сводка
Трек 1 точное извлечение (доверие 2) [8FE8067A]Трек 2 точное извлечение (доверие 2) [5A1D8182]Трек 3 точное извлечение (доверие 2) [9BE7A05B]Трек 4 точное извлечение (доверие 2) [5BE89003]Трек 5 точное извлечение (доверие 2) [DF202BA9]Трек 6 точное извлечение (доверие 2) [8CCF3C90]Трек 7 точное извлечение (доверие 2) [0AB2B310]Трек 8 точное извлечение (доверие 2) [3FB2DEE8]Трек 9 точное извлечение (доверие 2) [A2E901FD]
Все треки извлечены точно
Конец отчёта
Ripped by GFox, Rutracker.org.

Лог создания рипа - CD2

Exact Audio Copy V0.99 prebeta 5 from 4. May 2009
Отчёт EAC об извлечении, выполненном 29. января 2011, 15:56
Ludwig van Beethoven / Unbekannte Meisterwerke (CD2)
Дисковод: Optiarc DVD RW AD-7203A Adapter: 4 ID: 1
Режим чтения : ДостоверностьИспользование точного потока : ДаОтключение кэша аудио : ДаИспользование указателей C2 : Нет
Коррекция смещения при чтении : 48Способность читать области Lead-in и Lead-out : НетЗаполнение пропущенных сэмплов тишиной : ДаУдаление блоков с тишиной в начале и конце : НетПри вычислениях CRC использовались нулевые сэмплы : ДаИнтерфейс : Встроенный Win32-интерфейс для Win NT/2000
Выходной формат : Пользовательский кодировщикВыбранный битрейт : 128 kBit/sКачество : ВысокийДобавление ID3-тэга : НетУтилита сжатия : C:\Program Files\FLAC\flac.exeДополнительные параметры : -5 -V %s
TOC извлечённого CD
Трек | Старт | Длительность | Начальный сектор | Конечный сектор --------------------------------------------------------------------- 1 | 0:00.00 | 11:55.27 | 0 | 53651 2 | 11:55.27 | 14:06.18 | 53652 | 117119 3 | 26:01.45 | 6:18.32 | 117120 | 145501 4 | 32:20.02 | 8:04.08 | 145502 | 181809 5 | 40:24.10 | 8:41.24 | 181810 | 220908 6 | 49:05.34 | 5:40.46 | 220909 | 246454 7 | 54:46.05 | 4:11.57 | 246455 | 265336 8 | 58:57.62 | 2:36.65 | 265337 | 277101 9 | 61:34.52 | 4:29.73 | 277102 | 297349
Характеристики диапазона извлечения и сообщения об ошибках
Выбранный диапазон
Имя файла D:\EAC\Ludwig van Beethoven - Unbekannte Meisterwerke (CD2).wav
Пиковый уровень 97.8 % Качество диапазона 99.9 % CRC теста D44179DF CRC копии D44179DF Копирование... OK
Ошибок не произошло
AccurateRip: сводка
Трек 1 точность не определена (достоверность 22) [ECAEA82C], AccurateRip вернул [CCFF8094]Трек 2 точность не определена (достоверность 22) [A646A7E0], AccurateRip вернул [4CA49898]Трек 3 точность не определена (достоверность 22) [371D935C], AccurateRip вернул [C6658C3C]Трек 4 точное извлечение (доверие 2) [0DE6DF12]Трек 5 точное извлечение (доверие 2) [0F57D37E]Трек 6 точное извлечение (доверие 2) [A059E1D6]Трек 7 точное извлечение (доверие 2) [C7261FBF]Трек 8 точное извлечение (доверие 2) [BC4F89D7]Трек 9 точное извлечение (доверие 2) [5C79AEC1]
6 трек(и) скопированы точно 3 трек(и) не удалось проверить на точность
Некоторые треки не прошли проверку на точность
Конец отчёта
Ripped by GFox, Rutracker.org.

Лог создания рипа - CD3

Exact Audio Copy V0.99 prebeta 5 from 4. May 2009
Отчёт EAC об извлечении, выполненном 29. января 2011, 16:48
Ludwig van Beethoven / Unbekannte Meisterwerke (CD3)
Дисковод: Optiarc DVD RW AD-7203A Adapter: 4 ID: 1
Режим чтения : ДостоверностьИспользование точного потока : ДаОтключение кэша аудио : ДаИспользование указателей C2 : Нет
Коррекция смещения при чтении : 48Способность читать области Lead-in и Lead-out : НетЗаполнение пропущенных сэмплов тишиной : ДаУдаление блоков с тишиной в начале и конце : НетПри вычислениях CRC использовались нулевые сэмплы : ДаИнтерфейс : Встроенный Win32-интерфейс для Win NT/2000
Выходной формат : Пользовательский кодировщикВыбранный битрейт : 128 kBit/sКачество : ВысокийДобавление ID3-тэга : НетУтилита сжатия : C:\Program Files\FLAC\flac.exeДополнительные параметры : -5 -V %s
TOC извлечённого CD
Трек | Старт | Длительность | Начальный сектор | Конечный сектор --------------------------------------------------------------------- 1 | 0:00.00 | 0:34.47 | 0 | 2596 2 | 0:34.47 | 0:34.43 | 2597 | 5189 3 | 1:09.15 | 1:06.22 | 5190 | 10161 4 | 2:15.37 | 0:33.72 | 10162 | 12708 5 | 2:49.34 | 1:11.18 | 12709 | 18051 6 | 4:00.52 | 1:28.08 | 18052 | 24659 7 | 5:28.60 | 0:41.37 | 24660 | 27771 8 | 6:10.22 | 0:35.00 | 27772 | 30396 9 | 6:45.22 | 0:35.63 | 30397 | 33084 10 | 7:21.10 | 1:12.47 | 33085 | 38531 11 | 8:33.57 | 0:34.68 | 38532 | 41149 12 | 9:08.50 | 1:54.45 | 41150 | 49744 13 | 11:03.20 | 2:18.72 | 49745 | 60166 14 | 13:22.17 | 2:19.73 | 60167 | 70664 15 | 15:42.15 | 2:22.17 | 70665 | 81331 16 | 18:04.32 | 2:07.73 | 81332 | 90929 17 | 20:12.30 | 1:51.15 | 90930 | 99269 18 | 22:03.45 | 2:09.22 | 99270 | 108966 19 | 24:12.67 | 1:04.28 | 108967 | 113794 20 | 25:17.20 | 2:13.02 | 113795 | 123771 21 | 27:30.22 | 1:12.25 | 123772 | 129196 22 | 28:42.47 | 2:27.65 | 129197 | 140286 23 | 31:10.37 | 2:20.63 | 140287 | 150849 24 | 33:31.25 | 1:21.05 | 150850 | 156929 25 | 34:52.30 | 2:12.60 | 156930 | 166889 26 | 37:05.15 | 1:15.22 | 166890 | 172536 27 | 38:20.37 | 2:23.48 | 172537 | 183309 28 | 40:44.10 | 1:14.42 | 183310 | 188901 29 | 41:58.52 | 1:23.10 | 188902 | 195136 30 | 43:21.62 | 0:47.47 | 195137 | 198708 31 | 44:09.34 | 0:49.43 | 198709 | 202426 32 | 44:59.02 | 0:48.70 | 202427 | 206096 33 | 45:47.72 | 0:56.35 | 206097 | 210331 34 | 46:44.32 | 0:48.25 | 210332 | 213956 35 | 47:32.57 | 2:02.70 | 213957 | 223176 36 | 49:35.52 | 0:33.23 | 223177 | 225674 37 | 50:09.00 | 1:27.30 | 225675 | 232229 38 | 51:36.30 | 1:29.32 | 232230 | 238936 39 | 53:05.62 | 1:50.30 | 238937 | 247216 40 | 54:56.17 | 1:54.33 | 247217 | 255799 41 | 56:50.50 | 1:55.40 | 255800 | 264464 42 | 58:46.15 | 1:24.37 | 264465 | 270801 43 | 60:10.52 | 1:21.40 | 270802 | 276916 44 | 61:32.17 | 1:39.53 | 276917 | 284394 45 | 63:11.70 | 1:19.10 | 284395 | 290329 46 | 64:31.05 | 1:16.22 | 290330 | 296051 47 | 65:47.27 | 3:27.25 | 296052 | 311601
Характеристики диапазона извлечения и сообщения об ошибках
Выбранный диапазон
Имя файла D:\EAC\Ludwig van Beethoven - Unbekannte Meisterwerke (CD3).wav
Пиковый уровень 100.0 % Качество диапазона 99.9 % CRC теста 79CD5F79 CRC копии 79CD5F79 Копирование... OK
Ошибок не произошло
AccurateRip: сводка
Трек 1 точное извлечение (доверие 4) [9690BBB8]Трек 2 точное извлечение (доверие 4) [EA91BF56]Трек 3 точное извлечение (доверие 4) [D2ADBBD3]Трек 4 точное извлечение (доверие 4) [B2DEEB5A]Трек 5 точное извлечение (доверие 4) [9D53F536]Трек 6 точное извлечение (доверие 4) [878A141C]Трек 7 точное извлечение (доверие 4) [BC4FCA69]Трек 8 точное извлечение (доверие 4) [FC370EB0]Трек 9 точное извлечение (доверие 4) [46C1A7B3]Трек 10 точное извлечение (доверие 4) [00DDDB52]Трек 11 точное извлечение (доверие 4) [BC88AD18]Трек 12 точное извлечение (доверие 4) [227EE651]Трек 13 точное извлечение (доверие 4) [D2FAF1F2]Трек 14 точное извлечение (доверие 4) [080334B0]Трек 15 точное извлечение (доверие 4) [2A8BA844]Трек 16 точное извлечение (доверие 4) [5D55BB41]Трек 17 точное извлечение (доверие 4) [C0F77C2B]Трек 18 точное извлечение (доверие 4) [AC71433B]Трек 19 точное извлечение (доверие 4) [81B9A794]Трек 20 точное извлечение (доверие 4) [FC14CA61]Трек 21 точное извлечение (доверие 4) [A9F25F2F]Трек 22 точное извлечение (доверие 4) [454FAC35]Трек 23 точное извлечение (доверие 4) [A2D297A6]Трек 24 точное извлечение (доверие 4) [11BE03E1]Трек 25 точное извлечение (доверие 4) [5D908F41]Трек 26 точное извлечение (доверие 4) [89C99BEB]Трек 27 точное извлечение (доверие 4) [67A13C51]Трек 28 точное извлечение (доверие 4) [ED60B653]Трек 29 точное извлечение (доверие 4) [C94E403B]Трек 30 точное извлечение (доверие 4) [A682CE39]Трек 31 точное извлечение (доверие 4) [9931246F]Трек 32 точное извлечение (доверие 4) [E09AA7B9]Трек 33 точное извлечение (доверие 4) [4A4EE9A9]Трек 34 точное извлечение (доверие 4) [571C6D5C]Трек 35 точное извлечение (доверие 4) [0ABA4973]Трек 36 точное извлечение (доверие 4) [08ACB7AD]Трек 37 точное извлечение (доверие 4) [66A873B4]Трек 38 точное извлечение (доверие 4) [8FB25B5C]Трек 39 точное извлечение (доверие 4) [F9D05320]Трек 40 точное извлечение (доверие 4) [283E0250]Трек 41 точное извлечение (доверие 4) [BCDBE978]Трек 42 точное извлечение (доверие 4) [54D225AB]Трек 43 точное извлечение (доверие 4) [872E4ABD]Трек 44 точное извлечение (доверие 4) [FFB49ABE]Трек 45 точное извлечение (доверие 4) [708EDE53]Трек 46 точное извлечение (доверие 4) [CEDAECDD]Трек 47 точное извлечение (доверие 4) [9FAB5FFD]
Все треки извлечены точно
Конец отчёта
Ripped by GFox, Rutracker.org.

Лог создания рипа - CD4

Exact Audio Copy V0.99 prebeta 5 from 4. May 2009
Отчёт EAC об извлечении, выполненном 29. января 2011, 18:00
Ludwig van Beethoven / Unbekannte Meisterwerke (CD4)
Дисковод: Optiarc DVD RW AD-7203A Adapter: 4 ID: 1
Режим чтения : ДостоверностьИспользование точного потока : ДаОтключение кэша аудио : ДаИспользование указателей C2 : Нет
Коррекция смещения при чтении : 48Способность читать области Lead-in и Lead-out : НетЗаполнение пропущенных сэмплов тишиной : ДаУдаление блоков с тишиной в начале и конце : НетПри вычислениях CRC использовались нулевые сэмплы : ДаИнтерфейс : Встроенный Win32-интерфейс для Win NT/2000
Выходной формат : Пользовательский кодировщикВыбранный битрейт : 128 kBit/sКачество : ВысокийДобавление ID3-тэга : НетУтилита сжатия : C:\Program Files\FLAC\flac.exeДополнительные параметры : -5 -V %s
TOC извлечённого CD
Трек | Старт | Длительность | Начальный сектор | Конечный сектор --------------------------------------------------------------------- 1 | 0:00.00 | 5:30.22 | 0 | 24771 2 | 5:30.22 | 3:41.30 | 24772 | 41376 3 | 9:11.52 | 5:24.28 | 41377 | 65704 4 | 14:36.05 | 1:26.67 | 65705 | 72221 5 | 16:02.72 | 3:08.08 | 72222 | 86329 6 | 19:11.05 | 4:43.52 | 86330 | 107606 7 | 23:54.57 | 1:02.48 | 107607 | 112304 8 | 24:57.30 | 5:30.15 | 112305 | 137069 9 | 30:27.45 | 0:52.37 | 137070 | 141006 10 | 31:20.07 | 2:38.13 | 141007 | 152869 11 | 33:58.20 | 1:31.14 | 152870 | 159708 12 | 35:29.34 | 2:38.16 | 159709 | 171574 13 | 38:07.50 | 1:24.45 | 171575 | 177919 14 | 39:32.20 | 7:48.45 | 177920 | 213064 15 | 47:20.65 | 4:57.32 | 213065 | 235371 16 | 52:18.22 | 5:06.58 | 235372 | 258379 17 | 57:25.05 | 6:47.15 | 258380 | 288919 18 | 64:12.20 | 6:06.25 | 288920 | 316394
Характеристики диапазона извлечения и сообщения об ошибках
Выбранный диапазон
Имя файла D:\EAC\Ludwig van Beethoven - Unbekannte Meisterwerke (CD4).wav
Пиковый уровень 98.3 % Качество диапазона 99.9 % CRC теста 9424AFE8 CRC копии 9424AFE8 Копирование... OK
Ошибок не произошло
AccurateRip: сводка
Трек 1 точное извлечение (доверие 2) [F2845AD3]Трек 2 точное извлечение (доверие 2) [754F2D1D]Трек 3 точное извлечение (доверие 2) [83F4601A]Трек 4 точное извлечение (доверие 2) [10396753]Трек 5 точное извлечение (доверие 2) [CF7213EC]Трек 6 точное извлечение (доверие 2) [158E991B]Трек 7 точное извлечение (доверие 2) [3A37900C]Трек 8 точное извлечение (доверие 2) [763D0B7A]Трек 9 точное извлечение (доверие 2) [84B16BBD]Трек 10 точное извлечение (доверие 2) [EBE70874]Трек 11 точное извлечение (доверие 2) [675DE94C]Трек 12 точное извлечение (доверие 2) [0FCA0623]Трек 13 точное извлечение (доверие 2) [A84369DB]Трек 14 точное извлечение (доверие 2) [5885BADF]Трек 15 точное извлечение (доверие 2) [2E07B947]Трек 16 точное извлечение (доверие 2) [E6CF737D]Трек 17 точное извлечение (доверие 2) [7525205F]Трек 18 точное извлечение (доверие 2) [0287EF3B]
Все треки извлечены точно
Конец отчёта
Ripped by GFox, Rutracker.org.

Лог создания рипа - CD5

Exact Audio Copy V0.99 prebeta 5 from 4. May 2009
Отчёт EAC об извлечении, выполненном 29. января 2011, 18:48
Ludwig van Beethoven / Unbekannte Meisterwerke (CD5)
Дисковод: Optiarc DVD RW AD-7203A Adapter: 4 ID: 1
Режим чтения : ДостоверностьИспользование точного потока : ДаОтключение кэша аудио : ДаИспользование указателей C2 : Нет
Коррекция смещения при чтении : 48Способность читать области Lead-in и Lead-out : НетЗаполнение пропущенных сэмплов тишиной : ДаУдаление блоков с тишиной в начале и конце : НетПри вычислениях CRC использовались нулевые сэмплы : ДаИнтерфейс : Встроенный Win32-интерфейс для Win NT/2000
Выходной формат : Пользовательский кодировщикВыбранный битрейт : 128 kBit/sКачество : ВысокийДобавление ID3-тэга : НетУтилита сжатия : C:\Program Files\FLAC\flac.exeДополнительные параметры : -5 -V %s
TOC извлечённого CD
Трек | Старт | Длительность | Начальный сектор | Конечный сектор --------------------------------------------------------------------- 1 | 0:00.00 | 2:11.32 | 0 | 9856 2 | 2:11.32 | 2:16.40 | 9857 | 20096 3 | 4:27.72 | 2:01.38 | 20097 | 29209 4 | 6:29.35 | 2:16.07 | 29210 | 39416 5 | 8:45.42 | 2:07.70 | 39417 | 49011 6 | 10:53.37 | 2:09.73 | 49012 | 58759 7 | 13:03.35 | 2:09.62 | 58760 | 68496 8 | 15:13.22 | 2:25.18 | 68497 | 79389 9 | 17:38.40 | 2:11.25 | 79390 | 89239 10 | 19:49.65 | 2:31.67 | 89240 | 100631 11 | 22:21.57 | 2:08.60 | 100632 | 110291 12 | 24:30.42 | 2:12.38 | 110292 | 120229 13 | 26:43.05 | 3:52.62 | 120230 | 137691 14 | 30:35.67 | 9:56.63 | 137692 | 182454 15 | 40:32.55 | 9:01.20 | 182455 | 223049 16 | 49:34.00 | 7:57.17 | 223050 | 258841 17 | 57:31.17 | 1:48.40 | 258842 | 266981 18 | 59:19.57 | 0:55.13 | 266982 | 271119 19 | 60:14.70 | 1:37.52 | 271120 | 278446 20 | 61:52.47 | 1:25.45 | 278447 | 284866 21 | 63:18.17 | 1:00.60 | 284867 | 289426 22 | 64:19.02 | 1:41.50 | 289427 | 297051 23 | 66:00.52 | 0:31.33 | 297052 | 299409 24 | 66:32.10 | 1:43.25 | 299410 | 307159
Характеристики диапазона извлечения и сообщения об ошибках
Выбранный диапазон
Имя файла D:\EAC\Ludwig van Beethoven - Unbekannte Meisterwerke (CD5).wav
Пиковый уровень 98.6 % Качество диапазона 99.9 % CRC теста 77629C42 CRC копии 77629C42 Копирование... OK
Ошибок не произошло
AccurateRip: сводка
Трек 1 точное извлечение (доверие 3) [18E32705]Трек 2 точное извлечение (доверие 3) [5F2CCCBF]Трек 3 точное извлечение (доверие 3) [9DA7E00C]Трек 4 точное извлечение (доверие 3) [B1C4900D]Трек 5 точное извлечение (доверие 3) [CBFCDAFF]Трек 6 точное извлечение (доверие 3) [9622F86A]Трек 7 точное извлечение (доверие 3) [4197902B]Трек 8 точное извлечение (доверие 3) [70BB0E14]Трек 9 точное извлечение (доверие 3) [A2C5BB6B]Трек 10 точное извлечение (доверие 3) [072060AA]Трек 11 точное извлечение (доверие 3) [65D763A4]Трек 12 точное извлечение (доверие 3) [7EB5A43B]Трек 13 точное извлечение (доверие 3) [C0C71D46]Трек 14 точное извлечение (доверие 3) [8702F630]Трек 15 точное извлечение (доверие 3) [A8B8BD90]Трек 16 точное извлечение (доверие 3) [C3389402]Трек 17 точное извлечение (доверие 3) [61BED03E]Трек 18 точное извлечение (доверие 3) [8C729CB7]Трек 19 точное извлечение (доверие 3) [D6DA2B27]Трек 20 точное извлечение (доверие 3) [B2422FBE]Трек 21 точное извлечение (доверие 3) [47164889]Трек 22 точное извлечение (доверие 3) [89941E6E]Трек 23 точное извлечение (доверие 3) [C541B6C8]Трек 24 точное извлечение (доверие 3) [C32C3754]
Все треки извлечены точно
Конец отчёта
Ripped by GFox, Rutracker.org.

Лог создания рипа - CD6

Exact Audio Copy V0.99 prebeta 5 from 4. May 2009
Отчёт EAC об извлечении, выполненном 29. января 2011, 20:52
Ludwig van Beethoven / Unbekannte Meisterwerke (CD6)
Дисковод: Optiarc DVD RW AD-7203A Adapter: 4 ID: 1
Режим чтения : ДостоверностьИспользование точного потока : ДаОтключение кэша аудио : ДаИспользование указателей C2 : Нет
Коррекция смещения при чтении : 48Способность читать области Lead-in и Lead-out : НетЗаполнение пропущенных сэмплов тишиной : ДаУдаление блоков с тишиной в начале и конце : НетПри вычислениях CRC использовались нулевые сэмплы : ДаИнтерфейс : Встроенный Win32-интерфейс для Win NT/2000
Выходной формат : Пользовательский кодировщикВыбранный битрейт : 128 kBit/sКачество : ВысокийДобавление ID3-тэга : НетУтилита сжатия : C:\Program Files\FLAC\flac.exeДополнительные параметры : -5 -V %s
TOC извлечённого CD
Трек | Старт | Длительность | Начальный сектор | Конечный сектор --------------------------------------------------------------------- 1 | 0:00.00 | 0:31.32 | 0 | 2356 2 | 0:31.32 | 0:26.68 | 2357 | 4374 3 | 0:58.25 | 0:41.55 | 4375 | 7504 4 | 1:40.05 | 0:57.29 | 7505 | 11808 5 | 2:37.34 | 0:33.61 | 11809 | 14344 6 | 3:11.20 | 0:31.27 | 14345 | 16696 7 | 3:42.47 | 0:34.50 | 16697 | 19296 8 | 4:17.22 | 0:44.18 | 19297 | 22614 9 | 5:01.40 | 0:31.60 | 22615 | 24999 10 | 5:33.25 | 0:41.37 | 25000 | 28111 11 | 6:14.62 | 0:36.28 | 28112 | 30839 12 | 6:51.15 | 1:09.47 | 30840 | 36061 13 | 8:00.62 | 0:21.15 | 36062 | 37651 14 | 8:22.02 | 0:46.20 | 37652 | 41121 15 | 9:08.22 | 1:24.00 | 41122 | 47421 16 | 10:32.22 | 0:16.30 | 47422 | 48651 17 | 10:48.52 | 0:19.33 | 48652 | 50109 18 | 11:08.10 | 0:43.37 | 50110 | 53371 19 | 11:51.47 | 0:38.05 | 53372 | 56226 20 | 12:29.52 | 2:35.63 | 56227 | 67914 21 | 15:05.40 | 0:39.40 | 67915 | 70879 22 | 15:45.05 | 0:55.10 | 70880 | 75014 23 | 16:40.15 | 0:31.12 | 75015 | 77351 24 | 17:11.27 | 0:39.60 | 77352 | 80336 25 | 17:51.12 | 0:21.60 | 80337 | 81971 26 | 18:12.72 | 0:37.03 | 81972 | 84749 27 | 18:50.00 | 0:43.30 | 84750 | 88004 28 | 19:33.30 | 1:41.35 | 88005 | 95614 29 | 21:14.65 | 0:44.62 | 95615 | 98976 30 | 21:59.52 | 0:29.68 | 98977 | 101219 31 | 22:29.45 | 0:24.17 | 101220 | 103036 32 | 22:53.62 | 0:32.30 | 103037 | 105466 33 | 23:26.17 | 0:28.28 | 105467 | 107594 34 | 23:54.45 | 1:30.47 | 107595 | 114391 35 | 25:25.17 | 0:16.40 | 114392 | 115631 36 | 25:41.57 | 1:20.35 | 115632 | 121666 37 | 27:02.17 | 0:42.08 | 121667 | 124824 38 | 27:44.25 | 1:13.42 | 124825 | 130341 39 | 28:57.67 | 0:56.60 | 130342 | 134601 40 | 29:54.52 | 1:16.40 | 134602 | 140341 41 | 31:11.17 | 1:07.63 | 140342 | 145429 42 | 32:19.05 | 0:30.47 | 145430 | 147726 43 | 32:49.52 | 0:25.33 | 147727 | 149634 44 | 33:15.10 | 1:09.55 | 149635 | 154864 45 | 34:24.65 | 1:09.47 | 154865 | 160086 46 | 35:34.37 | 1:15.68 | 160087 | 165779 47 | 36:50.30 | 1:03.20 | 165780 | 170524 48 | 37:53.50 | 0:21.10 | 170525 | 172109 49 | 38:14.60 | 4:08.65 | 172110 | 190774 50 | 42:23.50 | 1:38.17 | 190775 | 198141 51 | 44:01.67 | 1:58.35 | 198142 | 207026 52 | 46:00.27 | 1:46.63 | 207027 | 215039 53 | 47:47.15 | 0:53.40 | 215040 | 219054 54 | 48:40.55 | 1:08.40 | 219055 | 224194 55 | 49:49.20 | 1:30.22 | 224195 | 230966 56 | 51:19.42 | 1:00.20 | 230967 | 235486 57 | 52:19.62 | 1:03.03 | 235487 | 240214 58 | 53:22.65 | 1:40.60 | 240215 | 247774 59 | 55:03.50 | 1:41.10 | 247775 | 255359 60 | 56:44.60 | 1:18.10 | 255360 | 261219 61 | 58:02.70 | 1:09.07 | 261220 | 266401 62 | 59:12.02 | 0:51.28 | 266402 | 270254 63 | 60:03.30 | 0:59.65 | 270255 | 274744 64 | 61:03.20 | 1:36.05 | 274745 | 281949 65 | 62:39.25 | 1:08.57 | 281950 | 287106 66 | 63:48.07 | 1:27.20 | 287107 | 293651 67 | 65:15.27 | 1:07.08 | 293652 | 298684 68 | 66:22.35 | 1:32.07 | 298685 | 305591 69 | 67:54.42 | 1:29.58 | 305592 | 312324 70 | 69:24.25 | 1:15.62 | 312325 | 318011 71 | 70:40.12 | 1:12.13 | 318012 | 323424 72 | 71:52.25 | 1:31.55 | 323425 | 330304
Характеристики диапазона извлечения и сообщения об ошибках
Выбранный диапазон
Имя файла D:\EAC\Ludwig van Beethoven - Unbekannte Meisterwerke (CD6).wav
Пиковый уровень 99.7 % Качество диапазона 99.9 % CRC теста C8A92986 CRC копии C8A92986 Копирование... OK
Ошибок не произошло
AccurateRip: сводка
Трек 1 точное извлечение (доверие 2) [D9D79F72]Трек 2 точное извлечение (доверие 2) [FD75548A]Трек 3 точное извлечение (доверие 2) [87E8F8CC]Трек 4 точное извлечение (доверие 2) [B5FA7466]Трек 5 точное извлечение (доверие 2) [7D9BB88E]Трек 6 точное извлечение (доверие 2) [CC4D55E9]Трек 7 точное извлечение (доверие 2) [CA4B1435]Трек 8 точное извлечение (доверие 2) [7282035C]Трек 9 точное извлечение (доверие 2) [D3AF4A60]Трек 10 точное извлечение (доверие 2) [13B22A69]Трек 11 точное извлечение (доверие 2) [8F3EBF53]Трек 12 точное извлечение (доверие 2) [69DF9B3E]Трек 13 точное извлечение (доверие 2) [E8F06C31]Трек 14 точное извлечение (доверие 2) [0B71BC70]Трек 15 точное извлечение (доверие 2) [3E3F51D0]Трек 16 точное извлечение (доверие 2) [3D57C8D1]Трек 17 точное извлечение (доверие 2) [E7A5F248]Трек 18 точное извлечение (доверие 2) [3502BC32]Трек 19 точное извлечение (доверие 2) [33AE8881]Трек 20 точное извлечение (доверие 2) [F0DEB7E6]Трек 21 точное извлечение (доверие 2) [4C2F659D]Трек 22 точное извлечение (доверие 2) [508AA4CB]Трек 23 точное извлечение (доверие 2) [D7EB9638]Трек 24 точное извлечение (доверие 2) [6DF91D4E]Трек 25 точное извлечение (доверие 2) [38FAD631]Трек 26 точное извлечение (доверие 2) [75B3D426]Трек 27 точное извлечение (доверие 2) [5365408A]Трек 28 точное извлечение (доверие 2) [1A259FB1]Трек 29 точное извлечение (доверие 2) [3CE12D96]Трек 30 точное извлечение (доверие 2) [14C2FA52]Трек 31 точное извлечение (доверие 2) [96F89123]Трек 32 точное извлечение (доверие 2) [6E928604]Трек 33 точное извлечение (доверие 2) [D75FC04D]Трек 34 точное извлечение (доверие 2) [3931857E]Трек 35 точное извлечение (доверие 2) [3CD69583]Трек 36 точное извлечение (доверие 2) [555373BA]Трек 37 точное извлечение (доверие 2) [3E986172]Трек 38 точное извлечение (доверие 2) [093021F0]Трек 39 точное извлечение (доверие 2) [00086967]Трек 40 точное извлечение (доверие 2) [030CFB34]Трек 41 точное извлечение (доверие 2) [8F26FD5F]Трек 42 точное извлечение (доверие 2) [36C9311E]Трек 43 точное извлечение (доверие 2) [922E8E5A]Трек 44 точное извлечение (доверие 2) [A4408570]Трек 45 точное извлечение (доверие 2) [62540D38]Трек 46 точное извлечение (доверие 2) [5B75D8D0]Трек 47 точное извлечение (доверие 2) [96C0C5E2]Трек 48 точное извлечение (доверие 2) [FA9EAEDD]Трек 49 точное извлечение (доверие 2) [4A059C25]Трек 50 точное извлечение (доверие 2) [BE56CB66]Трек 51 точное извлечение (доверие 2) [0E0818AB]Трек 52 точное извлечение (доверие 2) [1DE7A634]Трек 53 точное извлечение (доверие 2) [80946DE3]Трек 54 точное извлечение (доверие 2) [DC208A4E]Трек 55 точное извлечение (доверие 2) [13E726D2]Трек 56 точное извлечение (доверие 2) [0D646050]Трек 57 точное извлечение (доверие 2) [D66A0C38]Трек 58 точное извлечение (доверие 2) [44266A25]Трек 59 точное извлечение (доверие 2) [BFE4C061]Трек 60 точное извлечение (доверие 2) [3736AA9C]Трек 61 точное извлечение (доверие 2) [E7AEE091]Трек 62 точное извлечение (доверие 2) [9EAE4464]Трек 63 точное извлечение (доверие 2) [2FCD25BB]Трек 64 точное извлечение (доверие 2) [BB3C49E8]Трек 65 точное извлечение (доверие 2) [07233C2F]Трек 66 точное извлечение (доверие 2) [6CBD2DC4]Трек 67 точное извлечение (доверие 2) [B629815C]Трек 68 точное извлечение (доверие 2) [82AC1E5F]Трек 69 точное извлечение (доверие 2) [E9059B5C]Трек 70 точное извлечение (доверие 2) [B05D61C9]Трек 71 точное извлечение (доверие 2) [934CE9E4]Трек 72 точное извлечение (доверие 2) [AB7D449F]
Все треки извлечены точно
Конец отчёта
Ripped by GFox, Rutracker.org.

Лог создания рипа - CD7

Exact Audio Copy V0.99 prebeta 5 from 4. May 2009
Отчёт EAC об извлечении, выполненном 29. января 2011, 21:41
Ludwig van Beethoven / Unbekannte Meisterwerke (CD7)
Дисковод: Optiarc DVD RW AD-7203A Adapter: 4 ID: 1
Режим чтения : ДостоверностьИспользование точного потока : ДаОтключение кэша аудио : ДаИспользование указателей C2 : Нет
Коррекция смещения при чтении : 48Способность читать области Lead-in и Lead-out : НетЗаполнение пропущенных сэмплов тишиной : ДаУдаление блоков с тишиной в начале и конце : НетПри вычислениях CRC использовались нулевые сэмплы : ДаИнтерфейс : Встроенный Win32-интерфейс для Win NT/2000
Выходной формат : Пользовательский кодировщикВыбранный битрейт : 128 kBit/sКачество : ВысокийДобавление ID3-тэга : НетУтилита сжатия : C:\Program Files\FLAC\flac.exeДополнительные параметры : -5 -V %s
TOC извлечённого CD
Трек | Старт | Длительность | Начальный сектор | Конечный сектор --------------------------------------------------------------------- 1 | 0:00.00 | 9:51.17 | 0 | 44341 2 | 9:51.17 | 6:11.48 | 44342 | 72214 3 | 16:02.65 | 3:09.12 | 72215 | 86401 4 | 19:12.02 | 11:59.55 | 86402 | 140381 5 | 31:11.57 | 6:25.48 | 140382 | 169304 6 | 37:37.30 | 2:24.37 | 169305 | 180141 7 | 40:01.67 | 2:29.73 | 180142 | 191389 8 | 42:31.65 | 9:51.44 | 191390 | 235758 9 | 52:23.34 | 7:00.51 | 235759 | 267309 10 | 59:24.10 | 4:36.25 | 267310 | 288034 11 | 64:00.35 | 6:35.00 | 288035 | 317659
Характеристики диапазона извлечения и сообщения об ошибках
Выбранный диапазон
Имя файла D:\EAC\Ludwig van Beethoven - Unbekannte Meisterwerke (CD7).wav
Пиковый уровень 99.2 % Качество диапазона 99.9 % CRC теста 9A19B547 CRC копии 9A19B547 Копирование... OK
Ошибок не произошло
AccurateRip: сводка
Трек 1 точное извлечение (доверие 3) [FA7AA2C5]Трек 2 точное извлечение (доверие 3) [4B14AEA9]Трек 3 точное извлечение (доверие 3) [F25AC72A]Трек 4 точное извлечение (доверие 3) [EB1C7E6C]Трек 5 точное извлечение (доверие 3) [A3CEC3F9]Трек 6 точное извлечение (доверие 3) [F2F2582A]Трек 7 точное извлечение (доверие 3) [1F637656]Трек 8 точное извлечение (доверие 3) [2F1FDF5B]Трек 9 точное извлечение (доверие 3) [D17E498E]Трек 10 точное извлечение (доверие 3) [40F5AB45]Трек 11 точное извлечение (доверие 3) [C39F0283]
Все треки извлечены точно
Конец отчёта
Ripped by GFox, Rutracker.org.

Лог создания рипа - CD8

Exact Audio Copy V0.99 prebeta 5 from 4. May 2009
Отчёт EAC об извлечении, выполненном 29. января 2011, 22:37
Ludwig van Beethoven / Unbekannte Meisterwerke (CD8)
Дисковод: Optiarc DVD RW AD-7203A Adapter: 4 ID: 1
Режим чтения : ДостоверностьИспользование точного потока : ДаОтключение кэша аудио : ДаИспользование указателей C2 : Нет
Коррекция смещения при чтении : 48Способность читать области Lead-in и Lead-out : НетЗаполнение пропущенных сэмплов тишиной : ДаУдаление блоков с тишиной в начале и конце : НетПри вычислениях CRC использовались нулевые сэмплы : ДаИнтерфейс : Встроенный Win32-интерфейс для Win NT/2000
Выходной формат : Пользовательский кодировщикВыбранный битрейт : 128 kBit/sКачество : ВысокийДобавление ID3-тэга : НетУтилита сжатия : C:\Program Files\FLAC\flac.exeДополнительные параметры : -5 -V %s
TOC извлечённого CD
Трек | Старт | Длительность | Начальный сектор | Конечный сектор --------------------------------------------------------------------- 1 | 0:00.00 | 1:35.72 | 0 | 7196 2 | 1:35.72 | 2:40.63 | 7197 | 19259 3 | 4:16.60 | 2:59.37 | 19260 | 32721 4 | 7:16.22 | 2:12.23 | 32722 | 42644 5 | 9:28.45 | 1:47.30 | 42645 | 50699 6 | 11:16.00 | 2:31.02 | 50700 | 62026 7 | 13:47.02 | 1:03.15 | 62027 | 66766 8 | 14:50.17 | 3:13.28 | 66767 | 81269 9 | 18:03.45 | 2:28.17 | 81270 | 92386 10 | 20:31.62 | 1:54.67 | 92387 | 101003 11 | 22:26.54 | 0:54.18 | 101004 | 105071 12 | 23:20.72 | 1:56.63 | 105072 | 113834 13 | 25:17.60 | 1:36.62 | 113835 | 121096 14 | 26:54.47 | 1:54.45 | 121097 | 129691 15 | 28:49.17 | 1:43.18 | 129692 | 137434 16 | 30:32.35 | 1:57.12 | 137435 | 146221 17 | 32:29.47 | 2:08.38 | 146222 | 155859 18 | 34:38.10 | 1:54.60 | 155860 | 164469 19 | 36:32.70 | 2:34.55 | 164470 | 176074 20 | 39:07.50 | 2:57.02 | 176075 | 189351 21 | 42:04.52 | 1:44.50 | 189352 | 197201 22 | 43:49.27 | 1:41.13 | 197202 | 204789 23 | 45:30.40 | 1:51.62 | 204790 | 213176 24 | 47:22.27 | 3:54.03 | 213177 | 230729 25 | 51:16.30 | 1:39.52 | 230730 | 238206 26 | 52:56.07 | 0:40.45 | 238207 | 241251 27 | 53:36.52 | 1:15.10 | 241252 | 246886 28 | 54:51.62 | 0:54.40 | 246887 | 250976 29 | 55:46.27 | 3:07.63 | 250977 | 265064 30 | 58:54.15 | 0:47.70 | 265065 | 268659 31 | 59:42.10 | 0:44.17 | 268660 | 271976 32 | 60:26.27 | 2:17.58 | 271977 | 282309 33 | 62:44.10 | 0:56.32 | 282310 | 286541 34 | 63:40.42 | 1:32.50 | 286542 | 293491 35 | 65:13.17 | 0:48.68 | 293492 | 297159 36 | 66:02.10 | 1:52.55 | 297160 | 305614 37 | 67:54.65 | 1:53.72 | 305615 | 314161 38 | 69:48.62 | 1:04.23 | 314162 | 318984 39 | 70:53.10 | 0:58.05 | 318985 | 323339 40 | 71:51.15 | 1:40.50 | 323340 | 330889 41 | 73:31.65 | 1:43.07 | 330890 | 338621
Характеристики диапазона извлечения и сообщения об ошибках
Выбранный диапазон
Имя файла D:\EAC\Ludwig van Beethoven - Unbekannte Meisterwerke (CD8).wav
Пиковый уровень 93.1 % Качество диапазона 99.9 % CRC теста FC6BC247 CRC копии FC6BC247 Копирование... OK
Ошибок не произошло
AccurateRip: сводка
Трек 1 точное извлечение (доверие 3) [B455BF68]Трек 2 точное извлечение (доверие 3) [7BA99B0E]Трек 3 точное извлечение (доверие 3) [611891F3]Трек 4 точное извлечение (доверие 3) [BAF0F0C1]Трек 5 точное извлечение (доверие 3) [932200D7]Трек 6 точное извлечение (доверие 3) [6FB47F5F]Трек 7 точное извлечение (доверие 3) [D55871E1]Трек 8 точное извлечение (доверие 3) [6A9A9028]Трек 9 точное извлечение (доверие 3) [E6B90BB5]Трек 10 точное извлечение (доверие 3) [BD90B2A4]Трек 11 точное извлечение (доверие 3) [085ABD47]Трек 12 точное извлечение (доверие 3) [9A77E87D]Трек 13 точное извлечение (доверие 3) [BBFDF0D4]Трек 14 точное извлечение (доверие 3) [F02A3103]Трек 15 точное извлечение (доверие 3) [7D3241AB]Трек 16 точное извлечение (доверие 3) [C2149F9C]Трек 17 точное извлечение (доверие 3) [2A029207]Трек 18 точное извлечение (доверие 3) [E1DD377B]Трек 19 точное извлечение (доверие 3) [69DED46E]Трек 20 точное извлечение (доверие 3) [1E0A3E02]Трек 21 точное извлечение (доверие 3) [9B25C1E6]Трек 22 точное извлечение (доверие 3) [359C5D02]Трек 23 точное извлечение (доверие 3) [8F7D77F3]Трек 24 точное извлечение (доверие 3) [1F77D6B1]Трек 25 точное извлечение (доверие 3) [12D3629C]Трек 26 точное извлечение (доверие 3) [0732AD45]Трек 27 точное извлечение (доверие 3) [CFAC4BF0]Трек 28 точное извлечение (доверие 3) [846152E0]Трек 29 точное извлечение (доверие 3) [47FF5CB1]Трек 30 точное извлечение (доверие 3) [2F993C55]Трек 31 точное извлечение (доверие 3) [8B3B92CE]Трек 32 точное извлечение (доверие 3) [62E40456]Трек 33 точное извлечение (доверие 3) [0D9DC05F]Трек 34 точное извлечение (доверие 3) [87F26CEF]Трек 35 точное извлечение (доверие 3) [1CD60D30]Трек 36 точное извлечение (доверие 3) [F59C1102]Трек 37 точное извлечение (доверие 3) [A8D800E7]Трек 38 точное извлечение (доверие 3) [7150C865]Трек 39 точное извлечение (доверие 3) [039922F0]Трек 40 точное извлечение (доверие 3) [94734FEA]Трек 41 точное извлечение (доверие 3) [40D37F9C]
Все треки извлечены точно
Конец отчёта
Ripped by GFox, Rutracker.org.

Лог создания рипа - CD9

Exact Audio Copy V0.99 prebeta 5 from 4. May 2009
Отчёт EAC об извлечении, выполненном 29. января 2011, 23:31
Ludwig van Beethoven / Unbekannte Meisterwerke (CD9)
Дисковод: Optiarc DVD RW AD-7203A Adapter: 4 ID: 1
Режим чтения : ДостоверностьИспользование точного потока : ДаОтключение кэша аудио : ДаИспользование указателей C2 : Нет
Коррекция смещения при чтении : 48Способность читать области Lead-in и Lead-out : НетЗаполнение пропущенных сэмплов тишиной : ДаУдаление блоков с тишиной в начале и конце : НетПри вычислениях CRC использовались нулевые сэмплы : ДаИнтерфейс : Встроенный Win32-интерфейс для Win NT/2000
Выходной формат : Пользовательский кодировщикВыбранный битрейт : 128 kBit/sКачество : ВысокийДобавление ID3-тэга : НетУтилита сжатия : C:\Program Files\FLAC\flac.exeДополнительные параметры : -5 -V %s
TOC извлечённого CD
Трек | Старт | Длительность | Начальный сектор | Конечный сектор --------------------------------------------------------------------- 1 | 0:00.00 | 7:55.05 | 0 | 35629 2 | 7:55.05 | 4:19.00 | 35630 | 55054 3 | 12:14.05 | 5:48.70 | 55055 | 81224 4 | 18:03.00 | 4:15.40 | 81225 | 100389 5 | 22:18.40 | 2:34.27 | 100390 | 111966 6 | 24:52.67 | 5:15.08 | 111967 | 135599 7 | 30:08.00 | 4:18.15 | 135600 | 154964 8 | 34:26.15 | 6:06.57 | 154965 | 182471 9 | 40:32.72 | 4:04.45 | 182472 | 200816 10 | 44:37.42 | 5:08.10 | 200817 | 223926 11 | 49:45.52 | 2:14.70 | 223927 | 234046 12 | 52:00.47 | 3:53.25 | 234047 | 251546 13 | 55:53.72 | 3:51.55 | 251547 | 268926 14 | 59:45.52 | 5:18.10 | 268927 | 292786 15 | 65:03.62 | 1:56.53 | 292787 | 301539 16 | 67:00.40 | 3:38.32 | 301540 | 317921
Характеристики диапазона извлечения и сообщения об ошибках
Выбранный диапазон
Имя файла D:\EAC\Ludwig van Beethoven - Unbekannte Meisterwerke (CD9).wav
Пиковый уровень 99.3 % Качество диапазона 99.9 % CRC теста 127BBE01 CRC копии 127BBE01 Копирование... OK
Ошибок не произошло
AccurateRip: сводка
Трек 1 точное извлечение (доверие 2) [A6E4BCE8]Трек 2 точное извлечение (доверие 2) [022CA8CD]Трек 3 точное извлечение (доверие 2) [C74A4361]Трек 4 точное извлечение (доверие 2) [3DC44303]Трек 5 точное извлечение (доверие 2) [CA46109A]Трек 6 точное извлечение (доверие 2) [8C0204D2]Трек 7 точное извлечение (доверие 2) [507C593A]Трек 8 точное извлечение (доверие 2) [AAB8EF5C]Трек 9 точное извлечение (доверие 2) [7341EFC7]Трек 10 точное извлечение (доверие 2) [445431F6]Трек 11 точное извлечение (доверие 2) [DE48FD89]Трек 12 точное извлечение (доверие 2) [2F223588]Трек 13 точное извлечение (доверие 2) [477F41EB]Трек 14 точное извлечение (доверие 2) [6F895910]Трек 15 точное извлечение (доверие 2) [B4A1D95D]Трек 16 точное извлечение (доверие 2) [0537DA48]
Все треки извлечены точно
Конец отчёта
Ripped by GFox, Rutracker.org.
-Доп. информация: Первые строчки в списке самых недооценённых композиторов занимают не известные только высоколобым музыковедам имена, а хорошо всем знакомые Бах, Моцарт и Бетховен. Последнего знают в основном как автора самого бурного симфонического цикла и нескольких десятков сонат для фортепиано. Сколько фортепианных концертов написал Бетховен? Пять? А может семь или восемь? Струнный квартет, переделанный из Девятой фортепианной сонаты, шесть сборников танцев, четыре сборника песен (среди которых есть и русские), оратория на библейские темы, Верховой балет и Три пьесы для механических часов - бокс "Неизвестные шедевры" позволяет окунуться в мир музыки Бетховена, каким мы совсем не привыкли его видеть.-
-
-
[teatrix.ru].t10035.torrent 
Торрент: Зарегистрирован [ 2015-10-25 20:37 ] · D52C81B9611D6130DD6657D290193D9FBADCD62F

Скачать .torrent

Скачать

18 KB

Статус: проверено
Скачан: 1 раз
Размер: 2.69 GB
terms.php



Быстрый ответ

Имя:

      
Для отправки сообщений необходимо включить JavaScript
Показать сообщения:    

Текущее время: 21-Янв 11:38

Часовой пояс: UTC + 3


Вы можете начинать темы
Вы можете отвечать на сообщения
Вы не можете редактировать свои сообщения
Вы не можете удалять свои сообщения
Вы не можете голосовать в опросах
Вы не можете прикреплять файлы к сообщениям
Вы можете скачивать файлы