(Classical) Elliott Carter - A Nonesuch Retrospective (4CD Box Set) (Paul Jacobs, Gilbert Kalish, the Composers Quartet, Jan DeGaetani, Fred Sherry, Arthur Weisberg, the Contemporary Chamber Ens. etc) 2009, FLAC (tracks+.cue) lossless


Статистика раздачи [Обновить пиров]
Размер:  1.11 GB   |    Зарегистрирован:  1 год 1 месяц   |    Скачан:  0 раз

Полного источника не было: Никогда

 
   
 
 
 

[Цитировать]

Elliott Carter - A Nonesuch Retrospective (4CD Box Set)
Жанр: Classical
Страна-производитель диска: USA
Год издания диска: 2009
Издатель (лейбл): Nonesuch
Номер по каталогу: 7559799221
Дата записи: 1968-1985
Аудиокодек: FLAC
Тип рипа: tracks+.cue
Битрейт аудио: lossless
Продолжительность: 04:29:21 (01:06:49 + 01:14:48 + 01:05:55 + 01:01:48)
Источник: net (grasprelease)
Наличие сканов в содержимом раздачи: нет

Треклист - Disc 1

Piano Sonata
01. 1. Maestoso
02. 2. Andante
Poems (3) of Robert Frost, for mezzo-soprano (or baritone) & small orchestra (or piano)
03. Dust of Snow
04. The Rose Family
Minotaur, ballet in 2 scenes, for orchestra: Scene 1. King Minos' Palace in Crete
05. Overture, The
06. Queen Pasiphae prepares for a tryst with the sacred bull, The
07. Entrance of the bulls and the sacred bull, The
08. Dance of the bulls and Pasiphae with the sacred bull, The
09. Interlude: Pasiphae's heartbeat becomes the pounding of hamme, The
Minotaur, ballet in 2 scenes, for orchestra: Scene 2. Before the Labyrinth
10. Building the labyrinth to imprison the Minotaur who destroys men, The
11. Entrance of King Minos, The
12. Selection of Greek victims to be sent into the labyrinth, The
13. Ariadne, princess of Crete, dances with Theseus, a Greek victim, The
14. Greek victims are driven into the labyrinth, The
15. Theseus' farewell to Ariadne as he enters the labyrinth, The
16. Ariadne unwinds her thread as Theseus, entering the labyrinth, pulls, The
17. Theseus fights and kills the Minotaur, The (as his movements are transmit
18. Ariadne rewinds her thread to lead Theseus out of the labyrinth, The
19. The thread breaks. Ariadne is greatly dismayed, The
20. Theseus and some of the Greeks emerge from the labyrinth and rejoice, The
21. The Greeks and Theseus, forgetting Ariadne, leave Crete, The
Elegy, for string orchestra
22. Elegy, for string orchestra

Треклист - Disc 2

Sonata for cello & piano
01. Moderato
02. Vivace, molto leggiero
03. Adagio
04. Alegro
String Quartet No. 1
05. Fantasia: Maestoso - Allegro scorrevole
06. Allegro scorrevole - Adagio
07. Variations
Sonata for flute, oboe, cello & harpsichord
08. Risoluto
09. Lento
10. Allegro

Треклист - Disc 3

Variations for Orchestra
01. Variations for Orchestra
String Quartet No. 2
02. Introduction
03. 1. Allegro fantastico
04. Cadenza for Viola
05. 2. Presto scherzando
06. Cadenza for Cello
07. 3. Andante espressivo
08. Cadenza for First Violin
09. 4. Allegro
10. Conclusion
Double Concerto for harpsichord, piano & 2 chamber orchestras
11. Introduction
12. Cadenza for Harpsichord
13. Allegro scherzando
14. Adagio
15. Presto
16. Cadenzas for Piano
17. Coda

Треклист - Disc 4

Night Fantasies, for piano
01. Night Fantasies, for piano
Triple Duo, for ensemble
02. Allegro
03. Vivo - Animato
04. Allegretto
05. Vivo
06. Maestoso - Lento - Maestoso - Scherzoso
07. Allegro fantastico
In Sleep, in Thunder, for tenor & 14 instruments
08. Dolphins
09. Across the Yard: La Ignota
10. Harriet
11. Dies Irae
12. Careless Night
13. In Genesis

Исполнители, credits etc

MUSICIANS
Disc One
Paul Jacobs, piano (1-2)
Jan DeGaetani, mezzo-soprano; Gilbert Kalish, piano (3-4)
New York Chamber Symphony, Gerard Schwarz, conductor (5-21)
Los Angeles Chamber Orchestra, Gerard Schwarz, conductor (22)
Disc Two
Joel Krosnick, cello; Paul Jacobs, piano (1-4)
The Composers Quartet (5-7): Matthew Raimondi, Anahid Ajemian, violin; Jean Dupouy, viola; Michael Rudiakov, cello
Harvey Sollberger, flute; Charles Kuskin, oboe; Fred Sherry, cello; Paul Jacobs, harpsichord (8-10)
Disc Three
Chicago Symphony Orchestra, James Levine, conductor (1)
The Composers Quartet (2-10): Matthew Raimondi, Anahid Ajemian, violin; Jean Dupouy, viola; Michael Rudiakov, cello
Paul Jacobs, harpsichord; Gilbert Kalish, piano; The Contemporary Chamber Ensemble (11-17): Arthur Weisberg, conductor. Orchestra I (harpsichord): Paul Dunkel, flute/piccolo; Douglas Hill, horn; Allan Dean, trumpet; John Swallow, trombone; Raymond DesRoches, Claire Heldrich, percussion; Jacob Glick, viola; Jeffrey Levine, contrabass. Orchestra II (piano): George Haas, oboe; Allen Blustine, clarinet/piccolo clarinet; Donald MacCourt, bassoon; Joseph Anderer, horn; Howard Van Hyning, Richard Fitz, percussion; Linda Quan, violin; Fred Sherry, cello
Disc Four
Paul Jacobs, piano (1)
The Fires of London (2-7): Philippa Davies, flute; David Campbell, clarinet; Rosemary Furniss, violin; Jonathan Williams, cello; Gregory Knowles, percussion
Martyn Hill, tenor; London Sinfonietta, Oliver Knussen, conductor (8-13)
PRODUCTION CREDITS
Disc One
Tracks 1-2 Produced and engineered by Max Wilcox; Recorded August 1982 at RCA Studio A, New York City
Tracks 3-4 Produced by Teresa Sterne; Engineering and Musical Production: Max Wilcox; Recorded December 1987 at the American Academy and Institute of Arts and Letters, New York City; Digital Engineering: MacDonald Moore
Tracks 5-21 Produced and engineered by Max Wilcox; Recorded December 6, 1988 at the Manhattan Center, New York City
Track 22 Production and Musical Supervision by Marc J. Aubort and Joanna Nickrenz; Recorded April 2, 1980 at Ambassador Auditorium, Pasadena, California; Engineered by Elite Recordings, Inc. and Roger Mayer, Elektra Sound Recorders
Disc Two
Tracks 1-4 Coordinator: Teresa Sterne; Recorded August 1968 at Rutgers Presbyterian Church, New York City; Engineered by Marc J. Aubort
Track 5-7 Coordinator: Teresa Sterne; Recorded April 21-23, 1970 under the musical supervision of the composer; Engineered by Marc J. Aubort and Joanna Nickrenz; Mastered by Robert C. Ludwig
Track 8-10 Coordinator: Teresa Sterne; Recorded August 1968 at Rutgers Presbyterian Church, New York City, under the musical supervision of the composer; Engineered by Marc J. Aubort
Disc Three
Track 1 Executive Producer: Dr. Steven Paul; Recording Producer: Christopher Adler; Recorded July 1990 at Orchestra Hall, Chicago; Balance Engineer: Gregor Zielinsky; Recording Engineers: Klaus Behrens, Hans-Rudolf Muller; Post-Production and editing: Arend Prohmann
Track 2-10 Coordinator: Teresa Sterne; Recorded April 21-23, 1970 under the musical supervision of the composer; Engineered by Marc J. Aubort and Joanna Nickrenz; Mastered by Robert C. Ludwig
Tracks 11-17 Coordinator: Teresa Sterne; Commissioned by the Fromm Music Foundation; Recorded September 1973 by Phonag Studios, Lindau/Zurich, Switzerland, in cooperation with Elite Recordings, Inc., New York; Recording Directors: Helmuth Kolbe and Joanna Nickrenz; Engineered by Helmuth Kolbe and Robert Lattman
Disc Four
Track 1 Produced and engineered by Max Wilcox; Recorded August 1982 at RCA Studio A, New York City
Tracks 2-7 Produced by Oliver Knussen; Recorded November 5, 1984 at St. Luke's Church, Hampstead, London; Engineered by Sally Groves and John Whiting; Digital editing: Bob Auger
Tracks 8-13 Produced by Oliver Knussen; Recorded February 29, 1984 at Rosslyn Hill Chapel, Hampstead, London; Engineered by Sally Groves and John Whiting; Digital editing: Bob Auger
Mastered by Robert C. Ludwig at Gateway Mastering, Portland, Maine
Texts for In Sleep, In Thunder from Collected Poems by Robert Lowell. Copyright © 2003 by Harriet Lowell and Sheridan Lowell.
Design by Nathan Garland
Box cover photograph by Bill & Gwen Sloan

Логи создания рипа (EAC)CD1

Exact Audio Copy V0.99 prebeta 5 from 4. May 2009
EAC extraction logfile from 9. January 2011, 1:34
Carter, Elliott / A Nonesuch Retrospective (2008) [disc 1]
Used drive : TSSTcorpDVD+-RW TS-T633A Adapter: 1 ID: 0
Read mode : SecureUtilize accurate stream : YesDefeat audio cache : YesMake use of C2 pointers : No
Read offset correction : 6Overread into Lead-In and Lead-Out : NoFill up missing offset samples with silence : YesDelete leading and trailing silent blocks : NoNull samples used in CRC calculations : YesUsed interface : Installed external ASPI interfaceGap handling : Appended to previous track
Used output format : User Defined EncoderSelected bitrate : 640 kBit/sQuality : HighAdd ID3 tag : YesCommand line compressor : C:\Program Files (x86)\Exact Audio Copy\Flac\flac.exeAdditional command line options : -6 -V -T "ARTIST=%a" -T "TITLE=%t" -T "ALBUM=%g" -T "DATE=%y" -T "TRACKNUMBER=%n" -T "GENRE=%m" -T "COMMENT=%e" %s -o %d
TOC of the extracted CD
Track | Start | Length | Start sector | End sector --------------------------------------------------------- 1 | 0:00.00 | 11:32.70 | 0 | 51969 2 | 11:32.70 | 15:05.19 | 51970 | 119863 3 | 26:38.14 | 1:09.23 | 119864 | 125061 4 | 27:47.37 | 1:14.43 | 125062 | 130654 5 | 29:02.05 | 1:00.05 | 130655 | 135159 6 | 30:02.10 | 3:48.65 | 135160 | 152324 7 | 33:51.00 | 0:37.40 | 152325 | 155139 8 | 34:28.40 | 2:36.68 | 155140 | 166907 9 | 37:05.33 | 1:18.00 | 166908 | 172757 10 | 38:23.33 | 2:00.30 | 172758 | 181787 11 | 40:23.63 | 1:44.15 | 181788 | 189602 12 | 42:08.03 | 1:08.17 | 189603 | 194719 13 | 43:16.20 | 4:25.60 | 194720 | 214654 14 | 47:42.05 | 1:40.25 | 214655 | 222179 15 | 49:22.30 | 1:53.73 | 222180 | 230727 16 | 51:16.28 | 1:19.42 | 230728 | 236694 17 | 52:35.70 | 1:14.18 | 236695 | 242262 18 | 53:50.13 | 1:55.42 | 242263 | 250929 19 | 55:45.55 | 1:31.45 | 250930 | 257799 20 | 57:17.25 | 1:03.58 | 257800 | 262582 21 | 58:21.08 | 3:39.15 | 262583 | 279022 22 | 62:00.23 | 4:49.02 | 279023 | 300699
Track 1
Filename C:\Users\K Scott Handley\Desktop\Muzik\+++ RIPS\Carter, Elliott - 2008 - A Nonesuch Retrospective (2008) [disc 1]\101 - Piano Sonata (1945 rev. 1982) - I. Maestoso.wav
Pre-gap length 0:00:02.00
Peak level 93.6 % Track quality 100.0 % Copy CRC B878241A Accurately ripped (confidence 1) [8D4B6190] Copy OK
Track 2
Filename C:\Users\K Scott Handley\Desktop\Muzik\+++ RIPS\Carter, Elliott - 2008 - A Nonesuch Retrospective (2008) [disc 1]\102 - II. Andante.wav
Peak level 98.8 % Track quality 100.0 % Copy CRC 21BB7D19 Accurately ripped (confidence 1) [30D55DBF] Copy OK
Track 3
Filename C:\Users\K Scott Handley\Desktop\Muzik\+++ RIPS\Carter, Elliott - 2008 - A Nonesuch Retrospective (2008) [disc 1]\103 - Dust of Snow (1942).wav
Pre-gap length 0:00:04.05
Peak level 43.1 % Track quality 100.0 % Copy CRC 891846F5 Accurately ripped (confidence 1) [54A27AD9] Copy OK
Track 4
Filename C:\Users\K Scott Handley\Desktop\Muzik\+++ RIPS\Carter, Elliott - 2008 - A Nonesuch Retrospective (2008) [disc 1]\104 - The Rose Family (1942).wav
Peak level 55.2 % Track quality 100.0 % Copy CRC 4978538E Accurately ripped (confidence 1) [C1EA503B] Copy OK
Track 5
Filename C:\Users\K Scott Handley\Desktop\Muzik\+++ RIPS\Carter, Elliott - 2008 - A Nonesuch Retrospective (2008) [disc 1]\105 - The Minotaur (1947) - Scene I - King Minos' Palace in Crete - Overture.wav
Pre-gap length 0:00:03.26
Peak level 60.2 % Track quality 100.0 % Copy CRC 64FB6055 Accurately ripped (confidence 1) [53BF0D77] Copy OK
Track 6
Filename C:\Users\K Scott Handley\Desktop\Muzik\+++ RIPS\Carter, Elliott - 2008 - A Nonesuch Retrospective (2008) [disc 1]\106 - Scene I - Queen Pasiphae prepares for a tryst.wav
Peak level 58.4 % Track quality 100.0 % Copy CRC 62FCC4B4 Accurately ripped (confidence 1) [A9F15B7A] Copy OK
Track 7
Filename C:\Users\K Scott Handley\Desktop\Muzik\+++ RIPS\Carter, Elliott - 2008 - A Nonesuch Retrospective (2008) [disc 1]\107 - Scene I - Entrance of the bulls.wav
Peak level 22.2 % Track quality 99.7 % Copy CRC 438B5698 Accurately ripped (confidence 1) [D17B8850] Copy OK
Track 8
Filename C:\Users\K Scott Handley\Desktop\Muzik\+++ RIPS\Carter, Elliott - 2008 - A Nonesuch Retrospective (2008) [disc 1]\108 - Scene I - Dance of the bulls.wav
Peak level 98.7 % Track quality 100.0 % Copy CRC A9FD1EB4 Accurately ripped (confidence 1) [6BEC8564] Copy OK
Track 9
Filename C:\Users\K Scott Handley\Desktop\Muzik\+++ RIPS\Carter, Elliott - 2008 - A Nonesuch Retrospective (2008) [disc 1]\109 - Scene I - Interlude - Pasiphae's heartbeat becomes the pounding.wav
Peak level 37.4 % Track quality 99.8 % Copy CRC D892E29A Accurately ripped (confidence 1) [38F194DA] Copy OK
Track 10
Filename C:\Users\K Scott Handley\Desktop\Muzik\+++ RIPS\Carter, Elliott - 2008 - A Nonesuch Retrospective (2008) [disc 1]\110 - Scene II - Before the Labyrinth - Building the labyrinth.wav
Peak level 100.0 % Track quality 100.0 % Copy CRC 86B2116D Accurately ripped (confidence 1) [131D52A7] Copy OK
Track 11
Filename C:\Users\K Scott Handley\Desktop\Muzik\+++ RIPS\Carter, Elliott - 2008 - A Nonesuch Retrospective (2008) [disc 1]\111 - Scene II - Entrance of King Minos.wav
Peak level 56.1 % Track quality 100.0 % Copy CRC 43CC0B17 Accurately ripped (confidence 1) [3D30D0DA] Copy OK
Track 12
Filename C:\Users\K Scott Handley\Desktop\Muzik\+++ RIPS\Carter, Elliott - 2008 - A Nonesuch Retrospective (2008) [disc 1]\112 - Scene II - Selection of Greek victims.wav
Peak level 37.8 % Track quality 100.0 % Copy CRC ACEC4319 Accurately ripped (confidence 1) [0B478B96] Copy OK
Track 13
Filename C:\Users\K Scott Handley\Desktop\Muzik\+++ RIPS\Carter, Elliott - 2008 - A Nonesuch Retrospective (2008) [disc 1]\113 - Scene II - Ariadne, princess of Crete.wav
Peak level 30.8 % Track quality 100.0 % Copy CRC BA56F03E Accurately ripped (confidence 1) [CDD6906B] Copy OK
Track 14
Filename C:\Users\K Scott Handley\Desktop\Muzik\+++ RIPS\Carter, Elliott - 2008 - A Nonesuch Retrospective (2008) [disc 1]\114 - Scene II - Greek victims are driven into the labyrinth.wav
Peak level 81.9 % Track quality 100.0 % Copy CRC 57EE86F2 Accurately ripped (confidence 1) [3C69F568] Copy OK
Track 15
Filename C:\Users\K Scott Handley\Desktop\Muzik\+++ RIPS\Carter, Elliott - 2008 - A Nonesuch Retrospective (2008) [disc 1]\115 - Scene II - Theseus' farewell to Ariadne.wav
Peak level 32.2 % Track quality 100.0 % Copy CRC C1B8D042 Accurately ripped (confidence 1) [0BD9BEAB] Copy OK
Track 16
Filename C:\Users\K Scott Handley\Desktop\Muzik\+++ RIPS\Carter, Elliott - 2008 - A Nonesuch Retrospective (2008) [disc 1]\116 - Scene II - Ariadne unwinds her thread.wav
Peak level 21.8 % Track quality 100.0 % Copy CRC 683C7807 Accurately ripped (confidence 1) [AE46DDE2] Copy OK
Track 17
Filename C:\Users\K Scott Handley\Desktop\Muzik\+++ RIPS\Carter, Elliott - 2008 - A Nonesuch Retrospective (2008) [disc 1]\117 - Scene II - Theseus fights and kills the Minotaur.wav
Peak level 98.8 % Track quality 100.0 % Copy CRC D7B3F4F0 Accurately ripped (confidence 1) [F430D73E] Copy OK
Track 18
Filename C:\Users\K Scott Handley\Desktop\Muzik\+++ RIPS\Carter, Elliott - 2008 - A Nonesuch Retrospective (2008) [disc 1]\118 - Scene II - Ariadne rewinds her thread.wav
Peak level 31.9 % Track quality 99.9 % Copy CRC 48C39C2B Accurately ripped (confidence 1) [A8E70B6F] Copy OK
Track 19
Filename C:\Users\K Scott Handley\Desktop\Muzik\+++ RIPS\Carter, Elliott - 2008 - A Nonesuch Retrospective (2008) [disc 1]\119 - Scene II - The thread breaks.wav
Peak level 28.9 % Track quality 100.0 % Copy CRC 85B1B014 Accurately ripped (confidence 1) [0DA7ADAB] Copy OK
Track 20
Filename C:\Users\K Scott Handley\Desktop\Muzik\+++ RIPS\Carter, Elliott - 2008 - A Nonesuch Retrospective (2008) [disc 1]\120 - Scene II - Theseus and some of the Greeks emerge.wav
Peak level 34.4 % Track quality 100.0 % Copy CRC A4CFD2A5 Accurately ripped (confidence 1) [982699A6] Copy OK
Track 21
Filename C:\Users\K Scott Handley\Desktop\Muzik\+++ RIPS\Carter, Elliott - 2008 - A Nonesuch Retrospective (2008) [disc 1]\121 - Scene II - Forgetting Ariadne.wav
Peak level 98.8 % Track quality 100.0 % Copy CRC 761157E4 Accurately ripped (confidence 1) [0317A2BA] Copy OK
Track 22
Filename C:\Users\K Scott Handley\Desktop\Muzik\+++ RIPS\Carter, Elliott - 2008 - A Nonesuch Retrospective (2008) [disc 1]\122 - Elegy for String Orchestra (1952).wav
Pre-gap length 0:00:05.68
Peak level 55.5 % Track quality 100.0 % Copy CRC 7411EFEF Accurately ripped (confidence 1) [63DB6EAF] Copy OK
All tracks accurately ripped
No errors occurred
End of status report

CD2

Exact Audio Copy V0.99 prebeta 5 from 4. May 2009
EAC extraction logfile from 9. January 2011, 2:33
Carter, Elliott / A Nonesuch Retrospective (2008) [disc 2]
Used drive : TSSTcorpDVD+-RW TS-T633A Adapter: 1 ID: 0
Read mode : SecureUtilize accurate stream : YesDefeat audio cache : YesMake use of C2 pointers : No
Read offset correction : 6Overread into Lead-In and Lead-Out : NoFill up missing offset samples with silence : YesDelete leading and trailing silent blocks : NoNull samples used in CRC calculations : YesUsed interface : Installed external ASPI interfaceGap handling : Appended to previous track
Used output format : User Defined EncoderSelected bitrate : 640 kBit/sQuality : HighAdd ID3 tag : YesCommand line compressor : C:\Program Files (x86)\Exact Audio Copy\Flac\flac.exeAdditional command line options : -6 -V -T "ARTIST=%a" -T "TITLE=%t" -T "ALBUM=%g" -T "DATE=%y" -T "TRACKNUMBER=%n" -T "GENRE=%m" -T "COMMENT=%e" %s -o %d
TOC of the extracted CD
Track | Start | Length | Start sector | End sector --------------------------------------------------------- 1 | 0:00.00 | 5:12.70 | 0 | 23469 2 | 5:12.70 | 4:35.00 | 23470 | 44094 3 | 9:47.70 | 6:12.12 | 44095 | 72006 4 | 16:00.07 | 5:33.37 | 72007 | 97018 5 | 21:33.44 | 12:01.43 | 97019 | 151136 6 | 33:35.12 | 12:35.25 | 151137 | 207786 7 | 46:10.37 | 13:20.40 | 207787 | 267826 8 | 59:31.02 | 3:19.65 | 267827 | 282816 9 | 62:50.67 | 6:35.33 | 282817 | 312474 10 | 69:26.25 | 5:21.60 | 312475 | 336609
Track 1
Filename C:\Users\K Scott Handley\Desktop\Muzik\+++ RIPS\Carter, Elliott - 2008 - A Nonesuch Retrospective (2008) [disc 2]\201 - Sonata for Cello & Piano (1948) - I. Moderato.wav
Pre-gap length 0:00:02.00
Peak level 99.9 % Track quality 99.9 % Copy CRC 774EF8BF Accurately ripped (confidence 1) [C00FD34A] Copy OK
Track 2
Filename C:\Users\K Scott Handley\Desktop\Muzik\+++ RIPS\Carter, Elliott - 2008 - A Nonesuch Retrospective (2008) [disc 2]\202 - II. Vivace, molto leggiero.wav
Peak level 84.7 % Track quality 100.0 % Copy CRC 75924F55 Accurately ripped (confidence 1) [6F79A39E] Copy OK
Track 3
Filename C:\Users\K Scott Handley\Desktop\Muzik\+++ RIPS\Carter, Elliott - 2008 - A Nonesuch Retrospective (2008) [disc 2]\203 - III. Adagio.wav
Peak level 70.6 % Track quality 100.0 % Copy CRC 84545349 Accurately ripped (confidence 1) [02C3D490] Copy OK
Track 4
Filename C:\Users\K Scott Handley\Desktop\Muzik\+++ RIPS\Carter, Elliott - 2008 - A Nonesuch Retrospective (2008) [disc 2]\204 - IV. Allegro.wav
Peak level 70.1 % Track quality 100.0 % Copy CRC A0C34D1B Accurately ripped (confidence 1) [9037F441] Copy OK
Track 5
Filename C:\Users\K Scott Handley\Desktop\Muzik\+++ RIPS\Carter, Elliott - 2008 - A Nonesuch Retrospective (2008) [disc 2]\205 - String Quartet No. 1 (1951) - I. Fantasia - Maestoso - Allegro scorrevole.wav
Pre-gap length 0:00:07.84
Peak level 98.2 % Track quality 99.9 % Copy CRC 438DC8A6 Accurately ripped (confidence 1) [8733F66E] Copy OK
Track 6
Filename C:\Users\K Scott Handley\Desktop\Muzik\+++ RIPS\Carter, Elliott - 2008 - A Nonesuch Retrospective (2008) [disc 2]\206 - II. Allegro scorrevole - Adagio.wav
Peak level 99.3 % Track quality 100.0 % Copy CRC ABEFD04A Accurately ripped (confidence 1) [34A822C2] Copy OK
Track 7
Filename C:\Users\K Scott Handley\Desktop\Muzik\+++ RIPS\Carter, Elliott - 2008 - A Nonesuch Retrospective (2008) [disc 2]\207 - III. Variations.wav
Peak level 75.0 % Track quality 100.0 % Copy CRC 8A66BEBF Accurately ripped (confidence 1) [8FA7F36C] Copy OK
Track 8
Filename C:\Users\K Scott Handley\Desktop\Muzik\+++ RIPS\Carter, Elliott - 2008 - A Nonesuch Retrospective (2008) [disc 2]\208 - Sonata for Flute, Oboe, Cello & Harpsichord (1952) - I. Risoluto.wav
Pre-gap length 0:00:05.72
Peak level 79.9 % Track quality 100.0 % Copy CRC 3C589F7C Accurately ripped (confidence 1) [AC926500] Copy OK
Track 9
Filename C:\Users\K Scott Handley\Desktop\Muzik\+++ RIPS\Carter, Elliott - 2008 - A Nonesuch Retrospective (2008) [disc 2]\209 - II. Lento.wav
Peak level 74.9 % Track quality 100.0 % Copy CRC 2EBBA3AC Accurately ripped (confidence 1) [7C35B664] Copy OK
Track 10
Filename C:\Users\K Scott Handley\Desktop\Muzik\+++ RIPS\Carter, Elliott - 2008 - A Nonesuch Retrospective (2008) [disc 2]\210 - III. Allegro.wav
Peak level 99.6 % Track quality 100.0 % Copy CRC 3CE02AD3 Accurately ripped (confidence 1) [2C7D19DE] Copy OK
All tracks accurately ripped
No errors occurred
End of status report

CD3

Exact Audio Copy V0.99 prebeta 5 from 4. May 2009
EAC extraction logfile from 9. January 2011, 3:22
Carter, Elliott / A Nonesuch Retrospective (2008) [disc 3]
Used drive : TSSTcorpDVD+-RW TS-T633A Adapter: 1 ID: 0
Read mode : SecureUtilize accurate stream : YesDefeat audio cache : YesMake use of C2 pointers : No
Read offset correction : 6Overread into Lead-In and Lead-Out : NoFill up missing offset samples with silence : YesDelete leading and trailing silent blocks : NoNull samples used in CRC calculations : YesUsed interface : Installed external ASPI interfaceGap handling : Appended to previous track
Used output format : User Defined EncoderSelected bitrate : 640 kBit/sQuality : HighAdd ID3 tag : YesCommand line compressor : C:\Program Files (x86)\Exact Audio Copy\Flac\flac.exeAdditional command line options : -6 -V -T "ARTIST=%a" -T "TITLE=%t" -T "ALBUM=%g" -T "DATE=%y" -T "TRACKNUMBER=%n" -T "GENRE=%m" -T "COMMENT=%e" %s -o %d
TOC of the extracted CD
Track | Start | Length | Start sector | End sector --------------------------------------------------------- 1 | 0:00.00 | 23:07.54 | 0 | 104078 2 | 23:07.54 | 1:06.60 | 104079 | 109088 3 | 24:14.39 | 2:39.60 | 109089 | 121073 4 | 26:54.24 | 1:26.07 | 121074 | 127530 5 | 28:20.31 | 1:56.45 | 127531 | 136275 6 | 30:17.01 | 1:52.63 | 136276 | 144738 7 | 32:09.64 | 3:31.67 | 144739 | 160630 8 | 35:41.56 | 1:42.30 | 160631 | 168310 9 | 37:24.11 | 4:41.55 | 168311 | 189440 10 | 42:05.66 | 1:08.47 | 189441 | 194587 11 | 43:14.38 | 4:08.35 | 194588 | 213222 12 | 47:22.73 | 1:57.13 | 213223 | 222010 13 | 49:20.11 | 4:59.09 | 222011 | 244444 14 | 54:19.20 | 5:04.01 | 244445 | 267245 15 | 59:23.21 | 1:10.72 | 267246 | 272567 16 | 60:34.18 | 2:40.13 | 272568 | 284580 17 | 63:14.31 | 2:41.07 | 284581 | 296662
Track 1
Filename C:\Users\K Scott Handley\Desktop\Muzik\+++ RIPS\Carter, Elliott - 2008 - A Nonesuch Retrospective (2008) [disc 3]\301 - Variations for Orchestra (1955).wav
Pre-gap length 0:00:02.00
Peak level 100.0 % Track quality 100.0 % Copy CRC 0A241B9C Accurately ripped (confidence 1) [BB95E28E] Copy OK
Track 2
Filename C:\Users\K Scott Handley\Desktop\Muzik\+++ RIPS\Carter, Elliott - 2008 - A Nonesuch Retrospective (2008) [disc 3]\302 - String Quartet No. 2 (1959) - I. Introduction.wav
Pre-gap length 0:00:04.04
Peak level 82.3 % Track quality 100.0 % Copy CRC F6F56366 Accurately ripped (confidence 1) [D4928627] Copy OK
Track 3
Filename C:\Users\K Scott Handley\Desktop\Muzik\+++ RIPS\Carter, Elliott - 2008 - A Nonesuch Retrospective (2008) [disc 3]\303 - II. (I) Allegro fantastico.wav
Peak level 95.1 % Track quality 100.0 % Copy CRC 44B613CF Accurately ripped (confidence 1) [B7BF8644] Copy OK
Track 4
Filename C:\Users\K Scott Handley\Desktop\Muzik\+++ RIPS\Carter, Elliott - 2008 - A Nonesuch Retrospective (2008) [disc 3]\304 - III. Cadenza for violin.wav
Peak level 78.3 % Track quality 100.0 % Copy CRC 3F5FD93F Accurately ripped (confidence 1) [7AB0AD31] Copy OK
Track 5
Filename C:\Users\K Scott Handley\Desktop\Muzik\+++ RIPS\Carter, Elliott - 2008 - A Nonesuch Retrospective (2008) [disc 3]\305 - IV. (II) Presto scherzando.wav
Peak level 66.8 % Track quality 100.0 % Copy CRC BB130667 Accurately ripped (confidence 1) [46D88A2B] Copy OK
Track 6
Filename C:\Users\K Scott Handley\Desktop\Muzik\+++ RIPS\Carter, Elliott - 2008 - A Nonesuch Retrospective (2008) [disc 3]\306 - VI. Cadenza for cello.wav
Peak level 69.0 % Track quality 100.0 % Copy CRC 1E12BA38 Accurately ripped (confidence 1) [4E837FCA] Copy OK
Track 7
Filename C:\Users\K Scott Handley\Desktop\Muzik\+++ RIPS\Carter, Elliott - 2008 - A Nonesuch Retrospective (2008) [disc 3]\307 - VII. (III) Andante espressivo.wav
Peak level 66.2 % Track quality 100.0 % Copy CRC 16956230 Accurately ripped (confidence 1) [BF128703] Copy OK
Track 8
Filename C:\Users\K Scott Handley\Desktop\Muzik\+++ RIPS\Carter, Elliott - 2008 - A Nonesuch Retrospective (2008) [disc 3]\308 - VIII. Cadenza for first violin.wav
Peak level 75.1 % Track quality 100.0 % Copy CRC 8DC95A7A Accurately ripped (confidence 1) [6619A0C1] Copy OK
Track 9
Filename C:\Users\K Scott Handley\Desktop\Muzik\+++ RIPS\Carter, Elliott - 2008 - A Nonesuch Retrospective (2008) [disc 3]\309 - IX. (IV) Allegro.wav
Peak level 93.1 % Track quality 100.0 % Copy CRC 9F1B6089 Accurately ripped (confidence 1) [BB672E0C] Copy OK
Track 10
Filename C:\Users\K Scott Handley\Desktop\Muzik\+++ RIPS\Carter, Elliott - 2008 - A Nonesuch Retrospective (2008) [disc 3]\310 - X. Conclusion.wav
Peak level 67.1 % Track quality 100.0 % Copy CRC 62DC495B Accurately ripped (confidence 1) [443027F3] Copy OK
Track 11
Filename C:\Users\K Scott Handley\Desktop\Muzik\+++ RIPS\Carter, Elliott - 2008 - A Nonesuch Retrospective (2008) [disc 3]\311 - Double Concerto for Harpsichord & Piano with Two Chamber Orchestras (1961) - I. Introduction.wav
Pre-gap length 0:00:05.98
Peak level 96.5 % Track quality 100.0 % Copy CRC B598BE7D Accurately ripped (confidence 1) [85A6B7BF] Copy OK
Track 12
Filename C:\Users\K Scott Handley\Desktop\Muzik\+++ RIPS\Carter, Elliott - 2008 - A Nonesuch Retrospective (2008) [disc 3]\312 - II. Cadenza for harpsichord.wav
Peak level 66.4 % Track quality 100.0 % Copy CRC FCF6E894 Accurately ripped (confidence 1) [242D641C] Copy OK
Track 13
Filename C:\Users\K Scott Handley\Desktop\Muzik\+++ RIPS\Carter, Elliott - 2008 - A Nonesuch Retrospective (2008) [disc 3]\313 - III. Allegro scherzando.wav
Peak level 72.9 % Track quality 100.0 % Copy CRC FFF752E6 Accurately ripped (confidence 1) [76E29DF8] Copy OK
Track 14
Filename C:\Users\K Scott Handley\Desktop\Muzik\+++ RIPS\Carter, Elliott - 2008 - A Nonesuch Retrospective (2008) [disc 3]\314 - IV. Adagio.wav
Peak level 79.9 % Track quality 100.0 % Copy CRC 90EC2643 Accurately ripped (confidence 1) [F25DD399] Copy OK
Track 15
Filename C:\Users\K Scott Handley\Desktop\Muzik\+++ RIPS\Carter, Elliott - 2008 - A Nonesuch Retrospective (2008) [disc 3]\315 - V. Presto.wav
Peak level 36.7 % Track quality 100.0 % Copy CRC EBB3EC78 Accurately ripped (confidence 1) [08127AE9] Copy OK
Track 16
Filename C:\Users\K Scott Handley\Desktop\Muzik\+++ RIPS\Carter, Elliott - 2008 - A Nonesuch Retrospective (2008) [disc 3]\316 - VI. Cadenzas for piano.wav
Peak level 99.4 % Track quality 100.0 % Copy CRC 34F24B45 Accurately ripped (confidence 1) [5AFF6E65] Copy OK
Track 17
Filename C:\Users\K Scott Handley\Desktop\Muzik\+++ RIPS\Carter, Elliott - 2008 - A Nonesuch Retrospective (2008) [disc 3]\317 - VII. Coda.wav
Peak level 86.5 % Track quality 100.0 % Copy CRC 6583CD1B Accurately ripped (confidence 1) [BA74CD38] Copy OK
All tracks accurately ripped
No errors occurred
End of status report

CD4

Exact Audio Copy V0.99 prebeta 5 from 4. May 2009
EAC extraction logfile from 9. January 2011, 4:24
Carter, Elliott / A Nonesuch Retrospective (2008) [disc 4]
Used drive : TSSTcorpDVD+-RW TS-T633A Adapter: 1 ID: 0
Read mode : SecureUtilize accurate stream : YesDefeat audio cache : YesMake use of C2 pointers : No
Read offset correction : 6Overread into Lead-In and Lead-Out : NoFill up missing offset samples with silence : YesDelete leading and trailing silent blocks : NoNull samples used in CRC calculations : YesUsed interface : Installed external ASPI interfaceGap handling : Appended to previous track
Used output format : User Defined EncoderSelected bitrate : 640 kBit/sQuality : HighAdd ID3 tag : YesCommand line compressor : C:\Program Files (x86)\Exact Audio Copy\Flac\flac.exeAdditional command line options : -6 -V -T "ARTIST=%a" -T "TITLE=%t" -T "ALBUM=%g" -T "DATE=%y" -T "TRACKNUMBER=%n" -T "GENRE=%m" -T "COMMENT=%e" %s -o %d
TOC of the extracted CD
Track | Start | Length | Start sector | End sector --------------------------------------------------------- 1 | 0:00.00 | 22:27.55 | 0 | 101079 2 | 22:27.55 | 4:38.50 | 101080 | 121979 3 | 27:06.30 | 3:12.50 | 121980 | 136429 4 | 30:19.05 | 3:15.10 | 136430 | 151064 5 | 33:34.15 | 2:15.52 | 151065 | 161241 6 | 35:49.67 | 2:10.70 | 161242 | 171061 7 | 38:00.62 | 4:06.25 | 171062 | 189536 8 | 42:07.12 | 3:05.72 | 189537 | 203483 9 | 45:13.09 | 2:54.52 | 203484 | 216585 10 | 48:07.61 | 3:18.40 | 216586 | 231475 11 | 51:26.26 | 3:27.23 | 231476 | 247023 12 | 54:53.49 | 4:27.72 | 247024 | 267120 13 | 59:21.46 | 2:26.57 | 267121 | 278127
Track 1
Filename C:\Users\K Scott Handley\Desktop\Muzik\+++ RIPS\Carter, Elliott - 2008 - A Nonesuch Retrospective (2008) [disc 4]\401 - Night Fantasies (1980).wav
Pre-gap length 0:00:02.00
Peak level 100.0 % Track quality 100.0 % Copy CRC C4553823 Cannot be verified as accurate (confidence 1) [994A80FF], AccurateRip returned [5E077F05] Copy OK
Track 2
Filename C:\Users\K Scott Handley\Desktop\Muzik\+++ RIPS\Carter, Elliott - 2008 - A Nonesuch Retrospective (2008) [disc 4]\402 - Triple Duo (1982) - I. Allegro.wav
Pre-gap length 0:00:04.86
Peak level 98.7 % Track quality 100.0 % Copy CRC F1E706EC Accurately ripped (confidence 1) [C233B626] Copy OK
Track 3
Filename C:\Users\K Scott Handley\Desktop\Muzik\+++ RIPS\Carter, Elliott - 2008 - A Nonesuch Retrospective (2008) [disc 4]\403 - II. Vivo-Animato.wav
Peak level 58.8 % Track quality 100.0 % Copy CRC E00467BF Accurately ripped (confidence 1) [E5544271] Copy OK
Track 4
Filename C:\Users\K Scott Handley\Desktop\Muzik\+++ RIPS\Carter, Elliott - 2008 - A Nonesuch Retrospective (2008) [disc 4]\404 - III. Allegretto.wav
Peak level 45.2 % Track quality 100.0 % Copy CRC E75117BB Accurately ripped (confidence 1) [6D220505] Copy OK
Track 5
Filename C:\Users\K Scott Handley\Desktop\Muzik\+++ RIPS\Carter, Elliott - 2008 - A Nonesuch Retrospective (2008) [disc 4]\405 - IV. Vivo.wav
Peak level 54.5 % Track quality 100.0 % Copy CRC CCDA2CE7 Accurately ripped (confidence 1) [178BFCC6] Copy OK
Track 6
Filename C:\Users\K Scott Handley\Desktop\Muzik\+++ RIPS\Carter, Elliott - 2008 - A Nonesuch Retrospective (2008) [disc 4]\406 - V. Maestoso-Lento-Maestoso-Scherzo.wav
Peak level 98.7 % Track quality 100.0 % Copy CRC 91464256 Accurately ripped (confidence 1) [F6543CAD] Copy OK
Track 7
Filename C:\Users\K Scott Handley\Desktop\Muzik\+++ RIPS\Carter, Elliott - 2008 - A Nonesuch Retrospective (2008) [disc 4]\407 - VI. Allegretto fantastico.wav
Peak level 98.7 % Track quality 100.0 % Copy CRC 4FB4A41C Accurately ripped (confidence 1) [597DF805] Copy OK
Track 8
Filename C:\Users\K Scott Handley\Desktop\Muzik\+++ RIPS\Carter, Elliott - 2008 - A Nonesuch Retrospective (2008) [disc 4]\408 - In Sleep, in Thunder (1981) - I. Dolphins.wav
Pre-gap length 0:00:05.45
Peak level 49.8 % Track quality 99.9 % Copy CRC C8ABEC38 Accurately ripped (confidence 1) [5E03CFC8] Copy OK
Track 9
Filename C:\Users\K Scott Handley\Desktop\Muzik\+++ RIPS\Carter, Elliott - 2008 - A Nonesuch Retrospective (2008) [disc 4]\409 - II. Across the Yard - La Ignota.wav
Peak level 80.5 % Track quality 99.9 % Copy CRC B001DCDD Accurately ripped (confidence 1) [048B4172] Copy OK
Track 10
Filename C:\Users\K Scott Handley\Desktop\Muzik\+++ RIPS\Carter, Elliott - 2008 - A Nonesuch Retrospective (2008) [disc 4]\410 - III. Harriet.wav
Peak level 47.1 % Track quality 100.0 % Copy CRC 22EAB6F0 Accurately ripped (confidence 1) [0462C5AB] Copy OK
Track 11
Filename C:\Users\K Scott Handley\Desktop\Muzik\+++ RIPS\Carter, Elliott - 2008 - A Nonesuch Retrospective (2008) [disc 4]\411 - IV. Dies Irae.wav
Peak level 98.7 % Track quality 100.0 % Copy CRC 626C9327 Accurately ripped (confidence 1) [EF1B0C17] Copy OK
Track 12
Filename C:\Users\K Scott Handley\Desktop\Muzik\+++ RIPS\Carter, Elliott - 2008 - A Nonesuch Retrospective (2008) [disc 4]\412 - V. Careless Night.wav
Peak level 36.9 % Track quality 99.9 % Copy CRC 037B8F4B Accurately ripped (confidence 1) [B381A116] Copy OK
Track 13
Filename C:\Users\K Scott Handley\Desktop\Muzik\+++ RIPS\Carter, Elliott - 2008 - A Nonesuch Retrospective (2008) [disc 4]\413 - VI. In Genesis.wav
Peak level 98.7 % Track quality 100.0 % Copy CRC A81AC2C9 Accurately ripped (confidence 1) [600AF597] Copy OK
12 track(s) accurately ripped 1 track(s) could not be verified as accurate
Some tracks could not be verified as accurate
No errors occurred
End of status report

Содержание индексных карт (.CUE)CD1

REM GENRE ClassicalREM DATE 2008REM DISCID 390FA916REM COMMENT "ExactAudioCopy v0.99pb5"PERFORMER "Carter, Elliott"TITLE "A Nonesuch Retrospective (2008) [disc 1]"FILE "Carter, Elliott - 2008 - A Nonesuch Retrospective (2008) [disc 1]\101 - Piano Sonata (1945 rev. 1982) - I. Maestoso.wav" WAVE TRACK 01 AUDIO TITLE "Piano Sonata (1945 rev. 1982) - I. Maestoso" PERFORMER "Carter, Elliott" INDEX 01 00:00:00FILE "Carter, Elliott - 2008 - A Nonesuch Retrospective (2008) [disc 1]\102 - II. Andante.wav" WAVE TRACK 02 AUDIO TITLE "II. Andante" PERFORMER "Carter, Elliott" INDEX 01 00:00:00 TRACK 03 AUDIO TITLE "Dust of Snow (1942)" PERFORMER "Carter, Elliott" INDEX 00 15:01:15FILE "Carter, Elliott - 2008 - A Nonesuch Retrospective (2008) [disc 1]\103 - Dust of Snow (1942).wav" WAVE INDEX 01 00:00:00FILE "Carter, Elliott - 2008 - A Nonesuch Retrospective (2008) [disc 1]\104 - The Rose Family (1942).wav" WAVE TRACK 04 AUDIO TITLE "The Rose Family (1942)" PERFORMER "Carter, Elliott" INDEX 01 00:00:00 TRACK 05 AUDIO TITLE "The Minotaur (1947) - Scene I - King Minos' Palace in Crete - Overture" PERFORMER "Carter, Elliott" INDEX 00 01:11:23FILE "Carter, Elliott - 2008 - A Nonesuch Retrospective (2008) [disc 1]\105 - The Minotaur (1947) - Scene I - King Minos' Palace in Crete - Overture.wav" WAVE INDEX 01 00:00:00FILE "Carter, Elliott - 2008 - A Nonesuch Retrospective (2008) [disc 1]\106 - Scene I - Queen Pasiphae prepares for a tryst.wav" WAVE TRACK 06 AUDIO TITLE "Scene I - Queen Pasiphae prepares for a tryst" PERFORMER "Carter, Elliott" INDEX 01 00:00:00FILE "Carter, Elliott - 2008 - A Nonesuch Retrospective (2008) [disc 1]\107 - Scene I - Entrance of the bulls.wav" WAVE TRACK 07 AUDIO TITLE "Scene I - Entrance of the bulls" PERFORMER "Carter, Elliott" INDEX 01 00:00:00FILE "Carter, Elliott - 2008 - A Nonesuch Retrospective (2008) [disc 1]\108 - Scene I - Dance of the bulls.wav" WAVE TRACK 08 AUDIO TITLE "Scene I - Dance of the bulls" PERFORMER "Carter, Elliott" INDEX 01 00:00:00FILE "Carter, Elliott - 2008 - A Nonesuch Retrospective (2008) [disc 1]\109 - Scene I - Interlude - Pasiphae's heartbeat becomes the pounding.wav" WAVE TRACK 09 AUDIO TITLE "Scene I - Interlude - Pasiphae's heartbeat becomes the pounding" PERFORMER "Carter, Elliott" INDEX 01 00:00:00FILE "Carter, Elliott - 2008 - A Nonesuch Retrospective (2008) [disc 1]\110 - Scene II - Before the Labyrinth - Building the labyrinth.wav" WAVE TRACK 10 AUDIO TITLE "Scene II - Before the Labyrinth - Building the labyrinth" PERFORMER "Carter, Elliott" INDEX 01 00:00:00FILE "Carter, Elliott - 2008 - A Nonesuch Retrospective (2008) [disc 1]\111 - Scene II - Entrance of King Minos.wav" WAVE TRACK 11 AUDIO TITLE "Scene II - Entrance of King Minos" PERFORMER "Carter, Elliott" INDEX 01 00:00:00FILE "Carter, Elliott - 2008 - A Nonesuch Retrospective (2008) [disc 1]\112 - Scene II - Selection of Greek victims.wav" WAVE TRACK 12 AUDIO TITLE "Scene II - Selection of Greek victims" PERFORMER "Carter, Elliott" INDEX 01 00:00:00FILE "Carter, Elliott - 2008 - A Nonesuch Retrospective (2008) [disc 1]\113 - Scene II - Ariadne, princess of Crete.wav" WAVE TRACK 13 AUDIO TITLE "Scene II - Ariadne, princess of Crete" PERFORMER "Carter, Elliott" INDEX 01 00:00:00FILE "Carter, Elliott - 2008 - A Nonesuch Retrospective (2008) [disc 1]\114 - Scene II - Greek victims are driven into the labyrinth.wav" WAVE TRACK 14 AUDIO TITLE "Scene II - Greek victims are driven into the labyrinth" PERFORMER "Carter, Elliott" INDEX 01 00:00:00FILE "Carter, Elliott - 2008 - A Nonesuch Retrospective (2008) [disc 1]\115 - Scene II - Theseus' farewell to Ariadne.wav" WAVE TRACK 15 AUDIO TITLE "Scene II - Theseus' farewell to Ariadne" PERFORMER "Carter, Elliott" INDEX 01 00:00:00FILE "Carter, Elliott - 2008 - A Nonesuch Retrospective (2008) [disc 1]\116 - Scene II - Ariadne unwinds her thread.wav" WAVE TRACK 16 AUDIO TITLE "Scene II - Ariadne unwinds her thread" PERFORMER "Carter, Elliott" INDEX 01 00:00:00FILE "Carter, Elliott - 2008 - A Nonesuch Retrospective (2008) [disc 1]\117 - Scene II - Theseus fights and kills the Minotaur.wav" WAVE TRACK 17 AUDIO TITLE "Scene II - Theseus fights and kills the Minotaur" PERFORMER "Carter, Elliott" INDEX 01 00:00:00FILE "Carter, Elliott - 2008 - A Nonesuch Retrospective (2008) [disc 1]\118 - Scene II - Ariadne rewinds her thread.wav" WAVE TRACK 18 AUDIO TITLE "Scene II - Ariadne rewinds her thread" PERFORMER "Carter, Elliott" INDEX 01 00:00:00FILE "Carter, Elliott - 2008 - A Nonesuch Retrospective (2008) [disc 1]\119 - Scene II - The thread breaks.wav" WAVE TRACK 19 AUDIO TITLE "Scene II - The thread breaks" PERFORMER "Carter, Elliott" INDEX 01 00:00:00FILE "Carter, Elliott - 2008 - A Nonesuch Retrospective (2008) [disc 1]\120 - Scene II - Theseus and some of the Greeks emerge.wav" WAVE TRACK 20 AUDIO TITLE "Scene II - Theseus and some of the Greeks emerge" PERFORMER "Carter, Elliott" INDEX 01 00:00:00FILE "Carter, Elliott - 2008 - A Nonesuch Retrospective (2008) [disc 1]\121 - Scene II - Forgetting Ariadne.wav" WAVE TRACK 21 AUDIO TITLE "Scene II - Forgetting Ariadne" PERFORMER "Carter, Elliott" INDEX 01 00:00:00 TRACK 22 AUDIO TITLE "Elegy for String Orchestra (1952)" PERFORMER "Carter, Elliott" INDEX 00 03:33:39FILE "Carter, Elliott - 2008 - A Nonesuch Retrospective (2008) [disc 1]\122 - Elegy for String Orchestra (1952).wav" WAVE INDEX 01 00:00:00

CD2

REM GENRE ClassicalREM DATE 2008REM DISCID 9611880AREM COMMENT "ExactAudioCopy v0.99pb5"PERFORMER "Carter, Elliott"TITLE "A Nonesuch Retrospective (2008) [disc 2]"FILE "Carter, Elliott - 2008 - A Nonesuch Retrospective (2008) [disc 2]\201 - Sonata for Cello & Piano (1948) - I. Moderato.wav" WAVE TRACK 01 AUDIO TITLE "Sonata for Cello & Piano (1948) - I. Moderato " PERFORMER "Carter, Elliott" INDEX 01 00:00:00FILE "Carter, Elliott - 2008 - A Nonesuch Retrospective (2008) [disc 2]\202 - II. Vivace, molto leggiero.wav" WAVE TRACK 02 AUDIO TITLE "II. Vivace, molto leggiero" PERFORMER "Carter, Elliott" INDEX 01 00:00:00FILE "Carter, Elliott - 2008 - A Nonesuch Retrospective (2008) [disc 2]\203 - III. Adagio.wav" WAVE TRACK 03 AUDIO TITLE "III. Adagio" PERFORMER "Carter, Elliott" INDEX 01 00:00:00FILE "Carter, Elliott - 2008 - A Nonesuch Retrospective (2008) [disc 2]\204 - IV. Allegro.wav" WAVE TRACK 04 AUDIO TITLE "IV. Allegro" PERFORMER "Carter, Elliott" INDEX 01 00:00:00 TRACK 05 AUDIO TITLE "String Quartet No. 1 (1951) - I. Fantasia - Maestoso - Allegro scorrevole" PERFORMER "Carter, Elliott" INDEX 00 05:25:49FILE "Carter, Elliott - 2008 - A Nonesuch Retrospective (2008) [disc 2]\205 - String Quartet No. 1 (1951) - I. Fantasia - Maestoso - Allegro scorrevole.wav" WAVE INDEX 01 00:00:00FILE "Carter, Elliott - 2008 - A Nonesuch Retrospective (2008) [disc 2]\206 - II. Allegro scorrevole - Adagio.wav" WAVE TRACK 06 AUDIO TITLE "II. Allegro scorrevole - Adagio" PERFORMER "Carter, Elliott" INDEX 01 00:00:00FILE "Carter, Elliott - 2008 - A Nonesuch Retrospective (2008) [disc 2]\207 - III. Variations.wav" WAVE TRACK 07 AUDIO TITLE "III. Variations" PERFORMER "Carter, Elliott" INDEX 01 00:00:00 TRACK 08 AUDIO TITLE "Sonata for Flute, Oboe, Cello & Harpsichord (1952) - I. Risoluto" PERFORMER "Carter, Elliott" INDEX 00 13:14:61FILE "Carter, Elliott - 2008 - A Nonesuch Retrospective (2008) [disc 2]\208 - Sonata for Flute, Oboe, Cello & Harpsichord (1952) - I. Risoluto.wav" WAVE INDEX 01 00:00:00FILE "Carter, Elliott - 2008 - A Nonesuch Retrospective (2008) [disc 2]\209 - II. Lento.wav" WAVE TRACK 09 AUDIO TITLE "II. Lento" PERFORMER "Carter, Elliott" INDEX 01 00:00:00FILE "Carter, Elliott - 2008 - A Nonesuch Retrospective (2008) [disc 2]\210 - III. Allegro.wav" WAVE TRACK 10 AUDIO TITLE "III. Allegro" PERFORMER "Carter, Elliott" INDEX 01 00:00:00

CD3

REM GENRE ClassicalREM DATE 2008REM DISCID 0E0F7311REM COMMENT "ExactAudioCopy v0.99pb5"PERFORMER "Carter, Elliott"TITLE "A Nonesuch Retrospective (2008) [disc 3]"FILE "Carter, Elliott - 2008 - A Nonesuch Retrospective (2008) [disc 3]\201 - Variations for Orchestra (1955).wav" WAVE TRACK 01 AUDIO TITLE "Variations for Orchestra (1955)" PERFORMER "Carter, Elliott" INDEX 01 00:00:00 TRACK 02 AUDIO TITLE "String Quartet No. 2 (1959) - I. Introduction" PERFORMER "Carter, Elliott" INDEX 00 23:03:51FILE "Carter, Elliott - 2008 - A Nonesuch Retrospective (2008) [disc 3]\202 - String Quartet No. 2 (1959) - I. Introduction.wav" WAVE INDEX 01 00:00:00FILE "Carter, Elliott - 2008 - A Nonesuch Retrospective (2008) [disc 3]\203 - II. (I) Allegro fantastico.wav" WAVE TRACK 03 AUDIO TITLE "II. (I) Allegro fantastico" PERFORMER "Carter, Elliott" INDEX 01 00:00:00FILE "Carter, Elliott - 2008 - A Nonesuch Retrospective (2008) [disc 3]\204 - III. Cadenza for violin.wav" WAVE TRACK 04 AUDIO TITLE "III. Cadenza for violin" PERFORMER "Carter, Elliott" INDEX 01 00:00:00FILE "Carter, Elliott - 2008 - A Nonesuch Retrospective (2008) [disc 3]\205 - IV. (II) Presto scherzando.wav" WAVE TRACK 05 AUDIO TITLE "IV. (II) Presto scherzando" PERFORMER "Carter, Elliott" INDEX 01 00:00:00FILE "Carter, Elliott - 2008 - A Nonesuch Retrospective (2008) [disc 3]\206 - VI. Cadenza for cello.wav" WAVE TRACK 06 AUDIO TITLE "VI. Cadenza for cello" PERFORMER "Carter, Elliott" INDEX 01 00:00:00FILE "Carter, Elliott - 2008 - A Nonesuch Retrospective (2008) [disc 3]\207 - VII. (III) Andante espressivo.wav" WAVE TRACK 07 AUDIO TITLE "VII. (III) Andante espressivo" PERFORMER "Carter, Elliott" INDEX 01 00:00:00FILE "Carter, Elliott - 2008 - A Nonesuch Retrospective (2008) [disc 3]\208 - VIII. Cadenza for first violin.wav" WAVE TRACK 08 AUDIO TITLE "VIII. Cadenza for first violin" PERFORMER "Carter, Elliott" INDEX 01 00:00:00FILE "Carter, Elliott - 2008 - A Nonesuch Retrospective (2008) [disc 3]\209 - IX. (IV) Allegro.wav" WAVE TRACK 09 AUDIO TITLE "IX. (IV) Allegro" PERFORMER "Carter, Elliott" INDEX 01 00:00:00FILE "Carter, Elliott - 2008 - A Nonesuch Retrospective (2008) [disc 3]\210 - X. Conclusion.wav" WAVE TRACK 10 AUDIO TITLE "X. Conclusion" PERFORMER "Carter, Elliott" INDEX 01 00:00:00 TRACK 11 AUDIO TITLE "Double Concerto for Harpsichord & Piano with Two Chamber Orchestras (1961) - ..." PERFORMER "Carter, Elliott" INDEX 00 01:02:48FILE "Carter, Elliott - 2008 - A Nonesuch Retrospective (2008) [disc 3]\211 - Double Concerto for Harpsichord & Piano with Two Chamber Orchestras (1961) - I. Introduction.wav" WAVE INDEX 01 00:00:00FILE "Carter, Elliott - 2008 - A Nonesuch Retrospective (2008) [disc 3]\212 - II. Cadenza for harpsichord.wav" WAVE TRACK 12 AUDIO TITLE "II. Cadenza for harpsichord" PERFORMER "Carter, Elliott" INDEX 01 00:00:00FILE "Carter, Elliott - 2008 - A Nonesuch Retrospective (2008) [disc 3]\213 - III. Allegro scherzando.wav" WAVE TRACK 13 AUDIO TITLE "III. Allegro scherzando" PERFORMER "Carter, Elliott" INDEX 01 00:00:00FILE "Carter, Elliott - 2008 - A Nonesuch Retrospective (2008) [disc 3]\214 - IV. Adagio.wav" WAVE TRACK 14 AUDIO TITLE "IV. Adagio" PERFORMER "Carter, Elliott" INDEX 01 00:00:00FILE "Carter, Elliott - 2008 - A Nonesuch Retrospective (2008) [disc 3]\215 - V. Presto.wav" WAVE TRACK 15 AUDIO TITLE "V. Presto" PERFORMER "Carter, Elliott" INDEX 01 00:00:00FILE "Carter, Elliott - 2008 - A Nonesuch Retrospective (2008) [disc 3]\216 - VI. Cadenzas for piano.wav" WAVE TRACK 16 AUDIO TITLE "VI. Cadenzas for piano" PERFORMER "Carter, Elliott" INDEX 01 00:00:00FILE "Carter, Elliott - 2008 - A Nonesuch Retrospective (2008) [disc 3]\217 - VII. Coda.wav" WAVE TRACK 17 AUDIO TITLE "VII. Coda" PERFORMER "Carter, Elliott" INDEX 01 00:00:00

CD4

REM GENRE ClassicalREM DATE 2008REM DISCID C30E7C0DREM COMMENT "ExactAudioCopy v0.99pb5"PERFORMER "Carter, Elliott"TITLE "A Nonesuch Retrospective (2008) [disc 4]"FILE "Carter, Elliott - 2008 - A Nonesuch Retrospective (2008) [disc 4]\401 - Night Fantasies (1980).wav" WAVE TRACK 01 AUDIO TITLE "Night Fantasies (1980)" PERFORMER "Carter, Elliott" INDEX 01 00:00:00 TRACK 02 AUDIO TITLE "Triple Duo (1982) - I. Allegro" PERFORMER "Carter, Elliott" INDEX 00 22:22:65FILE "Carter, Elliott - 2008 - A Nonesuch Retrospective (2008) [disc 4]\402 - Triple Duo (1982) - I. Allegro.wav" WAVE INDEX 01 00:00:00FILE "Carter, Elliott - 2008 - A Nonesuch Retrospective (2008) [disc 4]\403 - II. Vivo-Animato.wav" WAVE TRACK 03 AUDIO TITLE "II. Vivo-Animato" PERFORMER "Carter, Elliott" INDEX 01 00:00:00FILE "Carter, Elliott - 2008 - A Nonesuch Retrospective (2008) [disc 4]\404 - III. Allegretto.wav" WAVE TRACK 04 AUDIO TITLE "III. Allegretto" PERFORMER "Carter, Elliott" INDEX 01 00:00:00FILE "Carter, Elliott - 2008 - A Nonesuch Retrospective (2008) [disc 4]\405 - IV. Vivo.wav" WAVE TRACK 05 AUDIO TITLE "IV. Vivo" PERFORMER "Carter, Elliott" INDEX 01 00:00:00FILE "Carter, Elliott - 2008 - A Nonesuch Retrospective (2008) [disc 4]\406 - V. Maestoso-Lento-Maestoso-Scherzo.wav" WAVE TRACK 06 AUDIO TITLE "V. Maestoso-Lento-Maestoso-Scherzo" PERFORMER "Carter, Elliott" INDEX 01 00:00:00FILE "Carter, Elliott - 2008 - A Nonesuch Retrospective (2008) [disc 4]\407 - VI. Allegretto fantastico.wav" WAVE TRACK 07 AUDIO TITLE "VI. Allegretto fantastico" PERFORMER "Carter, Elliott" INDEX 01 00:00:00 TRACK 08 AUDIO TITLE "In Sleep, in Thunder (1981) - I. Dolphins" PERFORMER "Carter, Elliott" INDEX 00 04:00:66FILE "Carter, Elliott - 2008 - A Nonesuch Retrospective (2008) [disc 4]\408 - In Sleep, in Thunder (1981) - I. Dolphins.wav" WAVE INDEX 01 00:00:00FILE "Carter, Elliott - 2008 - A Nonesuch Retrospective (2008) [disc 4]\409 - II. Across the Yard - La Ignota.wav" WAVE TRACK 09 AUDIO TITLE "II. Across the Yard - La Ignota" PERFORMER "Carter, Elliott" INDEX 01 00:00:00FILE "Carter, Elliott - 2008 - A Nonesuch Retrospective (2008) [disc 4]\410 - III. Harriet.wav" WAVE TRACK 10 AUDIO TITLE "III. Harriet" PERFORMER "Carter, Elliott" INDEX 01 00:00:00FILE "Carter, Elliott - 2008 - A Nonesuch Retrospective (2008) [disc 4]\411 - IV. Dies Irae.wav" WAVE TRACK 11 AUDIO TITLE "IV. Dies Irae" PERFORMER "Carter, Elliott" INDEX 01 00:00:00FILE "Carter, Elliott - 2008 - A Nonesuch Retrospective (2008) [disc 4]\412 - V. Careless Night.wav" WAVE TRACK 12 AUDIO TITLE "V. Careless Night" PERFORMER "Carter, Elliott" INDEX 01 00:00:00FILE "Carter, Elliott - 2008 - A Nonesuch Retrospective (2008) [disc 4]\413 - VI. In Genesis.wav" WAVE TRACK 13 AUDIO TITLE "VI. In Genesis" PERFORMER "Carter, Elliott" INDEX 01 00:00:00

Back

Reviews, Info etc

Nonesuch:
This CD box set is now available for sale in the Nonesuch Store; however, free, instant album MP3 downloads, included with other discs in the Store, are not currently available with box sets.
To celebrate Elliott Carter’s 100th birthday, Nonesuch released Elliott Carter: A Nonesuch Retrospective, a four-disc set, on February 24, 2009. The discs include most of the recordings Nonesuch made of Carter’s music between 1968 and 1985; The Observer calls the collection "covetable and historic."
These recordings include performances by many acclaimed musicians, including Paul Jacobs, Gilbert Kalish, the Composers Quartet, Jan DeGaetani, Fred Sherry, Arthur Weisberg, the Contemporary Chamber Ensemble, and the Chicago Symphony Orchestra conducted by James Levine. The original Nonesuch records were produced by Joanna Nickrenz and Marc Aubort, and later, Teresa Sterne, Max Wilcox, and Oliver Knussen. A 58-page booklet—with photos, score examples, texts, an essay by Paul Griffiths, and tributes by musicians and composers including Virgil Blackwell, Tod Machover, Ursula Oppens, and Fred Sherry—accompanies the discs.
A two-time Pulitzer Prize winner and the first composer to receive the United States National Medal of Arts, Elliott Carter is internationally recognized as one of the leading American voices of the 20th-century classical music tradition. First encouraged toward a musical career by his friend and mentor Charles Ives, Carter attended Harvard University, where he studied with Walter Piston, and later went to Paris, where for three years he studied with Nadia Boulanger. He then returned to New York to devote his time to composing and teaching. Carter was recognized by the Pulitzer Prize Committee for the first time in 1960 for his groundbreaking String Quartet No. 2. Stravinsky hailed Carter’s Double Concerto for Harpsichord & Piano with Two Chamber Orchestras (1961) and Piano Concerto (1967), as “masterpieces,” while Aaron Copland called him “one of America's most distinguished creative artists in any field.”
As Paul Griffiths writes in the box-set booklet:
Born when Enrico Caruso was cutting cylinders, Elliott Carter has lived through most of the history of recording, and contributed to that history through his associations with various companies. First among these was Nonesuch, beginning in 1969 and continuing for over twenty years. Two albums of the 1970s, featuring his first two string quartets and Double Concerto, played a conspicuous role in carrying his music to a wide audience, and so in bringing him the acclaim that encouraged him to go on, with undiminished vigor, into a ‘late period’ that has lasted more than thirty years. Nonesuch was not only the first label to give Carter’s music international distribution and continuing support, it also placed his work in an appropriate context of discovery and adventure.
Elliott Carter turned 100 years old on December 11, 2008. His centenary is being celebrated internationally with performances in New York, Madrid, Turin, Amsterdam, Paris, Berlin, Tokyo, Vienna, and London. A complete list of works and performances, as well as downloadable photos, images, biographies, and a video interview, can be found at carter100.com.
--------
Amazon:
Editorial Reviews @ Amazon:
Product Description
This four-disc retrospective documents some of Carter's most essential works, recorded for Nonesuch between 1968 and 1985.
Customer Reviews at Amazon:
5.0 out of 5 stars - Authoritative performances., March 31, 2009
By: Aaron
This is a convenient box containing a handful of Carter's best music up to 1982, from the early Piano Sonata to the Triple Duo. Many of the recordings are currently available from Nonesuch as individual releases (Nonesuch 71234, 71249, and 79248), but if you've put off buying any of these, now is your chance to get them all at a bargain price.
The clincher for this set, though, is the release of a few key recordings never available on CD or currently out of print. Paul Jacobs' 1982 recording of Night Fantasies -- Carter's largest work for piano and one of the most significant works for the instrument of the last fifty years -- has inexplicably never been released in digital format, and it's an essential addition to the discography. Jacobs was one of the four joint commissioners of the piece, and his performance is entirely as worthwhile as Oppens' and Rosen's. More deliberate than either of those, Jacobs luxuriates in the expansive chordal sections, but still flies through the more virtuosic passages with abandon. He may not have Oppens' delicate counterpoint or Rosen's architectural prowess, but it's a compelling and historically significant performance.
We also get reissues of the Triple Duo (also performed by the dedicatees, The Fires of London) and the 1981 song cycle In Sleep, In Thunder (with Martyn Hill and the London Sinfonietta, led by longtime Carter advocate Oliver Knussen), and a bonus of James Levine's fantastic performance of the Variations for Orchestra with the CSO, previously released on Deutsche Grammophon.
The other performances are well-documented and reviewed elsewhere; suffice it to say, they are all definitive recordings by seasoned Elliott Carter performers. The Composers Quartet, in my opinion, has the edge on both Arditti and Juilliard in their early recording of the first two quartets, particularly with the expansive desert landscapes of No. 1.
My only disappointment is that the Duo for violin and piano is unfortunately missing, another historic Nonesuch recording (Paul Zukofsky and Gilbert Kalish, who premiered the piece) which ought to have been included. Despite this, there's little excuse not to get this bargain set while you can. Perfect for Carter aficionados and new listeners alike, it's a fantastic selection of the breadth of his musical style in performances that can't be beat.
----
5.0 out of 5 stars - Carter Revelations, May 13, 2009
By: Arthur Leonard (New York, NY USA)
I've found Elliott Carter's music quite difficult over the years, and even with so much exposure to his more recent output at the 100th birthday concerts, I've had my share of problems. I decided to go back to the beginning and ordered this box, which has mainly the Nonesuch recordings of his earlier output through to the early 1970s, including the famous Composers Quartet renditions of the first two string quartets. What I heard was a revelation. I finally started to "understand," in the sense of having some musical appreciation, of this music. Nonesuch also licensed some fine recordings of early Carter works from other sources, so the box gives you a decent cross-section, including some orchestral music well performed. I can recommend this very highly for people looking for a "way into Carter."
----
Allmusic:
A Nonesuch Retrospective
Elliott Carter
Review
by Blair Sanderson
Between 1968 and 1990, Nonesuch produced a remarkable series of recordings on LP and CD showcasing the works of Elliott Carter, which for many listeners was their initial encounters with this challenging yet richly rewarding music. First experiences in many cases have proved to be the best as well, since several of these performances have achieved classic status and arguably have not been surpassed. Considering such great performers as mezzo-soprano Jan de Gaetani, pianists Paul Jacobs and Gilbert Kalish, cellists Joel Krosnick and Fred Sherry, flutist Harvey Sollberger, oboist Charles Kuskin, the Composers Quartet, the Contemporary Chamber Ensemble under Arthur Weisberg, and the Chicago Symphony Orchestra with James Levine, among other acclaimed artists, it's not difficult to grasp how highly their performances are esteemed and why they have remained in print for several years, when much of Nonesuch's modern music catalog from the 1970s and ‘80s has disappeared. Fortunately, these recordings have been brought together in a slim box set of four discs and a generous booklet to celebrate Carter's 100th birthday, so the problem of collecting the individual albums has been eliminated. Here are 14 works that represent Carter's most important work from 1942 to 1982, basically the early and middle periods of his long career, since he has remained active into his centennial year and composed music not covered by this retrospective. Yet despite the lack of late pieces, this collection of core works is essential for any serious Carter admirer and is a comprehensive introductory package for newcomers to the music of this American original. Highly recommended.

About Elliott Carter

Elliott Cook Carter, Jr. (born December 11, 1908)


Here's a concise interview from 2002 that you can also listen to (via a link at top of page):
http://musicmavericks.publicradio.org/features/interview_carter.html
And a very recent (June 2010) set of video interviews with Carter in his apartment, starting here:
http://www.boosey.com/podcast/Carter-on-Carter-1-Early-Years/13082

Elliott Cook Carter, Jr. (born December 11, 1908) is a two-time Pulitzer Prize-winning American composer born and living in New York City. He studied with Nadia Boulanger in Paris in the 1930s, and then returned to the United States. After a neoclassical phase, he went on to write atonal, rhythmically complex music. His compositions, which have been performed all over the world, include orchestral and chamber music as well as solo instrumental and vocal works.
He has been extremely productive in his latter years, publishing more than 40 works between the ages of 90 and 100,[1] and three more since he turned 100.
http://en.wikipedia.org/wiki/Elliott_Carter
102 !!! ... and he is still alive!! - VERY impressing!!
[teatrix.ru].t10036.torrent 
Торрент: Зарегистрирован [ 2015-10-25 20:37 ] · 60E94AB6C8A7E2EE538586BDAA813C136261E3CD

Скачать .torrent

Скачать

18 KB

Статус: проверено
Скачан: 0 раз
Размер: 1.11 GB
terms.php



Быстрый ответ

Имя:

      
Для отправки сообщений необходимо включить JavaScript
Показать сообщения:    

Текущее время: 11-Дек 05:18

Часовой пояс: UTC + 3


Вы можете начинать темы
Вы можете отвечать на сообщения
Вы не можете редактировать свои сообщения
Вы не можете удалять свои сообщения
Вы не можете голосовать в опросах
Вы не можете прикреплять файлы к сообщениям
Вы можете скачивать файлы