(Classical, minimalism) Philip Glass: Glass Box. A Nonesuch Retrospective (Einstein On the Beach, Glassworks, String Quartets, Piano Etudes, Symphonies, Filmworks, etc.), 10 CD, box set, 2008, FLAC (tracks+.cue) lossless


Статистика раздачи [Обновить пиров]
Размер:  3.68 GB   |    Зарегистрирован:  1 год 1 месяц   |    Скачан:  0 раз

Полного источника не было: Никогда

 
   
 
 
 

[Цитировать]

Philip Glass: Glass Box. A Nonesuch Retrospective.

Жанр: minimalism, chamber music | Продолжительность: 11:58:55
Страна-производитель диска: USA | Год издания бокс-сета: 2008
Издатель (лейбл): Nonesuch | Номер по каталогу: 424508-2
Аудиокодек: FLAC | Тип рипа: tracks+.cue | Битрейт аудио: lossless
Источник: скачано с what.cd | Наличие сканов в содержимом раздачи: да
Содержание:

Disc 1. Early Works (1969–70)

01. Music In Contrary Motion [15:33]
Philip Glass: electric organ, alto flute.
02. Music With Changing Parts [45:39]
Barbara Benary: electric violin, voice; Steve Chambers: electric organ; Jon Gibson: electric organ, soprano saxophone, flute, voice; Dickie Landry: soprano saxophone, tenor saxophone, piccolo, flute, voice; Kurt Munkacsi: engineer, electronics; Arthur Murphy: electric piano; Robert Prado: trumpet, flute, voice.
03. Music In Similar Motion [17:12]
Steve Chambers, Art Murphy: electric organs; Jon Gibson, Dickie Landry: soprano saxophones; Robert Prado: flute; Kurt Munkacsi: engineer, electronics.
-
-

Лог создания рипа:

EAC extraction logfile from 16. March 2009, 17:25 for CDPhilip Glass / Philip Glass - A Nonesuch Retrospective\Disc 1
Used drive : SONY DVD RW DRU-840A Adapter: 0 ID: 0Read mode : Secure with NO C2, accurate stream, disable cacheRead offset correction : 6Overread into Lead-In and Lead-Out : No
Used output format : C:\Program Files\FLAC\flac.exe (User Defined Encoder) 32 kBit/s Additional command line options : -V -8 -T "artist=%a" -T "title=%t" -T "album=%g" -T "date=%y" -T "tracknumber=%n" -T "genre=%m" %s
Other options : Fill up missing offset samples with silence : Yes Delete leading and trailing silent blocks : No Native Win32 interface for Win NT & 2000
Track 1 Filename Z:\EAC Rips\March 2009\Philip Glass - 2008 - Glass Box\Disc 1 - Early Works (1969-70)\01 - Philip Glass - Music In Contrary Motion - Philip Glass.wav
Pre-gap length 0:00:02.00
Peak level 39.1 % Track quality 100.0 % Test CRC 13CD4409 Copy CRC 13CD4409 Copy OK
Track 2 Filename Z:\EAC Rips\March 2009\Philip Glass - 2008 - Glass Box\Disc 1 - Early Works (1969-70)\02 - Philip Glass - Music With Changing Parts - Philip Glass.wav
Peak level 52.7 % Track quality 100.0 % Test CRC EDCD2FBC Copy CRC EDCD2FBC Copy OK
Track 3 Filename Z:\EAC Rips\March 2009\Philip Glass - 2008 - Glass Box\Disc 1 - Early Works (1969-70)\03 - Philip Glass - Music In Similar Motion - Philip Glass.wav
Peak level 52.9 % Track quality 100.0 % Test CRC B50EE78D Copy CRC B50EE78D Copy OK
No errors occured
End of status report

Содержание индексной карты (.CUE):

REM DISCID 27126003REM COMMENT "ExactAudioCopy v0.95b4"PERFORMER "Philip Glass"TITLE "Early Works (1969–70)"FILE "1 Music In Contrary Motion.wav" WAVE TRACK 01 AUDIO TITLE "Music In Contrary Motion" PERFORMER "Philip Glass" FLAGS DCP INDEX 01 00:00:00FILE "2 Music With Changing Parts.wav" WAVE TRACK 02 AUDIO TITLE "Music With Changing Parts" PERFORMER "Philip Glass" FLAGS DCP INDEX 01 00:00:00FILE "3 Music In Similar Motion.wav" WAVE TRACK 03 AUDIO TITLE "Music In Similar Motion" PERFORMER "Philip Glass" FLAGS DCP INDEX 01 00:00:00

Disc 2. Music in Twelve Parts (1971–74)

01. Part VII [19:58]
02. Part VIII [18:18]
03. Part IX [12:14]
04. Part X [17:11]
The Philip Glass Ensemble, Michael Riesman, musical director, keyboards; Lisa Bielawa, voice; Jon Gibson, Andrew Sterman, soprano saxophone, flute; Philip Glass, keyboards; Martin Goldray, keyboards; Richard Peck, alto and tenor saxophones.
-
-

Лог создания рипа:

EAC extraction logfile from 16. March 2009, 17:44 for CDPhilip Glass / Philip Glass - A Nonesuch Retrospective\Disc 2
Used drive : SONY DVD RW DRU-840A Adapter: 0 ID: 0Read mode : Secure with NO C2, accurate stream, disable cacheRead offset correction : 6Overread into Lead-In and Lead-Out : No
Used output format : C:\Program Files\FLAC\flac.exe (User Defined Encoder) 32 kBit/s Additional command line options : -V -8 -T "artist=%a" -T "title=%t" -T "album=%g" -T "date=%y" -T "tracknumber=%n" -T "genre=%m" %s
Other options : Fill up missing offset samples with silence : Yes Delete leading and trailing silent blocks : No Native Win32 interface for Win NT & 2000
Track 1 Filename Z:\EAC Rips\March 2009\Philip Glass - 2008 - Glass Box\Disc 2 - Music in Twelve Parts (1971-74)\01 - Philip Glass - Music In 12 Parts- Part Vii - Philip Glass.wav
Pre-gap length 0:00:02.00
Peak level 98.4 % Track quality 100.0 % Test CRC EA4DD042 Copy CRC EA4DD042 Copy OK
Track 2 Filename Z:\EAC Rips\March 2009\Philip Glass - 2008 - Glass Box\Disc 2 - Music in Twelve Parts (1971-74)\02 - Philip Glass - Music In 12 Parts- Part Viii - Philip Glass.wav
Peak level 95.1 % Track quality 100.0 % Test CRC 9408AFEA Copy CRC 9408AFEA Copy OK
Track 3 Filename Z:\EAC Rips\March 2009\Philip Glass - 2008 - Glass Box\Disc 2 - Music in Twelve Parts (1971-74)\03 - Philip Glass - Music In 12 Parts- Part Ix - Philip Glass.wav
Peak level 91.4 % Track quality 100.0 % Test CRC 8DE18E9F Copy CRC 8DE18E9F Copy OK
Track 4 Filename Z:\EAC Rips\March 2009\Philip Glass - 2008 - Glass Box\Disc 2 - Music in Twelve Parts (1971-74)\04 - Philip Glass - Music In 12 Parts- Part X - Philip Glass.wav
Peak level 84.7 % Track quality 99.9 % Test CRC 0C885EAE Copy CRC 0C885EAE Copy OK
No errors occured
End of status report

Содержание индексной карты (.CUE):

REM DISCID 310FDC04REM COMMENT "ExactAudioCopy v0.95b4"PERFORMER "Philip Glass"TITLE "Music in Twelve Parts (1971–74)"FILE "1 Part VII.wav" WAVE TRACK 01 AUDIO TITLE "Music in Twelve Parts: Part VII" PERFORMER "Philip Glass" FLAGS DCP INDEX 01 00:00:00FILE "2 Part VIII.wav" WAVE TRACK 02 AUDIO TITLE "Music in Twelve Parts: Part VIII" PERFORMER "Philip Glass" FLAGS DCP INDEX 01 00:00:00FILE "3 Part IX.wav" WAVE TRACK 03 AUDIO TITLE "Music in Twelve Parts: Part IX" PERFORMER "Philip Glass" FLAGS DCP INDEX 01 00:00:00FILE "4 Part X.wav" WAVE TRACK 04 AUDIO TITLE "Music in Twelve Parts: Part X" PERFORMER "Philip Glass" FLAGS DCP INDEX 01 00:00:00

Disc 3. Einstein On the Beach (1976)

01. Knee Play 1 [8:05]
02. Train 1 [13:45]
03. Knee Play 2 [6:09]
04. Knee Play 3 [6:30]
05. Trial 2/Prison: “Prematurely Air-Conditioned Supermarket” [12:20]
06. Knee Play 4 [7:07]
07. Bed/Prelude [4:23]
08. Spaceship [12:51]
09. Knee Play 5 [8:05]
The Philip Glass Ensemble, Michael Riesman: musical director;Marion Beckenstein, Katie Geissinger: chorus, solo voice; Lucinda Childs, Sheryl Sutton, Jasper McGruder: spoken text.
-
-

Лог создания рипа:

EAC extraction logfile from 18. March 2009, 16:21 for CDPhilip Glass / Philip Glass - A Nonesuch Retrospective\Disc 3
Used drive : SONY DVD RW DRU-840A Adapter: 0 ID: 0Read mode : Secure with NO C2, accurate stream, disable cacheRead offset correction : 6Overread into Lead-In and Lead-Out : No
Used output format : C:\Program Files\FLAC\flac.exe (User Defined Encoder) 32 kBit/s Additional command line options : -V -8 -T "artist=%a" -T "title=%t" -T "album=%g" -T "date=%y" -T "tracknumber=%n" -T "genre=%m" %s
Other options : Fill up missing offset samples with silence : Yes Delete leading and trailing silent blocks : No Native Win32 interface for Win NT & 2000
Track 1 Filename Z:\EAC Rips\March 2009\Philip Glass - 2008 - Glass Box\Disc 03 - Einstein On the Beach (1976)\01 - Philip Glass - Einstein On The Beach- Knee Play 1 - Philip Glass.wav
Pre-gap length 0:00:02.00
Peak level 22.1 % Track quality 100.0 % Test CRC 6F93152B Copy CRC 6F93152B Copy OK
Track 2 Filename Z:\EAC Rips\March 2009\Philip Glass - 2008 - Glass Box\Disc 03 - Einstein On the Beach (1976)\02 - Philip Glass - Einstein On The Beach- Train 1 - Philip Glass.wav
Peak level 86.0 % Track quality 100.0 % Test CRC 4B60AD58 Copy CRC 4B60AD58 Copy OK
Track 3 Filename Z:\EAC Rips\March 2009\Philip Glass - 2008 - Glass Box\Disc 03 - Einstein On the Beach (1976)\03 - Philip Glass - Einstein On The Beach- Knee Play 2 - Philip Glass.wav
Peak level 34.6 % Track quality 100.0 % Test CRC 777152F7 Copy CRC 777152F7 Copy OK
Track 4 Filename Z:\EAC Rips\March 2009\Philip Glass - 2008 - Glass Box\Disc 03 - Einstein On the Beach (1976)\04 - Philip Glass - Einstein On The Beach- Knee Play 3 - Philip Glass.wav
Peak level 43.4 % Track quality 99.9 % Test CRC 54D17D67 Copy CRC 54D17D67 Copy OK
Track 5 Filename Z:\EAC Rips\March 2009\Philip Glass - 2008 - Glass Box\Disc 03 - Einstein On the Beach (1976)\05 - Philip Glass - Einstein On The Beach- Trial 2-Prison- 'Prematurely Air-Conditioned Supermarket' - Philip Glass.wav
Peak level 25.5 % Track quality 99.9 % Test CRC 310698C8 Copy CRC 310698C8 Copy OK
Track 6 Filename Z:\EAC Rips\March 2009\Philip Glass - 2008 - Glass Box\Disc 03 - Einstein On the Beach (1976)\06 - Philip Glass - Einstein On The Beach- Knee Play 4 - Philip Glass.wav
Peak level 39.2 % Track quality 100.0 % Test CRC 85AA5069 Copy CRC 85AA5069 Copy OK
Track 7 Filename Z:\EAC Rips\March 2009\Philip Glass - 2008 - Glass Box\Disc 03 - Einstein On the Beach (1976)\07 - Philip Glass - Einstein On The Beach- Bed-Prelude - Philip Glass.wav
Peak level 9.3 % Track quality 100.0 % Test CRC A3A0A610 Copy CRC A3A0A610 Copy OK
Track 8 Filename Z:\EAC Rips\March 2009\Philip Glass - 2008 - Glass Box\Disc 03 - Einstein On the Beach (1976)\08 - Philip Glass - Einstein On The Beach- Spaceship - Philip Glass.wav
Peak level 97.6 % Track quality 100.0 % Test CRC 4FF249BE Copy CRC 4FF249BE Copy OK
Track 9 Filename Z:\EAC Rips\March 2009\Philip Glass - 2008 - Glass Box\Disc 03 - Einstein On the Beach (1976)\09 - Philip Glass - Einstein On The Beach- Knee Play 5 - Philip Glass.wav
Peak level 39.7 % Track quality 99.9 % Test CRC 8011AD0C Copy CRC 8011AD0C Copy OK
No errors occured
End of status report

Содержание индексной карты (.CUE):

REM DISCID 65129309REM COMMENT "ExactAudioCopy v0.95b4"PERFORMER "Philip Glass"TITLE "Einstein On the Beach (1976)"FILE "1 Knee Play 1.wav" WAVE TRACK 01 AUDIO TITLE "Einstein On the Beach: Knee Play 1" PERFORMER "Philip Glass" FLAGS DCP INDEX 01 00:00:00FILE "2 Train 1.wav" WAVE TRACK 02 AUDIO TITLE "Einstein On the Beach: Train 1" PERFORMER "Philip Glass" FLAGS DCP INDEX 01 00:00:00FILE "3 Knee Play 2.wav" WAVE TRACK 03 AUDIO TITLE "Einstein On the Beach: Knee Play 2" PERFORMER "Philip Glass" FLAGS DCP INDEX 01 00:00:00FILE "4 Knee Play 3.wav" WAVE TRACK 04 AUDIO TITLE "Einstein On the Beach: Knee Play 3" PERFORMER "Philip Glass" FLAGS DCP INDEX 01 00:00:00FILE "5 Trial 2-Prison- “Prematurely Air-Conditioned Supermarket”.wav" WAVE TRACK 05 AUDIO TITLE "Einstein On the Beach: Trial 2/Prison: “Prematurely Air-Conditioned Supermarket”" PERFORMER "Philip Glass" FLAGS DCP INDEX 01 00:00:00FILE "6 Knee Play 4.wav" WAVE TRACK 06 AUDIO TITLE "Einstein On the Beach: Knee Play 4" PERFORMER "Philip Glass" FLAGS DCP INDEX 01 00:00:00FILE "7 Bed-Prelude.wav" WAVE TRACK 07 AUDIO TITLE "Einstein On the Beach: Bed/Prelude" PERFORMER "Philip Glass" FLAGS DCP INDEX 01 00:00:00FILE "8 Spaceship.wav" WAVE TRACK 08 AUDIO TITLE "Einstein On the Beach: Spaceship" PERFORMER "Philip Glass" FLAGS DCP INDEX 01 00:00:00FILE "9 Knee Play 5.wav" WAVE TRACK 09 AUDIO TITLE "Einstein On the Beach: Knee Play 5" PERFORMER "Philip Glass" FLAGS DCP INDEX 01 00:00:00

Disc 4. Glassworks - Analog

01. Opening [6:12]
02. Facades [7:18]
Michael Riesman: piano, synthesizer; Jack Kripl: saxophone.
03. Floe [8:44]
Miles Green: keyboards.
04. Closing [5:17]
Michael Riesman, piano soloist, conductor; Stuttgart Chamber Orchestra.
05. Etoile Polaire [2:39]
06. River Run [1:54]
07. Are Years What? (For Marianne Moore) [4:03]
08. Ange Des Oranges [3:48]
09. Ave [4:46]
10. Montage [2:29]
Philip Glass: Farfisa, Yamaha and Hammond organs, Fender Rhodes piano, arp, synthesizer;
Dickie Landry: soprano and tenor saxophones, flute; Joan La Barbara, Gene Rickard: voices.

11. Dressed Like An Egg: Part IV [3:13]
12. Dressed Like An Egg: Part V [1:35]
13. Mad Rush For Organ [16:14]
Philip Glass: Farfisa, Yamaha and Hammond organs, Fender Rhodes piano, arp, synthesizer;
Iris Hisky: vocals.
-
-

Лог создания рипа:

EAC extraction logfile from 16. March 2009, 18:49 for CDPhilip Glass / Philip Glass - A Nonesuch Retrospective\Disc 4
Used drive : SONY DVD RW DRU-840A Adapter: 0 ID: 0Read mode : Secure with NO C2, accurate stream, disable cacheRead offset correction : 6Overread into Lead-In and Lead-Out : No
Used output format : C:\Program Files\FLAC\flac.exe (User Defined Encoder) 32 kBit/s Additional command line options : -V -8 -T "artist=%a" -T "title=%t" -T "album=%g" -T "date=%y" -T "tracknumber=%n" -T "genre=%m" %s
Other options : Fill up missing offset samples with silence : Yes Delete leading and trailing silent blocks : No Native Win32 interface for Win NT & 2000
Track 1 Filename Z:\EAC Rips\March 2009\Philip Glass - 2008 - Glass Box\Disc 4 - Glassworks - Analog\01 - Philip Glass - Glassworks-Analog- Opening - Philip Glass.wav
Pre-gap length 0:00:02.00
Peak level 79.2 % Track quality 100.0 % Test CRC C81D7883 Copy CRC C81D7883 Copy OK
Track 2 Filename Z:\EAC Rips\March 2009\Philip Glass - 2008 - Glass Box\Disc 4 - Glassworks - Analog\02 - Philip Glass - Glassworks-Analog- Facades - Philip Glass.wav
Peak level 83.0 % Track quality 100.0 % Test CRC 00B580A3 Copy CRC 00B580A3 Copy OK
Track 3 Filename Z:\EAC Rips\March 2009\Philip Glass - 2008 - Glass Box\Disc 4 - Glassworks - Analog\03 - Philip Glass - Glassworks-Analog- Floe - Philip Glass.wav
Peak level 97.0 % Track quality 100.0 % Test CRC CD8E7BEE Copy CRC CD8E7BEE Copy OK
Track 4 Filename Z:\EAC Rips\March 2009\Philip Glass - 2008 - Glass Box\Disc 4 - Glassworks - Analog\04 - Philip Glass - Glassworks-Analog- Closing - Philip Glass.wav
Peak level 96.4 % Track quality 99.9 % Test CRC 382E411B Copy CRC 382E411B Copy OK
Track 5 Filename Z:\EAC Rips\March 2009\Philip Glass - 2008 - Glass Box\Disc 4 - Glassworks - Analog\05 - Philip Glass - Glassworks-Analog- Etoile Polaire - Philip Glass.wav
Peak level 66.6 % Track quality 100.0 % Test CRC 222D67B0 Copy CRC 222D67B0 Copy OK
Track 6 Filename Z:\EAC Rips\March 2009\Philip Glass - 2008 - Glass Box\Disc 4 - Glassworks - Analog\06 - Philip Glass - Glassworks-Analog- River Run - Philip Glass.wav
Peak level 80.5 % Track quality 99.9 % Test CRC C01B10B5 Copy CRC C01B10B5 Copy OK
Track 7 Filename Z:\EAC Rips\March 2009\Philip Glass - 2008 - Glass Box\Disc 4 - Glassworks - Analog\07 - Philip Glass - Glassworks-Analog- Are Years What (For Marianne Moore0 - Philip Glass.wav
Peak level 64.5 % Track quality 100.0 % Test CRC DDECB38E Copy CRC DDECB38E Copy OK
Track 8 Filename Z:\EAC Rips\March 2009\Philip Glass - 2008 - Glass Box\Disc 4 - Glassworks - Analog\08 - Philip Glass - Glassworks-Analog- Ange Des Oranges - Philip Glass.wav
Peak level 80.2 % Track quality 100.0 % Test CRC 835E11E9 Copy CRC 835E11E9 Copy OK
Track 9 Filename Z:\EAC Rips\March 2009\Philip Glass - 2008 - Glass Box\Disc 4 - Glassworks - Analog\09 - Philip Glass - Glassworks-Analog- Ave - Philip Glass.wav
Peak level 73.6 % Track quality 100.0 % Test CRC BADCD32C Copy CRC BADCD32C Copy OK
Track 10 Filename Z:\EAC Rips\March 2009\Philip Glass - 2008 - Glass Box\Disc 4 - Glassworks - Analog\10 - Philip Glass - Glassworks-Analog- Montage - Philip Glass.wav
Peak level 65.9 % Track quality 100.0 % Test CRC 7E9C2B42 Copy CRC 7E9C2B42 Copy OK
Track 11 Filename Z:\EAC Rips\March 2009\Philip Glass - 2008 - Glass Box\Disc 4 - Glassworks - Analog\11 - Philip Glass - Glassworks-Analog- Dressed Like An Egg- Part Iv - Philip Glass.wav
Peak level 64.3 % Track quality 100.0 % Test CRC CFB1CD0B Copy CRC CFB1CD0B Copy OK
Track 12 Filename Z:\EAC Rips\March 2009\Philip Glass - 2008 - Glass Box\Disc 4 - Glassworks - Analog\12 - Philip Glass - Glassworks-Analog- Dressed Like An Egg- Part V - Philip Glass.wav
Peak level 67.7 % Track quality 99.8 % Test CRC 6354A1C0 Copy CRC 6354A1C0 Copy OK
Track 13 Filename Z:\EAC Rips\March 2009\Philip Glass - 2008 - Glass Box\Disc 4 - Glassworks - Analog\13 - Philip Glass - Glassworks-Analog- Mad Rush For Organ - Philip Glass.wav
Peak level 71.9 % Track quality 100.0 % Test CRC 6F90E1B6 Copy CRC 6F90E1B6 Copy OK
No errors occured
End of status report

Содержание индексной карты (.CUE):

REM DISCID B10FFB0DREM COMMENT "ExactAudioCopy v0.95b4"PERFORMER "Philip Glass"TITLE "Glassworks / Analog"FILE "01 Opening.wav" WAVE TRACK 01 AUDIO TITLE "Glassworks: Opening" PERFORMER "Philip Glass" FLAGS DCP INDEX 01 00:00:00FILE "02 Facades.wav" WAVE TRACK 02 AUDIO TITLE "Glassworks: Facades" PERFORMER "Philip Glass" FLAGS DCP INDEX 01 00:00:00FILE "03 Floe.wav" WAVE TRACK 03 AUDIO TITLE "Glassworks: Floe" PERFORMER "Philip Glass" FLAGS DCP INDEX 01 00:00:00FILE "04 Closing.wav" WAVE TRACK 04 AUDIO TITLE "Glassworks: Closing" PERFORMER "Philip Glass" FLAGS DCP INDEX 01 00:00:00FILE "05 Etoile Polaire.wav" WAVE TRACK 05 AUDIO TITLE "Etoile Polaire" PERFORMER "Philip Glass" FLAGS DCP INDEX 01 00:00:00FILE "06 River Run.wav" WAVE TRACK 06 AUDIO TITLE "River Run" PERFORMER "Philip Glass" FLAGS DCP INDEX 01 00:00:00FILE "07 Are Years What_ (For Marianne Moore).wav" WAVE TRACK 07 AUDIO TITLE "Are Years What? (For Marianne Moore)" PERFORMER "Philip Glass" FLAGS DCP INDEX 01 00:00:00FILE "08 Ange Des Oranges.wav" WAVE TRACK 08 AUDIO TITLE "Ange Des Oranges" PERFORMER "Philip Glass" FLAGS DCP INDEX 01 00:00:00FILE "09 Ave.wav" WAVE TRACK 09 AUDIO TITLE "Ave" PERFORMER "Philip Glass" FLAGS DCP INDEX 01 00:00:00FILE "10 Montage.wav" WAVE TRACK 10 AUDIO TITLE "Montage" PERFORMER "Philip Glass" FLAGS DCP INDEX 01 00:00:00FILE "11 Dressed Like An Egg- Part IV.wav" WAVE TRACK 11 AUDIO TITLE "Dressed Like An Egg: Part IV" PERFORMER "Philip Glass" FLAGS DCP INDEX 01 00:00:00FILE "12 Dressed Like An Egg- Part V - Philip Glass.wav" WAVE TRACK 12 AUDIO TITLE "Dressed Like An Egg: Part V" PERFORMER "Philip Glass" FLAGS DCP INDEX 01 00:00:00FILE "13 Mad Rush For Organ - Philip Glass.wav" WAVE TRACK 13 AUDIO TITLE "Mad Rush For Organ" PERFORMER "Philip Glass" FLAGS DCP INDEX 01 00:00:00

Disc 5. From Satyagraha (1980)

01. Act I (Tolstoy), Scene 1: The Kuru Field Of Justice [18:46]
02. Act I (Tolstoy), Scene 2: Tolstoy Farm (1910) [11:03]
03. Act II (Tagore), Scene 1: Confrontation And Rescue (1896) [14:45]
04. Act II (Tagore), Scene 3: Protest (1908) [15:16]
05. Act III (King), Scene 1: Newcastle March (1913) -Part 3: Evening Song [8:23]
The New York City Opera Chorus and Orchestra, conducted by Christopher Keene; Douglas Perry: tenor; Claudia Cummings: soprano; Rhonda Liss: alto; Robert McFarland: baritone; Scott Reeve: bass; Sheryl Woods: soprano; Rhonda Liss: alto; Scott Reeve: bass; Robert McFarland: baritone.
-
-

Лог создания рипа:

EAC extraction logfile from 16. March 2009, 19:11 for CDPhilip Glass / Philip Glass - A Nonesuch Retrospective\Disc 5
Used drive : SONY DVD RW DRU-840A Adapter: 0 ID: 0Read mode : Secure with NO C2, accurate stream, disable cacheRead offset correction : 6Overread into Lead-In and Lead-Out : No
Used output format : C:\Program Files\FLAC\flac.exe (User Defined Encoder) 32 kBit/s Additional command line options : -V -8 -T "artist=%a" -T "title=%t" -T "album=%g" -T "date=%y" -T "tracknumber=%n" -T "genre=%m" %s
Other options : Fill up missing offset samples with silence : Yes Delete leading and trailing silent blocks : No Native Win32 interface for Win NT & 2000
Track 1 Filename Z:\EAC Rips\March 2009\Philip Glass - 2008 - Glass Box\Disc 5 - From Satyagraha (1980)\01 - Philip Glass - Satyagraha- Act I (Tolstoy), Scene 1- The Kuru Field Of Justice - Philip Glass.wav
Pre-gap length 0:00:02.00
Peak level 95.9 % Track quality 100.0 % Test CRC F471C493 Copy CRC F471C493 Copy OK
Track 2 Filename Z:\EAC Rips\March 2009\Philip Glass - 2008 - Glass Box\Disc 5 - From Satyagraha (1980)\02 - Philip Glass - Satyagraha- Act I (Tolstoy), Scene 2- Tolstoy Farm (1910) - Philip Glass.wav
Peak level 96.6 % Track quality 100.0 % Test CRC 223539E2 Copy CRC 223539E2 Copy OK
Track 3 Filename Z:\EAC Rips\March 2009\Philip Glass - 2008 - Glass Box\Disc 5 - From Satyagraha (1980)\03 - Philip Glass - Satyagraha- Act Ii (Tagore), Scene 1- Confrontation And Rescue (1896) - Philip Glass.wav
Peak level 96.6 % Track quality 100.0 % Test CRC 826D960F Copy CRC 826D960F Copy OK
Track 4 Filename Z:\EAC Rips\March 2009\Philip Glass - 2008 - Glass Box\Disc 5 - From Satyagraha (1980)\04 - Philip Glass - Satyagraha- Act Ii (Tagore), Scene 3- Protest (1908) - Philip Glass.wav
Peak level 96.6 % Track quality 100.0 % Test CRC EC8C6343 Copy CRC EC8C6343 Copy OK
Track 5 Filename Z:\EAC Rips\March 2009\Philip Glass - 2008 - Glass Box\Disc 5 - From Satyagraha (1980)\05 - Philip Glass - Satyagraha- Act Iii (King), Scene 1- Newcastle March (1913) -Part 3- Evening Song - Philip Glass.wav
Peak level 55.1 % Track quality 100.0 % Test CRC C7A846EC Copy CRC C7A846EC Copy OK
No errors occured
End of status report

Содержание индексной карты (.CUE):

REM DISCID 4A0FFE05REM COMMENT "ExactAudioCopy v0.95b4"PERFORMER "Philip Glass"TITLE "From Satyagraha (1980)"FILE "1 Act I (Tolstoy), Scene 1- The Kuru Field Of Justice.wav" WAVE TRACK 01 AUDIO TITLE "Satyagraha: Act I (Tolstoy), Scene 1: The Kuru Field Of Justice" PERFORMER "Philip Glass" FLAGS DCP INDEX 01 00:00:00FILE "2 Act I (Tolstoy), Scene 2- Tolstoy Farm (1910).wav" WAVE TRACK 02 AUDIO TITLE "Satyagraha: Act I (Tolstoy), Scene 2: Tolstoy Farm (1910)" PERFORMER "Philip Glass" FLAGS DCP INDEX 01 00:00:00FILE "3 Act II (Tagore), Scene 1- Confrontation And Rescue (1896).wav" WAVE TRACK 03 AUDIO TITLE "Satyagraha: Act II (Tagore), Scene 1: Confrontation And Rescue (1896)" PERFORMER "Philip Glass" FLAGS DCP INDEX 01 00:00:00FILE "4 Act II (Tagore), Scene 3- Protest (1908).wav" WAVE TRACK 04 AUDIO TITLE "Satyagraha: Act II (Tagore), Scene 3: Protest (1908)" PERFORMER "Philip Glass" FLAGS DCP INDEX 01 00:00:00FILE "5 Act III (King), Scene 1- Newcastle March (1913) -Part 3- Evening Song.wav" WAVE TRACK 05 AUDIO TITLE "Satyagraha: Act III (King), Scene 1: Newcastle March (1913) -Part 3: Evening Song" PERFORMER "Philip Glass" FLAGS DCP INDEX 01 00:00:00

Disc 6. From Koyaanisqatsi and Powaqqatsi

Koyaanisqatsi:
01.Koyaanisqatsi [3:26]
02. Organic [7:47]
03. Cloudscape [4:32]
04. Resource [6:39]
05. Vessels [8:02]
06. The Grid [21:20]
Conducted by Michael Riesman; Albert de Ruiter: bass vocal; The Western Wind Vocal Ensemble; Members of The Philip Glass Ensemble.
Powaqqatsi:
07. Serra Pelada [5:04]
08. Train To Sao Paolo [3:06]
09. Video Dream [2:15]
10. New Cities In Ancient Lands: China [2:48]
11. New Cities In Ancient Lands: Africa [2:56]
12. New Cities In Ancient Lands: India [4:42]
13. Mr. Suso #2 With Reflection [1:15]
14. Powaqqatsi [4:36]
Foday Musa Suso: kora, balafon, dousongoni, nyanyer, kari nyan; Shaikh Fathy Mady: vocal solo; Al DeRuiter: bass voice; Joe Passaro, Sue Evans, Roger Squitero, Valerie Naranjo: percussion; Hispanic Young People’s Chorus, Angélica Rosa Sepúlveda, musical director.
-
-

Лог создания рипа:

EAC extraction logfile from 16. March 2009, 19:38 for CDPhilip Glass / Philip Glass - A Nonesuch Retrospective\Disc 6
Used drive : SONY DVD RW DRU-840A Adapter: 0 ID: 0Read mode : Secure with NO C2, accurate stream, disable cacheRead offset correction : 6Overread into Lead-In and Lead-Out : No
Used output format : C:\Program Files\FLAC\flac.exe (User Defined Encoder) 32 kBit/s Additional command line options : -V -8 -T "artist=%a" -T "title=%t" -T "album=%g" -T "date=%y" -T "tracknumber=%n" -T "genre=%m" %s
Other options : Fill up missing offset samples with silence : Yes Delete leading and trailing silent blocks : No Native Win32 interface for Win NT & 2000
Track 1 Filename Z:\EAC Rips\March 2009\Philip Glass - 2008 - Glass Box\Disc 6 - From Koyaanisqatsi and Powaqqatsi\01 - Philip Glass - Koyaanisqatsi- Koyaanisqatsi - Philip Glass.wav
Pre-gap length 0:00:02.00
Peak level 38.0 % Track quality 100.0 % Test CRC E93EA543 Copy CRC E93EA543 Copy OK
Track 2 Filename Z:\EAC Rips\March 2009\Philip Glass - 2008 - Glass Box\Disc 6 - From Koyaanisqatsi and Powaqqatsi\02 - Philip Glass - Koyaanisqatsi- Organic - Philip Glass.wav
Peak level 49.2 % Track quality 100.0 % Test CRC EE64AAD0 Copy CRC EE64AAD0 Copy OK
Track 3 Filename Z:\EAC Rips\March 2009\Philip Glass - 2008 - Glass Box\Disc 6 - From Koyaanisqatsi and Powaqqatsi\03 - Philip Glass - Koyaanisqatsi- Cloudscape - Philip Glass.wav
Peak level 76.8 % Track quality 100.0 % Test CRC A518EC67 Copy CRC A518EC67 Copy OK
Track 4 Filename Z:\EAC Rips\March 2009\Philip Glass - 2008 - Glass Box\Disc 6 - From Koyaanisqatsi and Powaqqatsi\04 - Philip Glass - Koyaanisqatsi- Resource - Philip Glass.wav
Peak level 96.6 % Track quality 100.0 % Test CRC 74570E38 Copy CRC 74570E38 Copy OK
Track 5 Filename Z:\EAC Rips\March 2009\Philip Glass - 2008 - Glass Box\Disc 6 - From Koyaanisqatsi and Powaqqatsi\05 - Philip Glass - Koyaanisqatsi- Vessels - Philip Glass.wav
Peak level 78.8 % Track quality 100.0 % Test CRC 28B8017F Copy CRC 28B8017F Copy OK
Track 6 Filename Z:\EAC Rips\March 2009\Philip Glass - 2008 - Glass Box\Disc 6 - From Koyaanisqatsi and Powaqqatsi\06 - Philip Glass - Koyaanisqatsi- The Grid - Philip Glass.wav
Peak level 96.6 % Track quality 99.9 % Test CRC 28052A63 Copy CRC 28052A63 Copy OK
Track 7 Filename Z:\EAC Rips\March 2009\Philip Glass - 2008 - Glass Box\Disc 6 - From Koyaanisqatsi and Powaqqatsi\07 - Philip Glass - Powaqqatsi- Serra Pelada - Philip Glass.wav
Peak level 75.9 % Track quality 100.0 % Test CRC 8F3E03D2 Copy CRC 8F3E03D2 Copy OK
Track 8 Filename Z:\EAC Rips\March 2009\Philip Glass - 2008 - Glass Box\Disc 6 - From Koyaanisqatsi and Powaqqatsi\08 - Philip Glass - Powaqqatsi- Train To Sao Paolo - Philip Glass.wav
Peak level 67.6 % Track quality 100.0 % Test CRC 3CFD29D8 Copy CRC 3CFD29D8 Copy OK
Track 9 Filename Z:\EAC Rips\March 2009\Philip Glass - 2008 - Glass Box\Disc 6 - From Koyaanisqatsi and Powaqqatsi\09 - Philip Glass - Powaqqatsi- Video Dream - Philip Glass.wav
Peak level 30.4 % Track quality 100.0 % Test CRC E2B6EFBF Copy CRC E2B6EFBF Copy OK
Track 10 Filename Z:\EAC Rips\March 2009\Philip Glass - 2008 - Glass Box\Disc 6 - From Koyaanisqatsi and Powaqqatsi\10 - Philip Glass - Powaqqatsi- New Cities In Ancient Lands- China - Philip Glass.wav
Peak level 38.6 % Track quality 100.0 % Test CRC 29DE3A5B Copy CRC 29DE3A5B Copy OK
Track 11 Filename Z:\EAC Rips\March 2009\Philip Glass - 2008 - Glass Box\Disc 6 - From Koyaanisqatsi and Powaqqatsi\11 - Philip Glass - Powaqqatsi- New Cities In Ancient Lands- Africa - Philip Glass.wav
Peak level 44.1 % Track quality 100.0 % Test CRC 3DCDCB4E Copy CRC 3DCDCB4E Copy OK
Track 12 Filename Z:\EAC Rips\March 2009\Philip Glass - 2008 - Glass Box\Disc 6 - From Koyaanisqatsi and Powaqqatsi\12 - Philip Glass - Powaqqatsi- New Cities In Ancient Lands- India - Philip Glass.wav
Peak level 72.0 % Track quality 100.0 % Test CRC 450DF469 Copy CRC 450DF469 Copy OK
Track 13 Filename Z:\EAC Rips\March 2009\Philip Glass - 2008 - Glass Box\Disc 6 - From Koyaanisqatsi and Powaqqatsi\13 - Philip Glass - Powaqqatsi- Mr. Suso #2 With Reflection - Philip Glass.wav
Peak level 35.4 % Track quality 100.0 % Test CRC 7E87FC76 Copy CRC 7E87FC76 Copy OK
Track 14 Filename Z:\EAC Rips\March 2009\Philip Glass - 2008 - Glass Box\Disc 6 - From Koyaanisqatsi and Powaqqatsi\14 - Philip Glass - Powaqqatsi- Powaqqatsi - Philip Glass.wav
Peak level 100.0 % Track quality 100.0 % Test CRC F38F19CC Copy CRC F38F19CC Copy OK
No errors occured
End of status report

Содержание индексной карты (.CUE):

REM DISCID CC12630EREM COMMENT "ExactAudioCopy v0.95b4"PERFORMER "Philip Glass"TITLE "From Koyaanisqatsi and Powaqqatsi"FILE "01 Koyaanisqatsi- Koyaanisqatsi.wav" WAVE TRACK 01 AUDIO TITLE "Koyaanisqatsi: Koyaanisqatsi" PERFORMER "Philip Glass" FLAGS DCP INDEX 01 00:00:00FILE "02 Koyaanisqatsi- Organic.wav" WAVE TRACK 02 AUDIO TITLE "Koyaanisqatsi: Organic" PERFORMER "Philip Glass" FLAGS DCP INDEX 01 00:00:00FILE "03 Koyaanisqatsi- Cloudscape.wav" WAVE TRACK 03 AUDIO TITLE "Koyaanisqatsi: Cloudscape" PERFORMER "Philip Glass" FLAGS DCP INDEX 01 00:00:00FILE "04 Koyaanisqatsi- Resource.wav" WAVE TRACK 04 AUDIO TITLE "Koyaanisqatsi: Resource" PERFORMER "Philip Glass" FLAGS DCP INDEX 01 00:00:00FILE "05 Koyaanisqatsi- Vessels.wav" WAVE TRACK 05 AUDIO TITLE "Koyaanisqatsi: Vessels" PERFORMER "Philip Glass" FLAGS DCP INDEX 01 00:00:00FILE "06 Koyaanisqatsi- The Grid.wav" WAVE TRACK 06 AUDIO TITLE "Koyaanisqatsi: The Grid" PERFORMER "Philip Glass" FLAGS DCP INDEX 01 00:00:00FILE "07 Powaqqatsi- Serra Pelada.wav" WAVE TRACK 07 AUDIO TITLE "Powaqqatsi: Serra Pelada" PERFORMER "Philip Glass" FLAGS DCP INDEX 01 00:00:00FILE "08 Powaqqatsi- Train To Sao Paolo.wav" WAVE TRACK 08 AUDIO TITLE "Powaqqatsi: Train To Sao Paolo" PERFORMER "Philip Glass" FLAGS DCP INDEX 01 00:00:00FILE "09 Powaqqatsi- Video Dream.wav" WAVE TRACK 09 AUDIO TITLE "Powaqqatsi: Video Dream" PERFORMER "Philip Glass" FLAGS DCP INDEX 01 00:00:00FILE "10 Powaqqatsi- New Cities In Ancient Lands- China.wav" WAVE TRACK 10 AUDIO TITLE "Powaqqatsi: New Cities In Ancient Lands: China" PERFORMER "Philip Glass" FLAGS DCP INDEX 01 00:00:00FILE "11 Powaqqatsi- New Cities In Ancient Lands- Africa.wav" WAVE TRACK 11 AUDIO TITLE "Powaqqatsi: New Cities In Ancient Lands: Africa" PERFORMER "Philip Glass" FLAGS DCP INDEX 01 00:00:00FILE "12 Powaqqatsi- New Cities In Ancient Lands- India - Philip Glass.wav" WAVE TRACK 12 AUDIO TITLE "Powaqqatsi: New Cities In Ancient Lands: India" PERFORMER "Philip Glass" FLAGS DCP INDEX 01 00:00:00FILE "13 Powaqqatsi- Mr. Suso #2 With Reflection - Philip Glass.wav" WAVE TRACK 13 AUDIO TITLE "Powaqqatsi: Mr. Suso #2 With Reflection" PERFORMER "Philip Glass" FLAGS DCP INDEX 01 00:00:00FILE "14 Powaqqatsi- Powaqqatsi - Philip Glass.wav" WAVE TRACK 14 AUDIO TITLE "Powaqqatsi: Powaqqatsi" PERFORMER "Philip Glass" FLAGS DCP INDEX 01 00:00:00

Disc 7. String Quartets and Piano Études (1984–94)

String Quartet No. 2 ('Company'):
01. Movement I [2:11]
02. Movement II [1:36]
03. Movement III [1:33]
04. Movement IV [2:07]
Kronos Quartet: David Harrington, violin; John Sherba, violin; Hank Dutt, viola; Joan Jeanrenaud, cello.
05. Etude For Piano No. 2 [4:53]
06. Etude For Piano No. 9 [3:36]
Philip Glass: piano.
String Quartet No. 5:
07. Movement I [1:11]
08. Movement II [2:59]
09. Movement III [5:28]
10. Movement IV [4:38]
11. Movement V [7:41]
Kronos Quartet: David Harrington, violin; John Sherba, violin; Hank Dutt, viola; Joan Jeanrenaud, cello.
12. Etude For Piano No. 5 [5:45]
13. Etude For Piano No. 3 [4:57]
Philip Glass: piano.
String Quartet No. 4 ('Buczak'):
14. Movement I [7:57]
15. Movement II [6:21]
16. Movement III [8:42]
Kronos Quartet: David Harrington, violin; John Sherba, violin; Hank Dutt, viola; Joan Jeanrenaud, cello.
-
-

Лог создания рипа:

EAC extraction logfile from 16. March 2009, 20:09 for CDPhilip Glass / A Nonesuch Retrospective\Disc 7
Used drive : SONY DVD RW DRU-840A Adapter: 0 ID: 0Read mode : Secure with NO C2, accurate stream, disable cacheRead offset correction : 6Overread into Lead-In and Lead-Out : No
Used output format : C:\Program Files\FLAC\flac.exe (User Defined Encoder) 32 kBit/s Additional command line options : -V -8 -T "artist=%a" -T "title=%t" -T "album=%g" -T "date=%y" -T "tracknumber=%n" -T "genre=%m" %s
Other options : Fill up missing offset samples with silence : Yes Delete leading and trailing silent blocks : No Native Win32 interface for Win NT & 2000
Track 1 Filename Z:\EAC Rips\March 2009\Philip Glass - 2008 - Glass Box\Disc 07 - String Quartets and Piano Йtudes (1984-94)\01 - Philip Glass - String Quartet No. 2 ('Company')- Movement I - Philip Glass.wav
Pre-gap length 0:00:02.00
Peak level 38.5 % Track quality 100.0 % Test CRC 437EFB76 Copy CRC 437EFB76 Copy OK
Track 2 Filename Z:\EAC Rips\March 2009\Philip Glass - 2008 - Glass Box\Disc 07 - String Quartets and Piano Йtudes (1984-94)\02 - Philip Glass - String Quartet No. 2 ('Company')- Movement Ii - Philip Glass.wav
Peak level 96.6 % Track quality 100.0 % Test CRC B530F917 Copy CRC B530F917 Copy OK
Track 3 Filename Z:\EAC Rips\March 2009\Philip Glass - 2008 - Glass Box\Disc 07 - String Quartets and Piano Йtudes (1984-94)\03 - Philip Glass - String Quartet No. 2 ('Company')- Movement Iii - Philip Glass.wav
Peak level 96.6 % Track quality 100.0 % Test CRC 1A1BA276 Copy CRC 1A1BA276 Copy OK
Track 4 Filename Z:\EAC Rips\March 2009\Philip Glass - 2008 - Glass Box\Disc 07 - String Quartets and Piano Йtudes (1984-94)\04 - Philip Glass - String Quartet No. 2 ('Company')- Movement Iv - Philip Glass.wav
Peak level 64.7 % Track quality 100.0 % Test CRC 657A5162 Copy CRC 657A5162 Copy OK
Track 5 Filename Z:\EAC Rips\March 2009\Philip Glass - 2008 - Glass Box\Disc 07 - String Quartets and Piano Йtudes (1984-94)\05 - Philip Glass - Etude For Piano No. 2 - Philip Glass.wav
Peak level 96.5 % Track quality 99.9 % Test CRC E61E77F4 Copy CRC E61E77F4 Copy OK
Track 6 Filename Z:\EAC Rips\March 2009\Philip Glass - 2008 - Glass Box\Disc 07 - String Quartets and Piano Йtudes (1984-94)\06 - Philip Glass - Etude For Piano No. 9 - Philip Glass.wav
Peak level 79.3 % Track quality 100.0 % Test CRC 1623027D Copy CRC 1623027D Copy OK
Track 7 Filename Z:\EAC Rips\March 2009\Philip Glass - 2008 - Glass Box\Disc 07 - String Quartets and Piano Йtudes (1984-94)\07 - Philip Glass - String Quartet No. 5- Movement I - Philip Glass.wav
Peak level 78.9 % Track quality 100.0 % Test CRC 57D037E5 Copy CRC 57D037E5 Copy OK
Track 8 Filename Z:\EAC Rips\March 2009\Philip Glass - 2008 - Glass Box\Disc 07 - String Quartets and Piano Йtudes (1984-94)\08 - Philip Glass - String Quartet No. 5- Movement Ii - Philip Glass.wav
Peak level 62.4 % Track quality 100.0 % Test CRC BDC58816 Copy CRC BDC58816 Copy OK
Track 9 Filename Z:\EAC Rips\March 2009\Philip Glass - 2008 - Glass Box\Disc 07 - String Quartets and Piano Йtudes (1984-94)\09 - Philip Glass - String Quartet No. 5- Movement Iii - Philip Glass.wav
Peak level 96.6 % Track quality 100.0 % Test CRC 955F7E3C Copy CRC 955F7E3C Copy OK
Track 10 Filename Z:\EAC Rips\March 2009\Philip Glass - 2008 - Glass Box\Disc 07 - String Quartets and Piano Йtudes (1984-94)\10 - Philip Glass - String Quartet No. 5- Movement Iv - Philip Glass.wav
Peak level 72.3 % Track quality 100.0 % Test CRC BE8493E9 Copy CRC BE8493E9 Copy OK
Track 11 Filename Z:\EAC Rips\March 2009\Philip Glass - 2008 - Glass Box\Disc 07 - String Quartets and Piano Йtudes (1984-94)\11 - Philip Glass - String Quartet No. 5- Movement V - Philip Glass.wav
Peak level 96.6 % Track quality 100.0 % Test CRC F7F55943 Copy CRC F7F55943 Copy OK
Track 12 Filename Z:\EAC Rips\March 2009\Philip Glass - 2008 - Glass Box\Disc 07 - String Quartets and Piano Йtudes (1984-94)\12 - Philip Glass - Etude For Piano No. 5 - Philip Glass.wav
Peak level 96.5 % Track quality 100.0 % Test CRC 6B6110E7 Copy CRC 6B6110E7 Copy OK
Track 13 Filename Z:\EAC Rips\March 2009\Philip Glass - 2008 - Glass Box\Disc 07 - String Quartets and Piano Йtudes (1984-94)\13 - Philip Glass - Etude For Piano No. 3 - Philip Glass.wav
Peak level 96.5 % Track quality 100.0 % Test CRC 064E147F Copy CRC 064E147F Copy OK
Track 14 Filename Z:\EAC Rips\March 2009\Philip Glass - 2008 - Glass Box\Disc 07 - String Quartets and Piano Йtudes (1984-94)\14 - Philip Glass - String Quartet No. 4 ('Buczak')- Movement I - Philip Glass.wav
Peak level 96.6 % Track quality 100.0 % Test CRC 47A54F6F Copy CRC 47A54F6F Copy OK
Track 15 Filename Z:\EAC Rips\March 2009\Philip Glass - 2008 - Glass Box\Disc 07 - String Quartets and Piano Йtudes (1984-94)\15 - Philip Glass - String Quartet No. 4 ('Buczak')- Movement Ii - Philip Glass.wav
Peak level 26.1 % Track quality 99.9 % Test CRC 6D8F681B Copy CRC 6D8F681B Copy OK
Track 16 Filename Z:\EAC Rips\March 2009\Philip Glass - 2008 - Glass Box\Disc 07 - String Quartets and Piano Йtudes (1984-94)\16 - Philip Glass - String Quartet No. 4 ('Buczak')- Movement Iii - Philip Glass.wav
Peak level 96.6 % Track quality 99.8 % Test CRC F11A2A3C Copy CRC F11A2A3C Copy OK
No errors occured
End of status report

Содержание индексной карты (.CUE):

REM DISCID DA10C710REM COMMENT "ExactAudioCopy v0.95b4"PERFORMER "Philip Glass"TITLE "String Quartets and Piano Etudes (1984–94)"FILE "01 String Quartet No. 2 ('Company')- Movement I.wav" WAVE TRACK 01 AUDIO TITLE "String Quartet No. 2 ('Company'): Movement I" PERFORMER "Philip Glass" FLAGS DCP INDEX 01 00:00:00FILE "02 String Quartet No. 2 ('Company')- Movement II.wav" WAVE TRACK 02 AUDIO TITLE "String Quartet No. 2 ('Company'): Movement II" PERFORMER "Philip Glass" FLAGS DCP INDEX 01 00:00:00FILE "03 String Quartet No. 2 ('Company')- Movement III.wav" WAVE TRACK 03 AUDIO TITLE "String Quartet No. 2 ('Company'): Movement III" PERFORMER "Philip Glass" FLAGS DCP INDEX 01 00:00:00FILE "04 String Quartet No. 2 ('Company')- Movement IV.wav" WAVE TRACK 04 AUDIO TITLE "String Quartet No. 2 ('Company'): Movement IV" PERFORMER "Philip Glass" FLAGS DCP INDEX 01 00:00:00FILE "05 Etude For Piano No. 2.wav" WAVE TRACK 05 AUDIO TITLE "Etude For Piano No. 2" PERFORMER "Philip Glass" FLAGS DCP INDEX 01 00:00:00FILE "06 Etude For Piano No. 9.wav" WAVE TRACK 06 AUDIO TITLE "Etude For Piano No. 9" PERFORMER "Philip Glass" FLAGS DCP INDEX 01 00:00:00FILE "07 String Quartet No. 5- Movement I.wav" WAVE TRACK 07 AUDIO TITLE "String Quartet No. 5: Movement I" PERFORMER "Philip Glass" FLAGS DCP INDEX 01 00:00:00FILE "08 String Quartet No. 5- Movement II.wav" WAVE TRACK 08 AUDIO TITLE "String Quartet No. 5: Movement II" PERFORMER "Philip Glass" FLAGS DCP INDEX 01 00:00:00FILE "09 String Quartet No. 5- Movement III.wav" WAVE TRACK 09 AUDIO TITLE "String Quartet No. 5: Movement III" PERFORMER "Philip Glass" FLAGS DCP INDEX 01 00:00:00FILE "10 String Quartet No. 5- Movement IV.wav" WAVE TRACK 10 AUDIO TITLE "String Quartet No. 5: Movement IV" PERFORMER "Philip Glass" FLAGS DCP INDEX 01 00:00:00FILE "11 String Quartet No. 5- Movement V.wav" WAVE TRACK 11 AUDIO TITLE "String Quartet No. 5: Movement V" PERFORMER "Philip Glass" FLAGS DCP INDEX 01 00:00:00FILE "12 Etude For Piano No. 5.wav" WAVE TRACK 12 AUDIO TITLE "Etude For Piano No. 5" PERFORMER "Philip Glass" FLAGS DCP INDEX 01 00:00:00FILE "13 Etude For Piano No. 3.wav" WAVE TRACK 13 AUDIO TITLE "Etude For Piano No. 3" PERFORMER "Philip Glass" FLAGS DCP INDEX 01 00:00:00FILE "14 String Quartet No. 4 ('Buczak')- Movement I.wav" WAVE TRACK 14 AUDIO TITLE "String Quartet No. 4 ('Buczak'): Movement I" PERFORMER "Philip Glass" FLAGS DCP INDEX 01 00:00:00FILE "15 String Quartet No. 4 ('Buczak')- Movement II.wav" WAVE TRACK 15 AUDIO TITLE "String Quartet No. 4 ('Buczak'): Movement II" PERFORMER "Philip Glass" FLAGS DCP INDEX 01 00:00:00FILE "16 String Quartet No. 4 ('Buczak')- Movement III.wav" WAVE TRACK 16 AUDIO TITLE "String Quartet No. 4 ('Buczak'): Movement III" PERFORMER "Philip Glass" FLAGS DCP INDEX 01 00:00:00

Disc 8. From The Civil Wars, Hydrogen Jukebox, Symphony No. 5, and Akhnaten

The Civil Wars:
01. Act V, The Rome Section: Prologue [18:51]
American Composers Orchestra, Dennis Russell Davies: conductor; Denyce Graves: mezzo-soprano; Sondra Radvanovsky: soprano; Zheng Zhou: baritone.
Hydrogen Jukebox:
02. Song #3 From Iron Horse [2:54]
03. Song #2 Jahweh And Allah Battle [3:39]
04. Song #11 The Green Automobile [6:04]
05. Song #9 From Nagasaki Days (Numbers In Red Notebook) [0:40]
06. Song #10 Aunt Rose [4:58]
07. Song #6 From Wichta Vortex Sutra [7:48]
Martin Goldray: keyboards; Carol Wincenc: flute; Andrew Sterman: soprano sax, bass clarinet; Frank Cassara, James Pugliese: percussion; Elizabeth Futral: soprano; Michele Eaton: soprano; Mary Ann Hart: mezzo-soprano; Richard Fracker: tenor; Gregory Purnhagen, Nathiel Watson: baritone; Allen Ginsberg: narrator; Philip Glass: piano.
Symphony No. 5 ('Requiem, Bardo, Nirmanakaya'):
08. Suffering [5:03]
Akhnaten:
09. Act I, Scene 1: Funeral Of Amenhotep III [9:02]
10. Act I, Scene 3: The Window Of Appearances [4:24]
11. Act II, Scene 4: Epilogue [10:37]
Stuttgart State Opera Orchestra and Chorus, conducted by Dennis Russell Davies; Assistant Conductor: Anton Zapf; Chorus Master: Ulrich Eistert.
-
-

Лог создания рипа:

EAC extraction logfile from 16. March 2009, 20:32 for CDPhilip Glass / A Nonesuch Retrospective\Disc 8
Used drive : SONY DVD RW DRU-840A Adapter: 0 ID: 0Read mode : Secure with NO C2, accurate stream, disable cacheRead offset correction : 6Overread into Lead-In and Lead-Out : No
Used output format : C:\Program Files\FLAC\flac.exe (User Defined Encoder) 32 kBit/s Additional command line options : -V -8 -T "artist=%a" -T "title=%t" -T "album=%g" -T "date=%y" -T "tracknumber=%n" -T "genre=%m" %s
Other options : Fill up missing offset samples with silence : Yes Delete leading and trailing silent blocks : No Native Win32 interface for Win NT & 2000
Track 1 Filename Z:\EAC Rips\March 2009\Philip Glass - 2008 - Glass Box\Disc 08 - From The Civil Wars, Hydrogen Jukebox, Symphony No. 5, and Akhnaten\01 - Philip Glass - The Civil Wars- Act V, The Rome Section- Prologue - Philip Glass.wav
Pre-gap length 0:00:02.00
Peak level 99.9 % Track quality 100.0 % Test CRC 8DA4E883 Copy CRC 8DA4E883 Copy OK
Track 2 Filename Z:\EAC Rips\March 2009\Philip Glass - 2008 - Glass Box\Disc 08 - From The Civil Wars, Hydrogen Jukebox, Symphony No. 5, and Akhnaten\02 - Philip Glass - Hydrogen Jukebox- Song #3 From Iron Horse - Philip Glass.wav
Peak level 29.7 % Track quality 100.0 % Test CRC 019C37F6 Copy CRC 019C37F6 Copy OK
Track 3 Filename Z:\EAC Rips\March 2009\Philip Glass - 2008 - Glass Box\Disc 08 - From The Civil Wars, Hydrogen Jukebox, Symphony No. 5, and Akhnaten\03 - Philip Glass - Hydrogen Jukebox- Song #2 Jahweh And Allah Battle - Philip Glass.wav
Peak level 90.3 % Track quality 99.9 % Test CRC C0842961 Copy CRC C0842961 Copy OK
Track 4 Filename Z:\EAC Rips\March 2009\Philip Glass - 2008 - Glass Box\Disc 08 - From The Civil Wars, Hydrogen Jukebox, Symphony No. 5, and Akhnaten\04 - Philip Glass - Hydrogen Jukebox- Song #11 The Green Automobile - Philip Glass.wav
Peak level 85.5 % Track quality 100.0 % Test CRC 4C3FBCC6 Copy CRC 4C3FBCC6 Copy OK
Track 5 Filename Z:\EAC Rips\March 2009\Philip Glass - 2008 - Glass Box\Disc 08 - From The Civil Wars, Hydrogen Jukebox, Symphony No. 5, and Akhnaten\05 - Philip Glass - Hydrogen Jukebox- Song #9 From Nagasaki Days (Numbers In Red Notebook) - Philip Glass.wav
Peak level 14.8 % Track quality 100.0 % Test CRC AEB2BB33 Copy CRC AEB2BB33 Copy OK
Track 6 Filename Z:\EAC Rips\March 2009\Philip Glass - 2008 - Glass Box\Disc 08 - From The Civil Wars, Hydrogen Jukebox, Symphony No. 5, and Akhnaten\06 - Philip Glass - Hydrogen Jukebox- Song #10 Aunt Rose - Philip Glass.wav
Peak level 29.3 % Track quality 99.9 % Test CRC 09D5FCAC Copy CRC 09D5FCAC Copy OK
Track 7 Filename Z:\EAC Rips\March 2009\Philip Glass - 2008 - Glass Box\Disc 08 - From The Civil Wars, Hydrogen Jukebox, Symphony No. 5, and Akhnaten\07 - Philip Glass - Hydrogen Jukebox- Song #6 From Wichta Vortex Sutra - Philip Glass.wav
Peak level 65.8 % Track quality 99.9 % Test CRC 70BADA7D Copy CRC 70BADA7D Copy OK
Track 8 Filename Z:\EAC Rips\March 2009\Philip Glass - 2008 - Glass Box\Disc 08 - From The Civil Wars, Hydrogen Jukebox, Symphony No. 5, and Akhnaten\08 - Philip Glass - Symphony No. 5 ('Requiem, Bardo, Nirmanakaya')- Suffering - Philip Glass.wav
Peak level 94.0 % Track quality 100.0 % Test CRC E38C8597 Copy CRC E38C8597 Copy OK
Track 9 Filename Z:\EAC Rips\March 2009\Philip Glass - 2008 - Glass Box\Disc 08 - From The Civil Wars, Hydrogen Jukebox, Symphony No. 5, and Akhnaten\09 - Philip Glass - Akhnaten- Act I, Scene 1- Funeral Of Amenhotep Iii - Philip Glass.wav
Peak level 99.9 % Track quality 100.0 % Test CRC 45C38E50 Copy CRC 45C38E50 Copy OK
Track 10 Filename Z:\EAC Rips\March 2009\Philip Glass - 2008 - Glass Box\Disc 08 - From The Civil Wars, Hydrogen Jukebox, Symphony No. 5, and Akhnaten\10 - Philip Glass - Akhnaten- Act I, Scene 3- The Window Of Appearances - Philip Glass.wav
Pre-gap length 0:00:00.02
Peak level 91.6 % Track quality 99.9 % Test CRC FF65AF43 Copy CRC FF65AF43 Copy OK
Track 11 Filename Z:\EAC Rips\March 2009\Philip Glass - 2008 - Glass Box\Disc 08 - From The Civil Wars, Hydrogen Jukebox, Symphony No. 5, and Akhnaten\11 - Philip Glass - Akhnaten- Act Ii, Scene 4- Epilogue - Philip Glass.wav
Peak level 48.3 % Track quality 100.0 % Test CRC 914DF85A Copy CRC 914DF85A Copy OK
No errors occured
End of status report

Содержание индексной карты (.CUE):

REM DISCID AB11580BREM COMMENT "ExactAudioCopy v0.95b4"PERFORMER "Philip Glass"TITLE "From The Civil wars, Hydrogen Jukebox, Symphony No. 5, and Akhnaten"FILE "01 The Civil Wars- Act V, The Rome Section- Prologue.wav" WAVE TRACK 01 AUDIO TITLE "The Civil Wars: Act V, The Rome Section: Prologue" PERFORMER "Philip Glass" FLAGS DCP INDEX 01 00:00:00FILE "02 Hydrogen Jukebox- Song #3 From Iron Horse.wav" WAVE TRACK 02 AUDIO TITLE "Hydrogen Jukebox: Song #3 From Iron Horse" PERFORMER "Philip Glass" FLAGS DCP INDEX 01 00:00:00FILE "03 Hydrogen Jukebox- Song #2 Jahweh And Allah Battle.wav" WAVE TRACK 03 AUDIO TITLE "Hydrogen Jukebox: Song #2 Jahweh And Allah Battle" PERFORMER "Philip Glass" FLAGS DCP INDEX 01 00:00:00FILE "04 Hydrogen Jukebox- Song #11 The Green Automobile.wav" WAVE TRACK 04 AUDIO TITLE "Hydrogen Jukebox: Song #11 The Green Automobile" PERFORMER "Philip Glass" FLAGS DCP INDEX 01 00:00:00FILE "05 Hydrogen Jukebox- Song #9 From Nagasaki Days (Numbers In Red Notebook).wav" WAVE TRACK 05 AUDIO TITLE "Hydrogen Jukebox: Song #9 From Nagasaki Days (Numbers In Red Notebook)" PERFORMER "Philip Glass" FLAGS DCP INDEX 01 00:00:00FILE "06 Hydrogen Jukebox- Song #10 Aunt Rose.wav" WAVE TRACK 06 AUDIO TITLE "Hydrogen Jukebox: Song #10 Aunt Rose" PERFORMER "Philip Glass" FLAGS DCP INDEX 01 00:00:00FILE "07 Hydrogen Jukebox- Song #6 From Wichta Vortex Sutra.wav" WAVE TRACK 07 AUDIO TITLE "Hydrogen Jukebox: Song #6 From Wichta Vortex Sutra" PERFORMER "Philip Glass" FLAGS DCP INDEX 01 00:00:00FILE "08 Symphony No. 5 ('Requiem, Bardo, Nirmanakaya')- Suffering.wav" WAVE TRACK 08 AUDIO TITLE "Symphony No. 5 ('Requiem, Bardo, Nirmanakaya'): Suffering" PERFORMER "Philip Glass" FLAGS DCP INDEX 01 00:00:00FILE "09 Akhnaten- Act I, Scene 1- Funeral Of Amenhotep III.wav" WAVE TRACK 09 AUDIO TITLE "Akhnaten: Act I, Scene 1: Funeral Of Amenhotep III" PERFORMER "Philip Glass" FLAGS DCP INDEX 01 00:00:00 TRACK 10 AUDIO TITLE "Akhnaten: Act I, Scene 3: The Window Of Appearances" PERFORMER "Philip Glass" FLAGS DCP INDEX 00 09:02:05FILE "10 Akhnaten- Act I, Scene 3- The Window Of Appearances.wav" WAVE INDEX 01 00:00:00FILE "11 Akhnaten- Act Ii, Scene 4- Epilogue.wav" WAVE TRACK 11 AUDIO TITLE "Akhnaten: Act II, Scene 4: Epilogue" PERFORMER "Philip Glass" FLAGS DCP INDEX 01 00:00:00

Disc 9. Symphonies Nos. 3 & 8

Symphony No. 3:
01. Movement I [4:37]
02. Movement II [6:15]
03. Movement III [10:07]
04. Movement IV [3:29]
Stuttgart Chamber Orchestra, conducted by Dennis Russell Davies.
Symphony No. 8:
05. Movement I [19:27]
06. Movement II [12:18]
07. Movement III [6:57]
Bruckner Orchester Linz, conducted by Dennis Russell Davies.
-
-

Лог создания рипа:

EAC extraction logfile from 16. March 2009, 22:04 for CDPhilip Glass / A Nonesuch Retrospective\Disc 9
Used drive : SONY DVD RW DRU-840A Adapter: 0 ID: 0Read mode : Secure with NO C2, accurate stream, disable cacheRead offset correction : 6Overread into Lead-In and Lead-Out : No
Used output format : C:\Program Files\FLAC\flac.exe (User Defined Encoder) 32 kBit/s Additional command line options : -V -8 -T "artist=%a" -T "title=%t" -T "album=%g" -T "date=%y" -T "tracknumber=%n" -T "genre=%m" %s
Other options : Fill up missing offset samples with silence : Yes Delete leading and trailing silent blocks : No Native Win32 interface for Win NT & 2000
Track 1 Filename Z:\EAC Rips\March 2009\Philip Glass - 2008 - Glass Box\Disc 09 - Symphonies Nos. 3 & 8\01 - Philip Glass - Symphony No. 3- Movement I - Philip Glass.wav
Pre-gap length 0:00:02.00
Peak level 56.4 % Track quality 100.0 % Test CRC 524EE147 Copy CRC 524EE147 Copy OK
Track 2 Filename Z:\EAC Rips\March 2009\Philip Glass - 2008 - Glass Box\Disc 09 - Symphonies Nos. 3 & 8\02 - Philip Glass - Symphony No. 3- Movement Ii - Philip Glass.wav
Peak level 59.8 % Track quality 100.0 % Test CRC A752DFF4 Copy CRC A752DFF4 Copy OK
Track 3 Filename Z:\EAC Rips\March 2009\Philip Glass - 2008 - Glass Box\Disc 09 - Symphonies Nos. 3 & 8\03 - Philip Glass - Symphony No. 3- Movement Iii - Philip Glass.wav
Peak level 57.6 % Track quality 100.0 % Test CRC C9ED4550 Copy CRC C9ED4550 Copy OK
Track 4 Filename Z:\EAC Rips\March 2009\Philip Glass - 2008 - Glass Box\Disc 09 - Symphonies Nos. 3 & 8\04 - Philip Glass - Symphony No. 3- Movement Iv - Philip Glass.wav
Peak level 61.6 % Track quality 100.0 % Test CRC 5B38D199 Copy CRC 5B38D199 Copy OK
Track 5 Filename Z:\EAC Rips\March 2009\Philip Glass - 2008 - Glass Box\Disc 09 - Symphonies Nos. 3 & 8\05 - Philip Glass - Symphony No. 8- Movement I - Philip Glass.wav
Peak level 96.6 % Track quality 100.0 % Test CRC C74B15B8 Copy CRC C74B15B8 Copy OK
Track 6 Filename Z:\EAC Rips\March 2009\Philip Glass - 2008 - Glass Box\Disc 09 - Symphonies Nos. 3 & 8\06 - Philip Glass - Symphony No. 8- Movement Ii - Philip Glass.wav
Peak level 100.0 % Track quality 100.0 % Test CRC 65FE2D70 Copy CRC 65FE2D70 Copy OK
Track 7 Filename Z:\EAC Rips\March 2009\Philip Glass - 2008 - Glass Box\Disc 09 - Symphonies Nos. 3 & 8\07 - Philip Glass - Symphony No. 8- Movement Iii - Philip Glass.wav
Peak level 48.0 % Track quality 99.9 % Test CRC 78264AA6 Copy CRC 78264AA6 Copy OK
No errors occured
End of status report

Содержание индексной карты (.CUE):

REM DISCID 630ECE07REM COMMENT "ExactAudioCopy v0.95b4"PERFORMER "Philip Glass"TITLE "Symphonies Nos. 3 & 8"FILE "1 Symphony No. 3- Movement I.wav" WAVE TRACK 01 AUDIO TITLE "Symphony No. 3: Movement I" PERFORMER "Philip Glass" FLAGS DCP INDEX 01 00:00:00FILE "2 Symphony No. 3- Movement II.wav" WAVE TRACK 02 AUDIO TITLE "Symphony No. 3: Movement II" PERFORMER "Philip Glass" FLAGS DCP INDEX 01 00:00:00FILE "3 Symphony No. 3- Movement III.wav" WAVE TRACK 03 AUDIO TITLE "Symphony No. 3: Movement III" PERFORMER "Philip Glass" FLAGS DCP INDEX 01 00:00:00FILE "4 Symphony No. 3- Movement IV.wav" WAVE TRACK 04 AUDIO TITLE "Symphony No. 3: Movement IV" PERFORMER "Philip Glass" FLAGS DCP INDEX 01 00:00:00FILE "5 Symphony No. 8- Movement I.wav" WAVE TRACK 05 AUDIO TITLE "Symphony No. 8: Movement I" PERFORMER "Philip Glass" FLAGS DCP INDEX 01 00:00:00FILE "6 Symphony No. 8- Movement II.wav" WAVE TRACK 06 AUDIO TITLE "Symphony No. 8: Movement II" PERFORMER "Philip Glass" FLAGS DCP INDEX 01 00:00:00FILE "7 Symphony No. 8- Movement III.wav" WAVE TRACK 07 AUDIO TITLE "Symphony No. 8: Movement III" PERFORMER "Philip Glass" FLAGS DCP INDEX 01 00:00:00

Disc 10. Filmworks

Mishima:
01. Opening [2:46]
02. November 25: Morning [4:12]
03. Closing [3:00]
Kronos Quartet: David Harrington, violin; John Sherba, violin; Hank Dutt, viola; Joan Jeanrenaud, cello.
The Secret Agent:
04. The First Meridian [3:20]
05. Secret Agent [4:52]
The English Chamber Orchestra (Harry Rabinowitz, conductor) with additional soloists.
Kundun:
06. Sand Mandala [4:05]
07. Distraught [2:59]
08. Lhasa At Night [1:59]
09. Escape To India [10:08]
Dhondup Namgyal Khorko, Tibetan horns and cymbals; Gyuto Monks; Monks of the Drukpa Order; musicians.
Anima Mundi:
10. Living Waters [3:52]
11. The Witness [4:14]
Jeannie Gagné, Dora Ohrenstein: sopranos; Patricia Dunham, Linda November: altos; David Düsing, David Frye: tenors; Alexander Blachly, Bruce Rogers: baritones; musicians.
La Belle Et La Bete:
12. Overture [3:33]
The Philip Glass Ensemble, Michael Riesman: conductor, musical director, keyboards.
The Thin Blue Line:
13. Houston Skyline [4:47]
Michael Riesman: conductor, keyboards; musicians.
Dracula:
14. Dracula [1:11]
15. The Storm [1:32]
16. Dr. Van Helsing and Dracula [2:27]
Kronos Quartet: David Harrington, violin; John Sherba, violin; Hank Dutt, viola; Joan Jeanrenaud, cello.
The Fog of War:
17. The War to End All Wars [1:47]
Conducted by Michael Riesman.
Candyman:
18. It Was Always You, Helen [3:11]
Conducted by Michael Riesman.
The Truman Show:
19. Raising The Sail [2:16]
Conducted by Michael Riesman.
The Hours:
20. The Poet Acts [3:43]
Michael Riesman, piano; Chris Laurence, double bass; orchestra conducted by Nick Ingman; Lyric Quartet.
-
-

Лог создания рипа:

EAC extraction logfile from 16. March 2009, 22:28 for CDPhilip Glass / A Nonesuch Retrospective\Disc 10
Used drive : SONY DVD RW DRU-840A Adapter: 0 ID: 0Read mode : Secure with NO C2, accurate stream, disable cacheRead offset correction : 6Overread into Lead-In and Lead-Out : No
Used output format : C:\Program Files\FLAC\flac.exe (User Defined Encoder) 32 kBit/s Additional command line options : -V -8 -T "artist=%a" -T "title=%t" -T "album=%g" -T "date=%y" -T "tracknumber=%n" -T "genre=%m" %s
Other options : Fill up missing offset samples with silence : Yes Delete leading and trailing silent blocks : No Native Win32 interface for Win NT & 2000
Track 1 Filename Z:\EAC Rips\March 2009\Philip Glass - 2008 - Glass Box\Disc 10 - Filmworks\01 - Philip Glass - Mishima- Opening - Philip Glass.wav
Pre-gap length 0:00:02.00
Peak level 93.3 % Track quality 100.0 % Test CRC 241A0365 Copy CRC 241A0365 Copy OK
Track 2 Filename Z:\EAC Rips\March 2009\Philip Glass - 2008 - Glass Box\Disc 10 - Filmworks\02 - Philip Glass - Mishima- November 25- Morning - Philip Glass.wav
Peak level 75.6 % Track quality 99.9 % Test CRC F77A3717 Copy CRC F77A3717 Copy OK
Track 3 Filename Z:\EAC Rips\March 2009\Philip Glass - 2008 - Glass Box\Disc 10 - Filmworks\03 - Philip Glass - Mishima- Closing - Philip Glass.wav
Peak level 46.2 % Track quality 100.0 % Test CRC 17AA61AB Copy CRC 17AA61AB Copy OK
Track 4 Filename Z:\EAC Rips\March 2009\Philip Glass - 2008 - Glass Box\Disc 10 - Filmworks\04 - Philip Glass - The Secret Agent- The First Meridian - Philip Glass.wav
Peak level 39.4 % Track quality 100.0 % Test CRC 6D812503 Copy CRC 6D812503 Copy OK
Track 5 Filename Z:\EAC Rips\March 2009\Philip Glass - 2008 - Glass Box\Disc 10 - Filmworks\05 - Philip Glass - The Secret Agent- Secret Agent - Philip Glass.wav
Peak level 67.1 % Track quality 100.0 % Test CRC A6E84168 Copy CRC A6E84168 Copy OK
Track 6 Filename Z:\EAC Rips\March 2009\Philip Glass - 2008 - Glass Box\Disc 10 - Filmworks\06 - Philip Glass - Kundun- Sand Mandala - Philip Glass.wav
Peak level 45.5 % Track quality 100.0 % Test CRC 9CCB7596 Copy CRC 9CCB7596 Copy OK
Track 7 Filename Z:\EAC Rips\March 2009\Philip Glass - 2008 - Glass Box\Disc 10 - Filmworks\07 - Philip Glass - Kundun- Distraught - Philip Glass.wav
Peak level 39.0 % Track quality 100.0 % Test CRC BF3EC78D Copy CRC BF3EC78D Copy OK
Track 8 Filename Z:\EAC Rips\March 2009\Philip Glass - 2008 - Glass Box\Disc 10 - Filmworks\08 - Philip Glass - Kundun- Lhasa At Night - Philip Glass.wav
Peak level 36.5 % Track quality 100.0 % Test CRC 736D10D3 Copy CRC 736D10D3 Copy OK
Track 9 Filename Z:\EAC Rips\March 2009\Philip Glass - 2008 - Glass Box\Disc 10 - Filmworks\09 - Philip Glass - Kundun- Escape To India - Philip Glass.wav
Peak level 98.2 % Track quality 100.0 % Test CRC 800D0FD0 Copy CRC 800D0FD0 Copy OK
Track 10 Filename Z:\EAC Rips\March 2009\Philip Glass - 2008 - Glass Box\Disc 10 - Filmworks\10 - Philip Glass - Anima Mundi- Living Waters - Philip Glass.wav
Peak level 38.9 % Track quality 100.0 % Test CRC 83973110 Copy CRC 83973110 Copy OK
Track 11 Filename Z:\EAC Rips\March 2009\Philip Glass - 2008 - Glass Box\Disc 10 - Filmworks\11 - Philip Glass - Anima Mundi- The Witness - Philip Glass.wav
Peak level 44.9 % Track quality 99.9 % Test CRC 5EB438AE Copy CRC 5EB438AE Copy OK
Track 12 Filename Z:\EAC Rips\March 2009\Philip Glass - 2008 - Glass Box\Disc 10 - Filmworks\12 - Philip Glass - La Belle Et La Bete- Overture - Philip Glass.wav
Peak level 97.8 % Track quality 99.9 % Test CRC CF3D53CC Copy CRC CF3D53CC Copy OK
Track 13 Filename Z:\EAC Rips\March 2009\Philip Glass - 2008 - Glass Box\Disc 10 - Filmworks\13 - Philip Glass - The Thin Blue Line- Houston Skyline - Philip Glass.wav
Peak level 27.8 % Track quality 100.0 % Test CRC 85C599C6 Copy CRC 85C599C6 Copy OK
Track 14 Filename Z:\EAC Rips\March 2009\Philip Glass - 2008 - Glass Box\Disc 10 - Filmworks\14 - Philip Glass - Dracula- Dracula - Philip Glass.wav
Peak level 64.3 % Track quality 100.0 % Test CRC DB6221EB Copy CRC DB6221EB Copy OK
Track 15 Filename Z:\EAC Rips\March 2009\Philip Glass - 2008 - Glass Box\Disc 10 - Filmworks\15 - Philip Glass - Dracula- The Storm - Philip Glass.wav
Peak level 95.1 % Track quality 100.0 % Test CRC AABCF63A Copy CRC AABCF63A Copy OK
Track 16 Filename Z:\EAC Rips\March 2009\Philip Glass - 2008 - Glass Box\Disc 10 - Filmworks\16 - Philip Glass - Dracula- Dr. Van Helsing And Dracula - Philip Glass.wav
Peak level 68.6 % Track quality 100.0 % Test CRC 7DAD3212 Copy CRC 7DAD3212 Copy OK
Track 17 Filename Z:\EAC Rips\March 2009\Philip Glass - 2008 - Glass Box\Disc 10 - Filmworks\17 - Philip Glass - The Fog Of War- The War To End All Wars - Philip Glass.wav
Peak level 35.4 % Track quality 100.0 % Test CRC E049200E Copy CRC E049200E Copy OK
Track 18 Filename Z:\EAC Rips\March 2009\Philip Glass - 2008 - Glass Box\Disc 10 - Filmworks\18 - Philip Glass - Candyman- It Was Always You, Helen - Philip Glass.wav
Peak level 40.0 % Track quality 100.0 % Test CRC 604A2B31 Copy CRC 604A2B31 Copy OK
Track 19 Filename Z:\EAC Rips\March 2009\Philip Glass - 2008 - Glass Box\Disc 10 - Filmworks\19 - Philip Glass - The Truman Show- Raising The Sail - Philip Glass.wav
Peak level 53.8 % Track quality 99.9 % Test CRC DD46164A Copy CRC DD46164A Copy OK
Track 20 Filename Z:\EAC Rips\March 2009\Philip Glass - 2008 - Glass Box\Disc 10 - Filmworks\20 - Philip Glass - The Hours- The Poet Acts - Philip Glass.wav
Peak level 93.0 % Track quality 100.0 % Test CRC 3BE6B664 Copy CRC 3BE6B664 Copy OK
No errors occured
End of status report

Содержание индексной карты (.CUE):

REM DISCID 17106214REM COMMENT "ExactAudioCopy v0.95b4"PERFORMER "Philip Glass"TITLE "Filmworks"FILE "01 Mishima- Opening.wav" WAVE TRACK 01 AUDIO TITLE "Mishima: Opening" PERFORMER "Philip Glass" FLAGS DCP INDEX 01 00:00:00FILE "02 Mishima- November 25- Morning.wav" WAVE TRACK 02 AUDIO TITLE "Mishima: November 25: Morning" PERFORMER "Philip Glass" FLAGS DCP INDEX 01 00:00:00FILE "03 Mishima- Closing.wav" WAVE TRACK 03 AUDIO TITLE "Mishima: Closing" PERFORMER "Philip Glass" FLAGS DCP INDEX 01 00:00:00FILE "04 The Secret Agent- The First Meridian.wav" WAVE TRACK 04 AUDIO TITLE "The Secret Agent: The First Meridian" PERFORMER "Philip Glass" FLAGS DCP INDEX 01 00:00:00FILE "05 The Secret Agent- Secret Agent.wav" WAVE TRACK 05 AUDIO TITLE "The Secret Agent: Secret Agent" PERFORMER "Philip Glass" FLAGS DCP INDEX 01 00:00:00FILE "06 Kundun- Sand Mandala.wav" WAVE TRACK 06 AUDIO TITLE "Kundun: Sand Mandala" PERFORMER "Philip Glass" FLAGS DCP INDEX 01 00:00:00FILE "07 Kundun- Distraught.wav" WAVE TRACK 07 AUDIO TITLE "Kundun: Distraught" PERFORMER "Philip Glass" FLAGS DCP INDEX 01 00:00:00FILE "08 Kundun- Lhasa At Night.wav" WAVE TRACK 08 AUDIO TITLE "Kundun: Lhasa At Night" PERFORMER "Philip Glass" FLAGS DCP INDEX 01 00:00:00FILE "09 Kundun- Escape To India.wav" WAVE TRACK 09 AUDIO TITLE "Kundun: Escape To India" PERFORMER "Philip Glass" FLAGS DCP INDEX 01 00:00:00FILE "10 Anima Mundi- Living Waters.wav" WAVE TRACK 10 AUDIO TITLE "Anima Mundi: Living Waters" PERFORMER "Philip Glass" FLAGS DCP INDEX 01 00:00:00FILE "11 Anima Mundi- The Witness.wav" WAVE TRACK 11 AUDIO TITLE "Anima Mundi: The Witness" PERFORMER "Philip Glass" FLAGS DCP INDEX 01 00:00:00FILE "12 La Belle Et La Bete- Overture.wav" WAVE TRACK 12 AUDIO TITLE "La Belle Et La Bete: Overture" PERFORMER "Philip Glass" FLAGS DCP INDEX 01 00:00:00FILE "13 The Thin Blue Line- Houston Skyline.wav" WAVE TRACK 13 AUDIO TITLE "The Thin Blue Line: Houston Skyline" PERFORMER "Philip Glass" FLAGS DCP INDEX 01 00:00:00FILE "14 Dracula- Dracula.wav" WAVE TRACK 14 AUDIO TITLE "Dracula: Dracula" PERFORMER "Philip Glass" FLAGS DCP INDEX 01 00:00:00FILE "15 Dracula- The Storm.wav" WAVE TRACK 15 AUDIO TITLE "Dracula: The Storm" PERFORMER "Philip Glass" FLAGS DCP INDEX 01 00:00:00FILE "16 Dracula- Dr. Van Helsing And Dracula.wav" WAVE TRACK 16 AUDIO TITLE "Dracula: Dr. Van Helsing and Dracula" PERFORMER "Philip Glass" FLAGS DCP INDEX 01 00:00:00FILE "17 The Fog Of War- The War To End All Wars.wav" WAVE TRACK 17 AUDIO TITLE "The Fog of War: The War to End All Wars" PERFORMER "Philip Glass" FLAGS DCP INDEX 01 00:00:00FILE "18 Candyman- It Was Always You, Helen.wav" WAVE TRACK 18 AUDIO TITLE "Candyman: It Was Always You, Helen" PERFORMER "Philip Glass" FLAGS DCP INDEX 01 00:00:00FILE "19 The Truman Show- Raising The Sail.wav" WAVE TRACK 19 AUDIO TITLE "The Truman Show: Raising The Sail" PERFORMER "Philip Glass" FLAGS DCP INDEX 01 00:00:00FILE "20 The Hours- The Poet Acts.wav" WAVE TRACK 20 AUDIO TITLE "The Hours: The Poet Acts" PERFORMER "Philip Glass" FLAGS DCP INDEX 01 00:00:00
[teatrix.ru].t10038.torrent 
Торрент: Зарегистрирован [ 2015-10-25 20:37 ] · 5D81A8A976BBAA897CBF0F4F840818D4D58EEB25

Скачать .torrent

Скачать

46 KB

Статус: проверено
Скачан: 0 раз
Размер: 3.68 GB
terms.php



Быстрый ответ

Имя:

      
Для отправки сообщений необходимо включить JavaScript
Показать сообщения:    

Текущее время: 09-Дек 12:43

Часовой пояс: UTC + 3


Вы можете начинать темы
Вы можете отвечать на сообщения
Вы не можете редактировать свои сообщения
Вы не можете удалять свои сообщения
Вы не можете голосовать в опросах
Вы не можете прикреплять файлы к сообщениям
Вы можете скачивать файлы