(Classical/Avantgarde) Edgard Varese - The Complete Works: Ameriques, Poeme electronique, Arcana, Offrandes, Octandre, Ionisation, Deserts, etc. (Riccardo Chailly) - 1998, FLAC (image+.cue) lossless


Статистика раздачи [Обновить пиров]
Размер:  585 MB   |    Зарегистрирован:  1 год 1 месяц   |    Скачан:  0 раз

Полного источника не было: Никогда

 
   
 
 
 

[Цитировать]

Edgard Varèse - The Complete Works Жанр: Classical/Avantgarde
Страна-производитель диска: Germany
Год издания диска: 1998
Издатель (лейбл): Decca
Номер по каталогу: 460 208-2 DH2
Дата записи: 1992-1998
Аудиокодек: FLAC
Тип рипа: image+.cue
Битрейт аудио: lossless
Продолжительность: 2:30'31"
Источник: собственный рип
Наличие сканов в содержимом раздачи: только обложка-CD1:
1. Tuning Up
2. Ameriques (original version)
3. Poeme electronique
4. Arcana
5. Nocturnal
6. Un grand sommeil noir
Sarah Leonard, soprano (5)
Mireille Delunsch, soprano (6)
Men of Prague Philharmonic Choir (5)
Royal Concertgebouw Orchestra
Riccardo Chailly-CD2:
01. Un grand sommeil noir (original version)
Offrandes
02. I. Chanson de lа-haut
03. II. La Croix du Sud
04. Hyperprism
Octandre
05. I. Assez lent
06. II. Tres vif et nerveux
07. III. Grave - Anime et jubilatoire
08. Integrales
09. Ecuatorial
10. Ionisation
11. Density 21.5
Deserts
12. 1st Episode
13. 1st interpolation of organized sound
14. 2nd episode
15. 2nd interpolation
16. 3rd episode
17. 3rd interpolation
18. 4th episode
19. Dance for Burgess
Mireille Delunsch, soprano (1)
Francois Kerdoncuff, piano (1)
Sarah Leonard, soprano (2-3)
Kevin Deas, bass (9)
Jacques Zoon, flute (11)
ASKO Ensemble
Riccardo Chailly
-

Лог создания рипа - CD1

Exact Audio Copy V0.99 prebeta 5 from 4. May 2009
Отчёт EAC об извлечении, выполненном 21. декабря 2010, 22:16
Edgard Varese / The Complete Works (CD1)
Дисковод: Optiarc DVD RW AD-7203A Adapter: 4 ID: 1
Режим чтения : ДостоверностьИспользование точного потока : ДаОтключение кэша аудио : ДаИспользование указателей C2 : Нет
Коррекция смещения при чтении : 48Способность читать области Lead-in и Lead-out : НетЗаполнение пропущенных сэмплов тишиной : ДаУдаление блоков с тишиной в начале и конце : НетПри вычислениях CRC использовались нулевые сэмплы : ДаИнтерфейс : Встроенный Win32-интерфейс для Win NT/2000
Выходной формат : Пользовательский кодировщикВыбранный битрейт : 128 kBit/sКачество : ВысокийДобавление ID3-тэга : НетУтилита сжатия : C:\Program Files\FLAC\flac.exeДополнительные параметры : -5 -V %s
TOC извлечённого CD
Трек | Старт | Длительность | Начальный сектор | Конечный сектор --------------------------------------------------------------------- 1 | 0:00.00 | 5:06.59 | 0 | 23008 2 | 5:06.59 | 24:47.55 | 23009 | 134588 3 | 29:54.39 | 8:07.60 | 134589 | 171173 4 | 38:02.24 | 18:31.70 | 171174 | 254568 5 | 56:34.19 | 10:37.22 | 254569 | 302365 6 | 67:11.41 | 4:07.51 | 302366 | 320941
Характеристики диапазона извлечения и сообщения об ошибках
Выбранный диапазон
Имя файла D:\EAC\Edgard Varese - The Complete Works (CD1).wav
Пиковый уровень 100.0 % Качество диапазона 100.0 % CRC теста 6DB7991A CRC копии 6DB7991A Копирование... OK
Ошибок не произошло
AccurateRip: сводка
Трек 1 точность не определена (достоверность 9) [3548AB5B], AccurateRip вернул [17958C69]Трек 2 точность не определена (достоверность 9) [E8744034], AccurateRip вернул [0CA5250B]Трек 3 точность не определена (достоверность 9) [509CCC46], AccurateRip вернул [FE185008]Трек 4 точность не определена (достоверность 8) [C5074804], AccurateRip вернул [004CF6ED]Трек 5 точность не определена (достоверность 9) [9EF61C99], AccurateRip вернул [0DDFE168]Трек 6 точность не определена (достоверность 9) [71BA02F2], AccurateRip вернул [786E684C]
Ни один трек не прошёл проверки на точностьВ вашей базе может быть иной вариант штамповки диска
Конец отчёта
Ripped by GFox, Rutracker.org.

Лог создания рипа - CD2

Exact Audio Copy V0.99 prebeta 5 from 4. May 2009
Отчёт EAC об извлечении, выполненном 21. декабря 2010, 23:53
Edgard Varese / The Complete Works (CD2)
Дисковод: Optiarc DVD RW AD-7203A Adapter: 4 ID: 1
Режим чтения : ДостоверностьИспользование точного потока : ДаОтключение кэша аудио : ДаИспользование указателей C2 : Нет
Коррекция смещения при чтении : 48Способность читать области Lead-in и Lead-out : НетЗаполнение пропущенных сэмплов тишиной : ДаУдаление блоков с тишиной в начале и конце : НетПри вычислениях CRC использовались нулевые сэмплы : ДаИнтерфейс : Встроенный Win32-интерфейс для Win NT/2000
Выходной формат : Пользовательский кодировщикВыбранный битрейт : 128 kBit/sКачество : ВысокийДобавление ID3-тэга : НетУтилита сжатия : C:\Program Files\FLAC\flac.exeДополнительные параметры : -5 -V %s
TOC извлечённого CD
Трек | Старт | Длительность | Начальный сектор | Конечный сектор --------------------------------------------------------------------- 1 | 0:00.00 | 2:50.03 | 0 | 12752 2 | 2:50.03 | 3:11.62 | 12753 | 27139 3 | 6:01.65 | 3:42.64 | 27140 | 43853 4 | 9:44.54 | 4:28.11 | 43854 | 63964 5 | 14:12.65 | 2:33.61 | 63965 | 75500 6 | 16:46.51 | 1:46.09 | 75501 | 83459 7 | 18:32.60 | 2:26.36 | 83460 | 94445 8 | 20:59.21 | 10:25.16 | 94446 | 141336 9 | 31:24.37 | 11:33.46 | 141337 | 193357 10 | 42:58.08 | 5:51.54 | 193358 | 219736 11 | 48:49.62 | 4:12.09 | 219737 | 238645 12 | 53:01.71 | 3:11.68 | 238646 | 253038 13 | 56:13.64 | 2:26.13 | 253039 | 264001 14 | 58:40.02 | 7:33.63 | 264002 | 298039 15 | 66:13.65 | 3:13.36 | 298040 | 312550 16 | 69:27.26 | 1:36.63 | 312551 | 319813 17 | 71:04.14 | 3:09.06 | 319814 | 333994 18 | 74:13.20 | 3:10.56 | 333995 | 348300 19 | 77:24.01 | 1:47.64 | 348301 | 356389
Характеристики диапазона извлечения и сообщения об ошибках
Выбранный диапазон
Имя файла D:\EAC\Edgard Varese - The Complete Works (CD2).wav
Пиковый уровень 100.0 % Качество диапазона 100.0 % CRC теста BAF802E8 CRC копии BAF802E8 Копирование... OK
Ошибок не произошло
AccurateRip: сводка
Трек 1 точное извлечение (доверие 2) [2768DEE7]Трек 2 точное извлечение (доверие 2) [AAFD4490]Трек 3 точное извлечение (доверие 2) [9B624808]Трек 4 точное извлечение (доверие 2) [20E350A2]Трек 5 точное извлечение (доверие 2) [DB836A69]Трек 6 точное извлечение (доверие 2) [43BA17C8]Трек 7 точное извлечение (доверие 2) [8BBF81D4]Трек 8 точность не определена (достоверность 9) [12C01B29], AccurateRip вернул [A90B757D]Трек 9 точность не определена (достоверность 8) [45D14CF9], AccurateRip вернул [064FDFBF]Трек 10 точность не определена (достоверность 9) [ECD6E243], AccurateRip вернул [48CB88C4]Трек 11 точность не определена (достоверность 9) [04A2F683], AccurateRip вернул [979D79C1]Трек 12 точность не определена (достоверность 9) [F6473C84], AccurateRip вернул [3BD4F99E]Трек 13 точное извлечение (доверие 2) [3516CD4E]Трек 14 точное извлечение (доверие 2) [ADC6595A]Трек 15 точное извлечение (доверие 2) [3E8F1652]Трек 16 точность не определена (достоверность 9) [B94DA4F5], AccurateRip вернул [8FEFFF1F]Трек 17 точное извлечение (доверие 2) [70D96BE1]Трек 18 точное извлечение (доверие 2) [A97CC10E]Трек 19 точность не определена (достоверность 8) [6A26073E], AccurateRip вернул [DB6D2242]
12 трек(и) скопированы точно 7 трек(и) не удалось проверить на точность
Некоторые треки не прошли проверку на точность
Конец отчёта
Ripped by GFox, Rutracker.org.
-Доп. информация: Полное собрание сочинений одного из самых безумных бунтовщиков и смутьянов музыкальной жизни прошлого века включает в себя первые записи оригинальной версии Amériques, а также ранее неиздавашихся работ композитора. Записи сделаны при участии профессора Чоу Вэнь-чуна, всемирно известного специалиста по творчеству Вареза.-
-
-
[teatrix.ru].t10040.torrent 
Торрент: Зарегистрирован [ 2015-10-25 20:37 ] · 856DF33623F945E6A88A0B0D2DEAEA0013B18691

Скачать .torrent

Скачать

12 KB

Статус: проверено
Скачан: 0 раз
Размер: 585 MB
terms.php



Быстрый ответ

Имя:

      
Для отправки сообщений необходимо включить JavaScript
Показать сообщения:    

Текущее время: 04-Дек 02:53

Часовой пояс: UTC + 3


Вы можете начинать темы
Вы можете отвечать на сообщения
Вы не можете редактировать свои сообщения
Вы не можете удалять свои сообщения
Вы не можете голосовать в опросах
Вы не можете прикреплять файлы к сообщениям
Вы можете скачивать файлы