(Classical, cello, concerto) Mstislav Rostropovich Plays Cello Works (Мстислав Ростропович) - Bach, Dvorak, Handel, Jolivet, Landowski, Прокофьев, Шостакович, Чайковский, Vivaldi - 2008, FLAC (image+.cue) lossless


Статистика раздачи [Обновить пиров]
Размер:  2.24 GB   |    Зарегистрирован:  1 год 1 месяц   |    Скачан:  0 раз

Полного источника не было: Никогда

 
   
 
 
 

[Цитировать]

Mstislav Rostropovich Plays Cello Works (Мстислав Ростропович) - Bach, Dvorak, Handel, Jolivet, Landowski, Прокофьев, Шостакович, Чайковский, Vivaldi
Жанр: Classical, cello, concerto
Год издания диска: 2008
Издатель (лейбл): Warner Classics & Jazz
Дата записи: 1969-1995
Аудиокодек: FLAC
Тип рипа: image+.cue
Битрейт аудио: lossless
Продолжительность: 9:46:07
Источник: собственный рип
Наличие сканов в содержимом раздачи: да
Треклист:

CD1 Music for Cello & Organ

[1] Girolamo Frescobaldi (1583-1643) - Toccata
[2] Alessandro Marcello (1684-1750) - Adagio
[3]-[5] Johann Sebastian Bach (1685-1750) - Three Chorale Preludes
[6] G.F. Handel (1685-1759) - Aria
[7] Johann Sebastian Bachh - Adagio
[8]-[14] Louis de Caix d'Hervelois (c.1680-c.1755))- Altfranzösische Mädchenbilder
[15]-[17] Joseph Rheinberger (1839-1901) - Three Pieces from Op. 150
[18] Camille Saint-Saёns (1835-1921) - Prière, Op. 158
Herbert Tachezi organ

CD2 Vivaldi, Tartini, C.P.E.Bach

Antonio Vivaldi (1678-1741)
[1]-[3] Concerto in D minor, RV406
Giuseppe Tartini (1692-1770)
[4]-[7] Concerto in D major
Carl Philipp Emanuel Bach (1714-1788)
[8]-[10] Concerto No.2 in B flat major, Wq171/H436
Layton James harpsichord continuo
Peter Howard cello continuo
Christopher Brown double bass continuo
Saint Paul Chamber Orchestra / Hugh Wolff

CD3 Dvořák, Tchaikovsky

Antonin Dvorak (1841-1904)
[1]-[3] Cello Concerto in B minor, op.104
Pyotr Tchaikovsky (1840-1893)
[4] Variations on a Rococo theme, op.33
Boston Symphony Orchestra / Seiji Ozawa

CD4 Prokofiev, Halffter

Sergei Prokofiev (1891-1953)
[1]-[3] Symphony-Concerto in E minor, op.125
London Symphony Orchestra / Seiji Ozawa
Cristóbal Halffter (b.1930)
[4]-[6] Cello Concerto No.2, "No queda más que el silencio"
Orchestre National de France / Cristóbal Halffter

CD5 Jolivet, Shostakovich, Moret

André Jolivet (1905-1974)
[1]-[3] Cello Concerto No.2
Orchestre National de l'ORTF / André Jolivet
Dmitri Shostakovich (1906-1975)
[4]-[7] Cello Concerto No.1 in E flat major, op.107
London Symphony Orchestra / Seiji Ozawa
Norbert Moret (1921-1998)
[8]-[10] Cello Concerto
Collegium Musicum de Zurich / Paul Sacher

CD6 Milhaud, Hoddinott, Penderecki

Darius Milhaud (1892-1974)
[1]-[3] Cello Concerto No.1, op.136
Alun Hoddinott (b.1929)
[4]-[5] Noctis Equi, op.132
London Symphony Orchestra / Kent Nagano
Krzysztof Penderecki (b.1933)
[6] Cello Concerto No.2
Philharmonia Orchestra / Krzysztof Penderecki

CD7 Honegger, Gagneux, Shchedrin

Arthur Honegger (1892-1955)
[1]-[3] Cello Concerto
London Symphony Orchestra / Kent Nagano
Renaud Gagneux (b.1947)
[4]-[6] Triptyque
Rodion Shchedrin (b.1932)
[7]-[10] Sotto voce concerto
London Symphony Orchestra / Seiji Ozawa

CD8 Landowski

Marcel Landowski (1915-1999)
[1]-[3] Un enfant apelle
Galina Vishnevskaya soprano
Orchestre National de France / Mstislav Rostropovich
[4]-[6] La Prison
Galina Vishnevskaya soprano
Orchestre National de Lille / Marcel Landowski

CD9 Knaifel

Alexander Knaifel (b.1943)
[1]-[6] Chapter Eight
Washington National Cathedral Choristers
National Cathedral School Lower Chorus
Choral Arts Society of Washington
Norman Scribner
conductor
Исполнители:
Mstislav Rostropovich cello

Лог создания рипа

CD1 EAC log

Exact Audio Copy V0.99 prebeta 5 from 4. May 2009
EAC extraction logfile from 9. November 2010, 19:24
Mstislav Rostropovich, Herbert Tachezi / Rostropovich Plays Cello Works - CD1
Used drive : Optiarc DVD+-RW AD-5170S Adapter: 1 ID: 2
Read mode : Secure
Utilize accurate stream : Yes
Defeat audio cache : Yes
Make use of C2 pointers : No
Read offset correction : 48
Overread into Lead-In and Lead-Out : No
Fill up missing offset samples with silence : Yes
Delete leading and trailing silent blocks : No
Null samples used in CRC calculations : No
Used interface : Native Win32 interface for Win NT & 2000
Used output format : User Defined Encoder
Selected bitrate : 768 kBit/s
Quality : High
Add ID3 tag : No
Command line compressor : C:\Program Files\Exact Audio Copy\FLAC\FLAC.EXE
Additional command line options : -6 -V -T "ARTIST=%a" -T "TITLE=%t" -T "ALBUM=%g" -T "DATE=%y" -T "TRACKNUMBER=%n" -T "GENRE=%m" -T "COMMENT=%e" %s -o %d
TOC of the extracted CD
Track | Start | Length | Start sector | End sector
---------------------------------------------------------
1 | 0:00.00 | 4:47.65 | 0 | 21589
2 | 4:47.65 | 5:09.22 | 21590 | 44786
3 | 9:57.12 | 5:15.65 | 44787 | 68476
4 | 15:13.02 | 4:16.60 | 68477 | 87736
5 | 19:29.62 | 5:17.13 | 87737 | 111524
6 | 24:47.00 | 3:48.12 | 111525 | 128636
7 | 28:35.12 | 4:08.55 | 128637 | 147291
8 | 32:43.67 | 4:42.20 | 147292 | 168461
9 | 37:26.12 | 2:03.48 | 168462 | 177734
10 | 39:29.60 | 2:23.57 | 177735 | 188516
11 | 41:53.42 | 1:35.23 | 188517 | 195664
12 | 43:28.65 | 1:46.60 | 195665 | 203674
13 | 45:15.50 | 1:54.50 | 203675 | 212274
14 | 47:10.25 | 2:13.25 | 212275 | 222274
15 | 49:23.50 | 4:18.50 | 222275 | 241674
16 | 53:42.25 | 3:47.25 | 241675 | 258724
17 | 57:29.50 | 4:14.37 | 258725 | 277811
18 | 61:44.12 | 5:29.24 | 277812 | 302510
Range status and errors
Selected range
Filename D:\temp\pics\Rostropovich Plays Cello Works\Rostropovich Plays Cello Works - CD1.wav
Peak level 73.1 %
Range quality 100.0 %
Copy CRC 6B80F392
Copy OK
No errors occurred
End of status report

CD2 EAC log

Exact Audio Copy V0.99 prebeta 5 from 4. May 2009
EAC extraction logfile from 9. November 2010, 19:40
Mstislav Rostropovich & etc. / Rostropovich Plays Cello Works - CD2
Used drive : Optiarc DVD+-RW AD-5170S Adapter: 1 ID: 2
Read mode : Secure
Utilize accurate stream : Yes
Defeat audio cache : Yes
Make use of C2 pointers : No
Read offset correction : 48
Overread into Lead-In and Lead-Out : No
Fill up missing offset samples with silence : Yes
Delete leading and trailing silent blocks : No
Null samples used in CRC calculations : No
Used interface : Native Win32 interface for Win NT & 2000
Used output format : User Defined Encoder
Selected bitrate : 768 kBit/s
Quality : High
Add ID3 tag : No
Command line compressor : C:\Program Files\Exact Audio Copy\FLAC\FLAC.EXE
Additional command line options : -6 -V -T "ARTIST=%a" -T "TITLE=%t" -T "ALBUM=%g" -T "DATE=%y" -T "TRACKNUMBER=%n" -T "GENRE=%m" -T "COMMENT=%e" %s -o %d
TOC of the extracted CD
Track | Start | Length | Start sector | End sector
---------------------------------------------------------
1 | 0:00.00 | 3:10.67 | 0 | 14316
2 | 3:10.67 | 2:55.13 | 14317 | 27454
3 | 6:06.05 | 3:36.72 | 27455 | 43726
4 | 9:43.02 | 6:30.20 | 43727 | 72996
5 | 16:13.22 | 5:18.18 | 72997 | 96864
6 | 21:31.40 | 4:53.57 | 96865 | 118896
7 | 26:25.22 | 3:07.50 | 118897 | 132971
8 | 29:32.72 | 7:33.70 | 132972 | 167016
9 | 37:06.67 | 9:13.50 | 167017 | 208541
10 | 46:20.42 | 6:17.23 | 208542 | 236839
Range status and errors
Selected range
Filename D:\temp\pics\Rostropovich Plays Cello Works\Rostropovich Plays Cello Works - CD2.wav
Peak level 99.5 %
Range quality 100.0 %
Copy CRC AE898456
Copy OK
No errors occurred
End of status report

CD3 EAC log

Exact Audio Copy V0.99 prebeta 5 from 4. May 2009
EAC extraction logfile from 10. November 2010, 1:50
Mstislav Rostropovich, Boston Symphony Orchestra, Seiji Ozawa / Rostropovich Plays Cello Works - CD3
Used drive : HL-DT-STDVDRAM GSA-4083N Adapter: 1 ID: 0
Read mode : Secure
Utilize accurate stream : Yes
Defeat audio cache : Yes
Make use of C2 pointers : No
Read offset correction : 667
Overread into Lead-In and Lead-Out : No
Fill up missing offset samples with silence : Yes
Delete leading and trailing silent blocks : No
Null samples used in CRC calculations : No
Used interface : Native Win32 interface for Win NT & 2000
Used output format : User Defined Encoder
Selected bitrate : 768 kBit/s
Quality : High
Add ID3 tag : No
Command line compressor : C:\Program Files\Exact Audio Copy\FLAC\FLAC.EXE
Additional command line options : -6 -V -T "ARTIST=%a" -T "TITLE=%t" -T "ALBUM=%g" -T "DATE=%y" -T "TRACKNUMBER=%n" -T "GENRE=%m" -T "COMMENT=%e" %s -o %d
TOC of the extracted CD
Track | Start | Length | Start sector | End sector
---------------------------------------------------------
1 | 0:00.00 | 14:45.20 | 0 | 66394
2 | 14:45.20 | 11:49.58 | 66395 | 119627
3 | 26:35.03 | 12:24.70 | 119628 | 175497
4 | 38:59.73 | 17:32.72 | 175498 | 254469
Range status and errors
Selected range
Filename F:\Music\Rostropovich Plays Cello Works\Rostropovich Plays Cello Works - CD3.wav
Peak level 100.0 %
Range quality 100.0 %
Copy CRC D1EF5755
Copy OK
No errors occurred
End of status report

CD4 EAC log

Exact Audio Copy V0.99 prebeta 5 from 4. May 2009
EAC extraction logfile from 10. November 2010, 2:14
Mstislav Rostropovich / Rostropovich Plays Cello Works - CD4
Used drive : HL-DT-STDVDRAM GSA-4083N Adapter: 1 ID: 0
Read mode : Secure
Utilize accurate stream : Yes
Defeat audio cache : Yes
Make use of C2 pointers : No
Read offset correction : 667
Overread into Lead-In and Lead-Out : No
Fill up missing offset samples with silence : Yes
Delete leading and trailing silent blocks : No
Null samples used in CRC calculations : No
Used interface : Native Win32 interface for Win NT & 2000
Used output format : User Defined Encoder
Selected bitrate : 768 kBit/s
Quality : High
Add ID3 tag : No
Command line compressor : C:\Program Files\Exact Audio Copy\FLAC\FLAC.EXE
Additional command line options : -6 -V -T "ARTIST=%a" -T "TITLE=%t" -T "ALBUM=%g" -T "DATE=%y" -T "TRACKNUMBER=%n" -T "GENRE=%m" -T "COMMENT=%e" %s -o %d
TOC of the extracted CD
Track | Start | Length | Start sector | End sector
---------------------------------------------------------
1 | 0:00.00 | 10:18.26 | 0 | 46375
2 | 10:18.26 | 17:03.27 | 46376 | 123127
3 | 27:21.53 | 9:44.11 | 123128 | 166938
4 | 37:05.64 | 11:06.41 | 166939 | 216929
5 | 48:12.30 | 16:36.12 | 216930 | 291641
6 | 64:48.42 | 10:24.24 | 291642 | 338465
Range status and errors
Selected range
Filename F:\Music\Rostropovich Plays Cello Works\Rostropovich Plays Cello Works - CD4.wav
Peak level 100.0 %
Range quality 100.0 %
Copy CRC CD7B20A5
Copy OK
No errors occurred
End of status report

CD5 EAC log

Exact Audio Copy V0.99 prebeta 5 from 4. May 2009
EAC extraction logfile from 10. November 2010, 15:47
Mstislav Rostropovich & etc. / Rostropovich Plays Cello Works - CD5
Used drive : Optiarc DVD+-RW AD-5170S Adapter: 1 ID: 2
Read mode : Secure
Utilize accurate stream : Yes
Defeat audio cache : Yes
Make use of C2 pointers : No
Read offset correction : 48
Overread into Lead-In and Lead-Out : No
Fill up missing offset samples with silence : Yes
Delete leading and trailing silent blocks : No
Null samples used in CRC calculations : No
Used interface : Native Win32 interface for Win NT & 2000
Used output format : User Defined Encoder
Selected bitrate : 768 kBit/s
Quality : High
Add ID3 tag : No
Command line compressor : C:\Program Files\Exact Audio Copy\FLAC\FLAC.EXE
Additional command line options : -6 -V -T "ARTIST=%a" -T "TITLE=%t" -T "ALBUM=%g" -T "DATE=%y" -T "TRACKNUMBER=%n" -T "GENRE=%m" -T "COMMENT=%e" %s -o %d
TOC of the extracted CD
Track | Start | Length | Start sector | End sector
---------------------------------------------------------
1 | 0:00.00 | 15:39.60 | 0 | 70484
2 | 15:39.60 | 3:53.74 | 70485 | 88033
3 | 19:33.59 | 2:07.04 | 88034 | 97562
4 | 21:40.63 | 6:22.15 | 97563 | 126227
5 | 28:03.03 | 9:59.05 | 126228 | 171157
6 | 38:02.08 | 5:03.63 | 171158 | 193945
7 | 43:05.71 | 4:44.66 | 193946 | 215311
8 | 47:50.62 | 9:04.04 | 215312 | 256115
9 | 56:54.66 | 8:40.72 | 256116 | 295187
10 | 65:35.63 | 8:30.47 | 295188 | 333484
Range status and errors
Selected range
Filename D:\temp\pics\Rostropovich Plays Cello Works\Rostropovich Plays Cello Works - CD5.wav
Peak level 100.0 %
Range quality 100.0 %
Copy CRC F8556529
Copy OK
No errors occurred
End of status report

CD6 EAC log

Exact Audio Copy V0.99 prebeta 5 from 4. May 2009
EAC extraction logfile from 10. November 2010, 16:04
Mstislav Rostropovich & etc. / Rostropovich Plays Cello Works - CD6
Used drive : Optiarc DVD+-RW AD-5170S Adapter: 1 ID: 2
Read mode : Secure
Utilize accurate stream : Yes
Defeat audio cache : Yes
Make use of C2 pointers : No
Read offset correction : 48
Overread into Lead-In and Lead-Out : No
Fill up missing offset samples with silence : Yes
Delete leading and trailing silent blocks : No
Null samples used in CRC calculations : No
Used interface : Native Win32 interface for Win NT & 2000
Used output format : User Defined Encoder
Selected bitrate : 768 kBit/s
Quality : High
Add ID3 tag : No
Command line compressor : C:\Program Files\Exact Audio Copy\FLAC\FLAC.EXE
Additional command line options : -6 -V -T "ARTIST=%a" -T "TITLE=%t" -T "ALBUM=%g" -T "DATE=%y" -T "TRACKNUMBER=%n" -T "GENRE=%m" -T "COMMENT=%e" %s -o %d
TOC of the extracted CD
Track | Start | Length | Start sector | End sector
---------------------------------------------------------
1 | 0:00.00 | 5:15.00 | 0 | 23624
2 | 5:15.00 | 6:16.14 | 23625 | 51838
3 | 11:31.14 | 3:10.46 | 51839 | 66134
4 | 14:41.60 | 9:57.00 | 66135 | 110909
5 | 24:38.60 | 11:06.45 | 110910 | 160904
6 | 35:45.30 | 33:34.01 | 160905 | 311955
Range status and errors
Selected range
Filename D:\temp\pics\Rostropovich Plays Cello Works\Rostropovich Plays Cello Works - CD6.wav
Peak level 100.0 %
Range quality 99.9 %
Copy CRC 92642B91
Copy OK
No errors occurred
End of status report

CD7 EAC log

Exact Audio Copy V0.99 prebeta 5 from 4. May 2009
EAC extraction logfile from 10. November 2010, 16:24
Mstislav Rostropovich, London Symphony Orchestra, Kent Nagano & Seiji Ozawa / Rostropovich Plays Cello Works - CD7
Used drive : Optiarc DVD+-RW AD-5170S Adapter: 1 ID: 2
Read mode : Secure
Utilize accurate stream : Yes
Defeat audio cache : Yes
Make use of C2 pointers : No
Read offset correction : 48
Overread into Lead-In and Lead-Out : No
Fill up missing offset samples with silence : Yes
Delete leading and trailing silent blocks : No
Null samples used in CRC calculations : No
Used interface : Native Win32 interface for Win NT & 2000
Used output format : User Defined Encoder
Selected bitrate : 768 kBit/s
Quality : High
Add ID3 tag : No
Command line compressor : C:\Program Files\Exact Audio Copy\FLAC\FLAC.EXE
Additional command line options : -6 -V -T "ARTIST=%a" -T "TITLE=%t" -T "ALBUM=%g" -T "DATE=%y" -T "TRACKNUMBER=%n" -T "GENRE=%m" -T "COMMENT=%e" %s -o %d
TOC of the extracted CD
Track | Start | Length | Start sector | End sector
---------------------------------------------------------
1 | 0:00.00 | 5:52.43 | 0 | 26442
2 | 5:52.43 | 4:09.46 | 26443 | 45163
3 | 10:02.14 | 5:27.22 | 45164 | 69710
4 | 15:29.36 | 4:50.66 | 69711 | 91526
5 | 20:20.27 | 8:56.62 | 91527 | 131788
6 | 29:17.14 | 3:54.15 | 131789 | 149353
7 | 33:11.29 | 7:06.04 | 149354 | 181307
8 | 40:17.33 | 14:33.21 | 181308 | 246803
9 | 54:50.54 | 3:52.32 | 246804 | 264235
10 | 58:43.11 | 12:22.66 | 264236 | 319951
Range status and errors
Selected range
Filename D:\temp\pics\Rostropovich Plays Cello Works\Rostropovich Plays Cello Works - CD7.wav
Peak level 98.0 %
Range quality 99.9 %
Copy CRC 62E41AAD
Copy OK
No errors occurred
End of status report

CD8 EAC log

Exact Audio Copy V0.99 prebeta 5 from 4. May 2009
EAC extraction logfile from 10. November 2010, 16:40
Mstislav Rostropovich & etc. / Rostropovich Plays Cello Works - CD8
Used drive : Optiarc DVD+-RW AD-5170S Adapter: 1 ID: 2
Read mode : Secure
Utilize accurate stream : Yes
Defeat audio cache : Yes
Make use of C2 pointers : No
Read offset correction : 48
Overread into Lead-In and Lead-Out : No
Fill up missing offset samples with silence : Yes
Delete leading and trailing silent blocks : No
Null samples used in CRC calculations : No
Used interface : Native Win32 interface for Win NT & 2000
Used output format : User Defined Encoder
Selected bitrate : 768 kBit/s
Quality : High
Add ID3 tag : No
Command line compressor : C:\Program Files\Exact Audio Copy\FLAC\FLAC.EXE
Additional command line options : -6 -V -T "ARTIST=%a" -T "TITLE=%t" -T "ALBUM=%g" -T "DATE=%y" -T "TRACKNUMBER=%n" -T "GENRE=%m" -T "COMMENT=%e" %s -o %d
TOC of the extracted CD
Track | Start | Length | Start sector | End sector
---------------------------------------------------------
1 | 0:00.00 | 8:35.62 | 0 | 38686
2 | 8:35.62 | 6:10.60 | 38687 | 66496
3 | 14:46.47 | 8:51.05 | 66497 | 106326
4 | 23:37.52 | 9:05.10 | 106327 | 147211
5 | 32:42.62 | 12:40.58 | 147212 | 204269
6 | 45:23.45 | 14:18.52 | 204270 | 268671
Range status and errors
Selected range
Filename D:\temp\pics\Rostropovich Plays Cello Works\Rostropovich Plays Cello Works - CD8.wav
Peak level 99.3 %
Range quality 99.9 %
Copy CRC D06FFC86
Copy OK
No errors occurred
End of status report

CD9 EAC log

Exact Audio Copy V0.99 prebeta 5 from 4. May 2009
EAC extraction logfile from 10. November 2010, 17:02
Mstislav Rostropovich & etc. / Rostropovich Plays Cello Works - CD9
Used drive : Optiarc DVD+-RW AD-5170S Adapter: 1 ID: 2
Read mode : Secure
Utilize accurate stream : Yes
Defeat audio cache : Yes
Make use of C2 pointers : No
Read offset correction : 48
Overread into Lead-In and Lead-Out : No
Fill up missing offset samples with silence : Yes
Delete leading and trailing silent blocks : No
Null samples used in CRC calculations : No
Used interface : Native Win32 interface for Win NT & 2000
Used output format : User Defined Encoder
Selected bitrate : 768 kBit/s
Quality : High
Add ID3 tag : No
Command line compressor : C:\Program Files\Exact Audio Copy\FLAC\FLAC.EXE
Additional command line options : -6 -V -T "ARTIST=%a" -T "TITLE=%t" -T "ALBUM=%g" -T "DATE=%y" -T "TRACKNUMBER=%n" -T "GENRE=%m" -T "COMMENT=%e" %s -o %d
TOC of the extracted CD
Track | Start | Length | Start sector | End sector
---------------------------------------------------------
1 | 0:00.00 | 11:37.12 | 0 | 52286
2 | 11:37.12 | 11:21.63 | 52287 | 103424
3 | 22:59.00 | 8:25.12 | 103425 | 141311
4 | 31:24.12 | 10:53.05 | 141312 | 190291
5 | 42:17.17 | 10:52.45 | 190292 | 239236
6 | 53:09.62 | 6:45.46 | 239237 | 269657
Range status and errors
Selected range
Filename D:\temp\pics\Rostropovich Plays Cello Works\Rostropovich Plays Cello Works - CD9.wav
Peak level 25.7 %
Range quality 100.0 %
Copy CRC 5F9EF863
Copy OK
No errors occurred
End of status report
[teatrix.ru].t10041.torrent 
Торрент: Зарегистрирован [ 2015-10-25 20:37 ] · 5240F854F58308806E22EA061D568433C751D2D7

Скачать .torrent

Скачать

28 KB

Статус: проверено
Скачан: 0 раз
Размер: 2.24 GB
terms.php



Быстрый ответ

Имя:

      
Для отправки сообщений необходимо включить JavaScript
Показать сообщения:    

Текущее время: 06-Дек 17:11

Часовой пояс: UTC + 3


Вы можете начинать темы
Вы можете отвечать на сообщения
Вы не можете редактировать свои сообщения
Вы не можете удалять свои сообщения
Вы не можете голосовать в опросах
Вы не можете прикреплять файлы к сообщениям
Вы можете скачивать файлы