(Piano Solo / Concert / Vocal) Сергей Рахманинов / Rachmaninov - Симфония No.2, Фортепианный концерт No.2, Рапсодия на тему Паганини, "Всенощное бдение", Прелюдии Op.23, Пьесы Op.3 - 2004, Ape (Image + Cue) lossless [Quadromania]


Статистика раздачи [Обновить пиров]
Размер:  853 MB   |    Зарегистрирован:  1 год 1 месяц   |    Скачан:  0 раз

Полного источника не было: Никогда

 
   
 
 
 

[Цитировать]

Сергей Рахманинов
[Quadromania]

-
Жанр: Фортепианная, оркестровая, вокальная музыка, Концерт
Производитель диска: Membran International GmbH. Hamburg, Germany
По лицензии TIM Cz, Centurion Music Ltd., Classico Records
Год выпуска: 2004
Аудио кодек: APE
Тип рипа: image+.cue
Битрейт аудио: lossless
Продолжительность: 60:30 + 54:41 + 60:55 + 56:30
Приложение: pdf
Источник: Собственный рип
  • Симфония No.2 e-moll Op.27
    Royal Philharmonic Orchestra
    Vernon Handley
    recorded in 1994
  • Концерт для фортепиано с оркестром No.2 c-moll Op.18
    Cyril Smith (piano)
    Liverpool Philharmonic Orchestra
    Malcom Sargent
    recorded in June 1947
  • Рапсодия на тему Паганини Op.43
    Cyril Smith (piano)
    Philharmonia Orchestra
    Malcom Sargent
    recorded in October 1948
  • Пьесы-фантазии для фортепиано Op.3
Элегия
Прелюдия cis-moll
Мелодия
Полишинель
Серенада
  • 10 прелюдий для фортепиано Op.23
    Nrr. 2- 6
    Александр Ваулин (piano)
    recorded in 1997
  • "Всенощное бдение"
    для альта, тенора и хора
    Lotte Hovman (alto),
    Poul Emborg (tenor),
    Copenhagen Oratorio Choir, Torsten
    Mariegaard (conductor)
    recorded in 2000

Отчёт EAC - CD 1

Exact Audio Copy V0.99 prebeta 5 from 4. May 2009
Отчёт EAC об извлечении, выполненном 16. марта 2010, 20:55
Vernon Handley - Royal Philharmonic Orchestra / Rachmaninov - Symphony No.2
Дисковод: HL-DT-STDVD-RAM GSA-H22L Adapter: 2 ID: 0
Режим чтения : ДостоверностьИспользование точного потока : ДаОтключение кэша аудио : ДаИспользование указателей C2 : Нет
Коррекция смещения при чтении : 102Способность читать области Lead-in и Lead-out : ДаЗаполнение пропущенных сэмплов тишиной : ДаУдаление блоков с тишиной в начале и конце : НетПри вычислениях CRC использовались нулевые сэмплы : ДаИнтерфейс : Установленный внешний ASPI-интерфейс
Выходной формат : Внутренние WAV-операцииФормат сэмплов : 44.100 Гц; 16 бит; стерео
TOC извлечённого CD
Трек | Старт | Длительность | Начальный сектор | Конечный сектор --------------------------------------------------------------------- 1 | 0:00.00 | 21:21.29 | 0 | 96103 2 | 21:21.29 | 9:59.25 | 96104 | 141053 3 | 31:20.54 | 14:31.50 | 141054 | 206428 4 | 45:52.29 | 14:35.61 | 206429 | 272114
Характеристики диапазона извлечения и сообщения об ошибках
Выбранный диапазон
Имя файла D:\ProBit\1 No\Rachmaninov - Symphonie No.2, Piano Concerto No.2, Phapsody on a Th. of Paganini, Vespers, Preludes Op.23, Pieces Op.3\Rachmaninov - Symphony No.2.wav
Пиковый уровень 100.0 % Качество диапазона 100.0 % CRC теста 5972BDD8 CRC копии 5972BDD8 Копирование... OK
Ошибок не произошло
AccurateRip: сводка
Трек 1 точное извлечение (доверие 1) [1CF8D544]Трек 2 точное извлечение (доверие 1) [6C7F3B5A]Трек 3 точное извлечение (доверие 1) [8513BB92]Трек 4 точное извлечение (доверие 1) [4FFBAD9A]
Все треки извлечены точно
Конец отчёта

Отчёт EAC - CD 2

Exact Audio Copy V0.99 prebeta 5 from 4. May 2009
Отчёт EAC об извлечении, выполненном 16. марта 2010, 21:40
Cyril Smith - Piano; Malcolm Sargent - Liverpool Philharmonia Orchestra 1947, 48 / Rachmaninov - Piano Concerto No.2, Rhapsody on a Theme of Paganini
Дисковод: HL-DT-STDVD-RAM GSA-H22L Adapter: 2 ID: 0
Режим чтения : ДостоверностьИспользование точного потока : ДаОтключение кэша аудио : ДаИспользование указателей C2 : Нет
Коррекция смещения при чтении : 102Способность читать области Lead-in и Lead-out : ДаЗаполнение пропущенных сэмплов тишиной : ДаУдаление блоков с тишиной в начале и конце : НетПри вычислениях CRC использовались нулевые сэмплы : ДаИнтерфейс : Установленный внешний ASPI-интерфейс
Выходной формат : Внутренние WAV-операцииФормат сэмплов : 44.100 Гц; 16 бит; стерео
TOC извлечённого CD
Трек | Старт | Длительность | Начальный сектор | Конечный сектор --------------------------------------------------------------------- 1 | 0:00.00 | 9:28.03 | 0 | 42602 2 | 9:28.03 | 12:19.09 | 42603 | 98036 3 | 21:47.12 | 11:01.21 | 98037 | 147632 4 | 32:48.33 | 3:18.67 | 147633 | 162549 5 | 36:07.25 | 10:48.53 | 162550 | 211202 6 | 46:56.03 | 7:42.68 | 211203 | 245920
Характеристики диапазона извлечения и сообщения об ошибках
Выбранный диапазон
Имя файла D:\ProBit\1 No\Rachmaninov - Symphonie No.2, Piano Concerto No.2, Phapsody on a Th. of Paganini, Vespers, Preludes Op.23, Pieces Op.3\Rachmaninov - Piano Concerto No.2, Rhapsody on a Theme of Paganini.wav
Пиковый уровень 100.0 % Качество диапазона 100.0 % CRC теста 3C0CCFD4 CRC копии 3C0CCFD4 Копирование... OK
Ошибок не произошло
AccurateRip: сводка
Трек 1 нет в базе данныхТрек 2 нет в базе данныхТрек 3 нет в базе данныхТрек 4 нет в базе данныхТрек 5 нет в базе данныхТрек 6 нет в базе данных
Ни одного трека нет в базе AccurateRip
Конец отчёта

Отчёт EAC - CD 3

Exact Audio Copy V0.99 prebeta 5 from 4. May 2009
Отчёт EAC об извлечении, выполненном 16. марта 2010, 23:53
Alexander Vaulin - Piano / Rachmaninov - Fantasy Pieces for Piano Op.3, 10 Preludes for Piano Op.23
Дисковод: HL-DT-STDVD-RAM GSA-H22L Adapter: 2 ID: 0
Режим чтения : ДостоверностьИспользование точного потока : ДаОтключение кэша аудио : ДаИспользование указателей C2 : Нет
Коррекция смещения при чтении : 102Способность читать области Lead-in и Lead-out : ДаЗаполнение пропущенных сэмплов тишиной : ДаУдаление блоков с тишиной в начале и конце : НетПри вычислениях CRC использовались нулевые сэмплы : ДаИнтерфейс : Установленный внешний ASPI-интерфейс
Выходной формат : Внутренние WAV-операцииФормат сэмплов : 44.100 Гц; 16 бит; стерео
TOC извлечённого CD
Трек | Старт | Длительность | Начальный сектор | Конечный сектор --------------------------------------------------------------------- 1 | 0:00.00 | 6:32.33 | 0 | 29432 2 | 6:32.33 | 4:45.08 | 29433 | 50815 3 | 11:17.41 | 4:33.05 | 50816 | 71295 4 | 15:50.46 | 3:46.27 | 71296 | 88272 5 | 19:36.73 | 3:34.38 | 88273 | 104360 6 | 23:11.36 | 4:15.47 | 104361 | 123532 7 | 27:27.08 | 3:34.50 | 123533 | 139632 8 | 31:01.58 | 4:08.18 | 139633 | 158250 9 | 35:10.01 | 5:27.22 | 158251 | 182797 10 | 40:37.23 | 4:08.68 | 182798 | 201465 11 | 44:46.16 | 4:07.17 | 201466 | 220007 12 | 48:53.33 | 2:29.53 | 220008 | 231235 13 | 51:23.11 | 3:13.35 | 231236 | 245745 14 | 54:36.46 | 1:48.70 | 245746 | 253915 15 | 56:25.41 | 4:27.65 | 253916 | 274005
Характеристики диапазона извлечения и сообщения об ошибках
Выбранный диапазон
Имя файла D:\ProBit\1 No\Rachmaninov - Symphonie No.2, Piano Concerto No.2, Phapsody on a Th. of Paganini, Vespers, Preludes Op.23, Pieces Op.3\Rachmaninov - Fantasy Pieces for Piano Op.3, 10 Preludes for Piano Op.23.wav
Пиковый уровень 100.0 % Качество диапазона 100.0 % CRC теста E15EE0AB CRC копии E15EE0AB Копирование... OK
Ошибок не произошло
AccurateRip: сводка
Трек 1 нет в базе данныхТрек 2 нет в базе данныхТрек 3 нет в базе данныхТрек 4 нет в базе данныхТрек 5 нет в базе данныхТрек 6 нет в базе данныхТрек 7 нет в базе данныхТрек 8 нет в базе данныхТрек 9 нет в базе данныхТрек 10 нет в базе данныхТрек 11 нет в базе данныхТрек 12 нет в базе данныхТрек 13 нет в базе данныхТрек 14 нет в базе данныхТрек 15 нет в базе данных
Ни одного трека нет в базе AccurateRip
Конец отчёта

Отчёт EAC - CD 4

Exact Audio Copy V0.99 prebeta 5 from 4. May 2009
Отчёт EAC об извлечении, выполненном 17. марта 2010, 1:23
Torsten Mariegaard - Copenhagen Oratorio Choir; Lotte Hovman - alto, Poul Emborg - tenor / Rachmaninov - Vespers for Alto, Tenor & Chorus Op.37
Дисковод: HL-DT-STDVD-RAM GSA-H22L Adapter: 2 ID: 0
Режим чтения : ДостоверностьИспользование точного потока : ДаОтключение кэша аудио : ДаИспользование указателей C2 : Нет
Коррекция смещения при чтении : 102Способность читать области Lead-in и Lead-out : ДаЗаполнение пропущенных сэмплов тишиной : ДаУдаление блоков с тишиной в начале и конце : НетПри вычислениях CRC использовались нулевые сэмплы : ДаИнтерфейс : Установленный внешний ASPI-интерфейс
Выходной формат : Внутренние WAV-операцииФормат сэмплов : 44.100 Гц; 16 бит; стерео
TOC извлечённого CD
Трек | Старт | Длительность | Начальный сектор | Конечный сектор --------------------------------------------------------------------- 1 | 0:00.00 | 2:07.48 | 0 | 9572 2 | 2:07.48 | 5:27.35 | 9573 | 34132 3 | 7:35.08 | 4:51.03 | 34133 | 55960 4 | 12:26.11 | 2:48.06 | 55961 | 68566 5 | 15:14.17 | 3:20.54 | 68567 | 83620 6 | 18:34.71 | 2:49.21 | 83621 | 96316 7 | 21:24.17 | 2:40.48 | 96317 | 108364 8 | 24:04.65 | 2:14.12 | 108365 | 118426 9 | 26:19.02 | 5:34.54 | 118427 | 143530 10 | 31:53.56 | 3:09.43 | 143531 | 157748 11 | 35:03.24 | 6:44.13 | 157749 | 188061 12 | 41:47.37 | 7:31.28 | 188062 | 221914 13 | 49:18.65 | 1:52.72 | 221915 | 230386 14 | 51:11.62 | 3:17.63 | 230387 | 245224 15 | 54:29.50 | 1:58.49 | 245225 | 254123
Характеристики диапазона извлечения и сообщения об ошибках
Выбранный диапазон
Имя файла D:\ProBit\1 No\Rachmaninov - Symphonie No.2, Piano Concerto No.2, Phapsody on a Th. of Paganini, Vespers, Preludes Op.23, Pieces Op.3\Rachmaninov - Vespers for Alto, Tenor & Chorus Op.37.wav
Пиковый уровень 99.0 % Качество диапазона 100.0 % CRC теста 4B3C9D71 CRC копии 4B3C9D71 Копирование... OK
Ошибок не произошло
AccurateRip: сводка
Трек 1 нет в базе данныхТрек 2 нет в базе данныхТрек 3 нет в базе данныхТрек 4 нет в базе данныхТрек 5 нет в базе данныхТрек 6 нет в базе данныхТрек 7 нет в базе данныхТрек 8 нет в базе данныхТрек 9 нет в базе данныхТрек 10 нет в базе данныхТрек 11 нет в базе данныхТрек 12 нет в базе данныхТрек 13 нет в базе данныхТрек 14 нет в базе данныхТрек 15 нет в базе данных
Ни одного трека нет в базе AccurateRip
Конец отчёта
[teatrix.ru].t10043.torrent 
Торрент: Зарегистрирован [ 2015-10-25 20:37 ] · C9258CF2608E5ABBDC2EE9280AF34152B094649C

Скачать .torrent

Скачать

36 KB

Статус: проверено
Скачан: 0 раз
Размер: 853 MB
terms.php



Быстрый ответ

Имя:

      
Для отправки сообщений необходимо включить JavaScript
Показать сообщения:    

Текущее время: 10-Дек 23:31

Часовой пояс: UTC + 3


Вы можете начинать темы
Вы можете отвечать на сообщения
Вы не можете редактировать свои сообщения
Вы не можете удалять свои сообщения
Вы не можете голосовать в опросах
Вы не можете прикреплять файлы к сообщениям
Вы можете скачивать файлы