(Classical / String Quartet) Das Alban Berg Quartett - The Teldec Recordings (J.Haydn, W.A.Mozart, F.Schubert, J.Brahms, A.Dvorak, A.Berg, A.Webern, E.Urbanner) - 2008, APE (image+.cue) lossless


Статистика раздачи [Обновить пиров]
Размер:  2.21 GB   |    Зарегистрирован:  1 год 1 месяц   |    Скачан:  0 раз

Полного источника не было: Никогда

 
   
 
 
 

[Цитировать]

Das Alban Berg Quartett - The Teldec Recordings
Жанр: Classical / String Quartet
Год издания диска: 2008
Издатель (лейбл): Teldec Classics / Warner Classics & Jazz
Номер по каталогу: 2564 69606-7
Дата записи: 1974-1979
Аудиокодек: APE
Тип рипа: image+.cue
Битрейт аудио: lossless
Продолжительность: 74:20+79:03+60:13+72:02+77:29+60:37+73:08+77:01
Источник: собственный рип
Наличие сканов в содержимом раздачи: нет

Треклист

CD 1
Joseph Haydn
1-4. String Quartet in G minor, Op.74, No.3 "Rider"
5-8. String Quartet in C major, Op.76, No.3 "Emperor"
Wolfgang Amadeus Mozart
"Haydn" Quartets
9-12. String Quartet No.14 in G major, K.387 "Spring"
CD 2
1-4. String Quartet No.15 in D minor, K.421
5-8. String Quartet No.16 in E flat major, K.428
9-12. String Quartet No.17 in B flat major, K.458 "Hunt"
CD 3
1-4. String Quartet No.18 in A major, K.464
5-8. String Quartet No.19 in C major, K.465 "Dissonance"
CD 4
1-4. String Quartet No.20 in D major, K.499 "Hoffmeister"
"Prussian" Quartets
5-8. String Quartet No.21 in D major, K.575
9-12. String Quartet No.22 in B flat major, K.589
CD 5
1-4. String Quartet No.23 in F major, K.590
Franz Schubert
5-8. String Quartet in A minor, D.804 "Rosamunde"
9-12. String Quartet in G minor, D.173
CD 6
Johannes Brahms
1-4. String Quartet No.1 in C minor, Op.51, No.1
5-8. String Quartet No.2 in A minor, Op.51, No.2
CD 7
1-4. String Quartet No.3 in B flat major, Op.67
Antonin Dvorak
5-8. String Quartet in G major, Op.106
CD 8
Alban Berg
1-2. String Quartet, Op.3
3-8. Lyric Suite
Anton Webern
9-13. Five movements, Op.5
14. Six Bagatelles, Op.9
15-17. String Quartet, Op.28
Erich Urbanner
18. String Quartet No.3
Исполнители:
Das Alban Berg Quartett
Gunter Pichler, violin I
Klaus Maetzl, violin II
Gerhard Schulz, violin II (CD 2, 5-12)
Hatto Beyerle, viola
Valentin Erben, cello

Лог создания рипа

Exact Audio Copy V0.99 prebeta 4 from 23. January 2008
Звіт EAC про видобування, котре виконане 4. вересня 2010, 15:24
Alban Berg Quartett / The Teldec Recordings - I
Дисковод: _NEC DVD_RW ND-4570A Adapter: 5 ID: 0
Режим читання : Точний
Використати точний потік : Так
Вимкнути аудіо кеш : Так
Застосувати мітки C2 : Ні
Корекція зміщення при читанні : 48
Екстрачитання областей Lead-in і Lead-out : Ні
Заповнення пропущених семплів тишею : Так
Видалення блоків з тишею на початку і кінці : Ні
При вирахуванні CRC використовувались нульові семпли : Так
Використаний інтерфейс : Встановлений зовнішній ASPI-інтерфейс
Застосований вихідний формат : Внутрішні WAV-операції
Формат семпла : 44.100 Гц; 16 біт; стерео
TOC видобутого CD
Трек | Старт | Довжина | Початковий сектор | Кінцевий сектор
------------------------------------------------------------------
1 | 0:00.00 | 5:03.65 | 0 | 22789
2 | 5:03.65 | 6:19.53 | 22790 | 51267
3 | 11:23.43 | 3:26.51 | 51268 | 66768
4 | 14:50.19 | 5:49.35 | 66769 | 92978
5 | 20:39.54 | 6:49.17 | 92979 | 123670
6 | 27:28.71 | 7:35.53 | 123671 | 157848
7 | 35:04.49 | 4:15.67 | 157849 | 177040
8 | 39:20.41 | 5:36.61 | 177041 | 202301
9 | 44:57.27 | 7:33.27 | 202302 | 236303
10 | 52:30.54 | 8:26.14 | 236304 | 274267
11 | 60:56.68 | 7:30.36 | 274268 | 308053
12 | 68:27.29 | 5:50.46 | 308054 | 334349
Статус діапазону і помилки
Обраний діапазон
Ім'я файлу D:\Documents and Settings\Admin\Рабочий стол\ABQ - The Teldec Recordings\CD - I\Alban Berg Quartett - The Teldec Recordings - I.wav
Піковий рівень 98.7 %
Якість діапазону 100.0 %
CRC тесту FF2733EC
CRC копії FF2733EC
Копіювання... OK
Помилки не траплялися
Звіт Точного Видобування
Трек 1 точно видобуто (впевненість 2) [A62E7CB1]
Трек 2 точно видобуто (впевненість 2) [967904B0]
Трек 3 точно видобуто (впевненість 2) [85D8893A]
Трек 4 точно видобуто (впевненість 2) [D60B1852]
Трек 5 точно видобуто (впевненість 2) [88D4ABC3]
Трек 6 точно видобуто (впевненість 2) [E0252BEB]
Трек 7 точно видобуто (впевненість 2) [3D2D6F2E]
Трек 8 точно видобуто (впевненість 2) [BCC9F029]
Трек 9 точно видобуто (впевненість 2) [D2DC53A9]
Трек 10 точно видобуто (впевненість 2) [E3E5EC9C]
Трек 11 точно видобуто (впевненість 2) [7280D2B1]
Трек 12 точно видобуто (впевненість 2) [FB4CAB20]
Всі треки видобуті точно
Кінець звіту
Exact Audio Copy V0.99 prebeta 4 from 23. January 2008
Звіт EAC про видобування, котре виконане 4. вересня 2010, 16:29
Alban Berg Quartett / The Teldec Recordings - II
Дисковод: _NEC DVD_RW ND-4570A Adapter: 5 ID: 0
Режим читання : Точний
Використати точний потік : Так
Вимкнути аудіо кеш : Так
Застосувати мітки C2 : Ні
Корекція зміщення при читанні : 48
Екстрачитання областей Lead-in і Lead-out : Ні
Заповнення пропущених семплів тишею : Так
Видалення блоків з тишею на початку і кінці : Ні
При вирахуванні CRC використовувались нульові семпли : Так
Використаний інтерфейс : Встановлений зовнішній ASPI-інтерфейс
Застосований вихідний формат : Внутрішні WAV-операції
Формат семпла : 44.100 Гц; 16 біт; стерео
TOC видобутого CD
Трек | Старт | Довжина | Початковий сектор | Кінцевий сектор
------------------------------------------------------------------
1 | 0:00.00 | 7:16.37 | 0 | 32736
2 | 7:16.37 | 5:33.09 | 32737 | 57720
3 | 12:49.46 | 4:19.03 | 57721 | 77148
4 | 17:08.49 | 8:53.68 | 77149 | 117191
5 | 26:02.42 | 7:26.35 | 117192 | 150676
6 | 33:29.02 | 6:10.21 | 150677 | 178447
7 | 39:39.23 | 6:15.24 | 178448 | 206596
8 | 45:54.47 | 5:36.38 | 206597 | 231834
9 | 51:31.10 | 8:28.45 | 231835 | 269979
10 | 59:59.55 | 4:41.24 | 269980 | 291078
11 | 64:41.04 | 7:55.07 | 291079 | 326710
12 | 72:36.11 | 6:24.64 | 326711 | 355574
Статус діапазону і помилки
Обраний діапазон
Ім'я файлу D:\Documents and Settings\Admin\Рабочий стол\ABQ - The Teldec Recordings\CD - II\Alban Berg Quartett - The Teldec Recordings - II.wav
Піковий рівень 97.7 %
Якість діапазону 100.0 %
CRC тесту 2653DD61
CRC копії 2653DD61
Копіювання... OK
Помилки не траплялися
Звіт Точного Видобування
Трек 1 точно видобуто (впевненість 2) [1DA7D24A]
Трек 2 точно видобуто (впевненість 2) [D67100F6]
Трек 3 точно видобуто (впевненість 2) [732072C7]
Трек 4 точно видобуто (впевненість 2) [F6006E70]
Трек 5 точно видобуто (впевненість 2) [E29959F5]
Трек 6 точно видобуто (впевненість 2) [FD8A5E17]
Трек 7 точно видобуто (впевненість 2) [2CCFB204]
Трек 8 точно видобуто (впевненість 2) [4B5121FA]
Трек 9 точно видобуто (впевненість 2) [3E7DE8E2]
Трек 10 точно видобуто (впевненість 2) [DCFA9AB4]
Трек 11 точно видобуто (впевненість 2) [5F838DFD]
Трек 12 точно видобуто (впевненість 2) [6E3E7027]
Всі треки видобуті точно
Кінець звіту
Exact Audio Copy V0.99 prebeta 4 from 23. January 2008
Звіт EAC про видобування, котре виконане 4. вересня 2010, 16:58
Alban Berg Quartett / The Teldec Recordings - III
Дисковод: _NEC DVD_RW ND-4570A Adapter: 5 ID: 0
Режим читання : Точний
Використати точний потік : Так
Вимкнути аудіо кеш : Так
Застосувати мітки C2 : Ні
Корекція зміщення при читанні : 48
Екстрачитання областей Lead-in і Lead-out : Ні
Заповнення пропущених семплів тишею : Так
Видалення блоків з тишею на початку і кінці : Ні
При вирахуванні CRC використовувались нульові семпли : Так
Використаний інтерфейс : Встановлений зовнішній ASPI-інтерфейс
Застосований вихідний формат : Внутрішні WAV-операції
Формат семпла : 44.100 Гц; 16 біт; стерео
TOC видобутого CD
Трек | Старт | Довжина | Початковий сектор | Кінцевий сектор
------------------------------------------------------------------
1 | 0:00.00 | 6:21.02 | 0 | 28576
2 | 6:21.02 | 5:57.60 | 28577 | 55411
3 | 12:18.62 | 11:50.05 | 55412 | 108666
4 | 24:08.67 | 6:18.58 | 108667 | 137074
5 | 30:27.50 | 10:57.20 | 137075 | 186369
6 | 41:24.70 | 7:47.02 | 186370 | 221396
7 | 49:11.72 | 4:59.40 | 221397 | 243861
8 | 54:11.37 | 5:59.25 | 243862 | 270811
Статус діапазону і помилки
Обраний діапазон
Ім'я файлу D:\Documents and Settings\Admin\Рабочий стол\ABQ - The Teldec Recordings\CD - III\Alban Berg Quartett - The Teldec Recordings - III.wav
Піковий рівень 95.6 %
Якість діапазону 100.0 %
CRC тесту 4B21AD3B
CRC копії 4B21AD3B
Копіювання... OK
Помилки не траплялися
Звіт Точного Видобування
Трек 1 точно видобуто (впевненість 2) [C01A85EA]
Трек 2 точно видобуто (впевненість 2) [1DE9B1E0]
Трек 3 точно видобуто (впевненість 2) [699FFC53]
Трек 4 точно видобуто (впевненість 2) [EB195461]
Трек 5 точно видобуто (впевненість 2) [B1CE4B65]
Трек 6 точно видобуто (впевненість 2) [3EDA36E8]
Трек 7 точно видобуто (впевненість 2) [95392195]
Трек 8 точно видобуто (впевненість 2) [E127764A]
Всі треки видобуті точно
Кінець звіту
Exact Audio Copy V0.99 prebeta 4 from 23. January 2008
Звіт EAC про видобування, котре виконане 4. вересня 2010, 17:59
Alban Berg Quartett / The Teldec Recordings - IV
Дисковод: _NEC DVD_RW ND-4570A Adapter: 5 ID: 0
Режим читання : Точний
Використати точний потік : Так
Вимкнути аудіо кеш : Так
Застосувати мітки C2 : Ні
Корекція зміщення при читанні : 48
Екстрачитання областей Lead-in і Lead-out : Ні
Заповнення пропущених семплів тишею : Так
Видалення блоків з тишею на початку і кінці : Ні
При вирахуванні CRC використовувались нульові семпли : Так
Використаний інтерфейс : Встановлений зовнішній ASPI-інтерфейс
Застосований вихідний формат : Внутрішні WAV-операції
Формат семпла : 44.100 Гц; 16 біт; стерео
TOC видобутого CD
Трек | Старт | Довжина | Початковий сектор | Кінцевий сектор
------------------------------------------------------------------
1 | 0:00.00 | 7:08.50 | 0 | 32149
2 | 7:08.50 | 3:00.14 | 32150 | 45663
3 | 10:08.64 | 8:19.55 | 45664 | 83143
4 | 18:28.44 | 5:11.33 | 83144 | 106501
5 | 23:40.02 | 7:19.19 | 106502 | 139445
6 | 30:59.21 | 4:30.21 | 139446 | 159716
7 | 35:29.42 | 5:46.54 | 159717 | 185720
8 | 41:16.21 | 6:05.63 | 185721 | 213158
9 | 47:22.09 | 6:46.38 | 213159 | 243646
10 | 54:08.47 | 7:31.03 | 243647 | 277474
11 | 61:39.50 | 6:26.15 | 277475 | 306439
12 | 68:05.65 | 3:54.10 | 306440 | 323999
Статус діапазону і помилки
Обраний діапазон
Ім'я файлу O:\ABQ - The Teldec Recordings\CD - IV\Alban Berg Quartett - The Teldec Recordings - IV.wav
Піковий рівень 87.7 %
Якість діапазону 100.0 %
CRC тесту F4BD4321
CRC копії F4BD4321
Копіювання... OK
Помилки не траплялися
Звіт Точного Видобування
Трек 1 точно видобуто (впевненість 2) [50C63D64]
Трек 2 точно видобуто (впевненість 2) [DF51D6BE]
Трек 3 точно видобуто (впевненість 2) [E42B8556]
Трек 4 точно видобуто (впевненість 2) [3CE7C0AF]
Трек 5 точно видобуто (впевненість 2) [401CCD51]
Трек 6 точно видобуто (впевненість 2) [443A9E99]
Трек 7 точно видобуто (впевненість 2) [90B67DB8]
Трек 8 точно видобуто (впевненість 2) [4862C9F8]
Трек 9 точно видобуто (впевненість 2) [BC457CC2]
Трек 10 точно видобуто (впевненість 2) [BE8281A3]
Трек 11 точно видобуто (впевненість 2) [DC8280E2]
Трек 12 точно видобуто (впевненість 2) [53B02BF1]
Всі треки видобуті точно
Кінець звіту
Exact Audio Copy V0.99 prebeta 4 from 23. January 2008
Звіт EAC про видобування, котре виконане 4. вересня 2010, 18:30
Alban Berg Quartett / The Teldec Recordings - V
Дисковод: _NEC DVD_RW ND-4570A Adapter: 5 ID: 0
Режим читання : Точний
Використати точний потік : Так
Вимкнути аудіо кеш : Так
Застосувати мітки C2 : Ні
Корекція зміщення при читанні : 48
Екстрачитання областей Lead-in і Lead-out : Ні
Заповнення пропущених семплів тишею : Так
Видалення блоків з тишею на початку і кінці : Ні
При вирахуванні CRC використовувались нульові семпли : Так
Використаний інтерфейс : Встановлений зовнішній ASPI-інтерфейс
Застосований вихідний формат : Внутрішні WAV-операції
Формат семпла : 44.100 Гц; 16 біт; стерео
TOC видобутого CD
Трек | Старт | Довжина | Початковий сектор | Кінцевий сектор
------------------------------------------------------------------
1 | 0:00.00 | 9:00.33 | 0 | 40532
2 | 9:00.33 | 7:02.67 | 40533 | 72249
3 | 16:03.25 | 3:52.74 | 72250 | 89723
4 | 19:56.24 | 5:10.13 | 89724 | 112986
5 | 25:06.37 | 8:59.37 | 112987 | 153448
6 | 34:05.74 | 7:05.64 | 153449 | 185387
7 | 41:11.63 | 7:32.20 | 185388 | 219307
8 | 48:44.08 | 7:27.23 | 219308 | 252855
9 | 56:11.31 | 6:11.27 | 252856 | 280707
10 | 62:22.58 | 5:58.56 | 280708 | 307613
11 | 68:21.39 | 3:24.64 | 307614 | 322977
12 | 71:46.28 | 5:40.47 | 322978 | 348524
Статус діапазону і помилки
Обраний діапазон
Ім'я файлу O:\ABQ - The Teldec Recordings\CD - V\Alban Berg Quartett - The Teldec Recordings - V.wav
Піковий рівень 97.9 %
Якість діапазону 100.0 %
CRC тесту 353B231D
CRC копії 353B231D
Копіювання... OK
Помилки не траплялися
Звіт Точного Видобування
Трек 1 точно видобуто (впевненість 2) [67A41F58]
Трек 2 точно видобуто (впевненість 2) [E1E71495]
Трек 3 точно видобуто (впевненість 2) [0894AB9E]
Трек 4 точно видобуто (впевненість 2) [745A4BEC]
Трек 5 точно видобуто (впевненість 2) [86C4506E]
Трек 6 точно видобуто (впевненість 2) [C3F4F85A]
Трек 7 точно видобуто (впевненість 2) [61E623CF]
Трек 8 точно видобуто (впевненість 2) [A877D8CD]
Трек 9 точно видобуто (впевненість 2) [6D6C48A1]
Трек 10 точно видобуто (впевненість 2) [0FACD073]
Трек 11 точно видобуто (впевненість 2) [C3AA5066]
Трек 12 точно видобуто (впевненість 2) [B2825F28]
Всі треки видобуті точно
Кінець звіту
Exact Audio Copy V0.99 prebeta 4 from 23. January 2008
Звіт EAC про видобування, котре виконане 4. вересня 2010, 19:01
Alban Berg Quartett / The Teldec Recordings - VI
Дисковод: _NEC DVD_RW ND-4570A Adapter: 5 ID: 0
Режим читання : Точний
Використати точний потік : Так
Вимкнути аудіо кеш : Так
Застосувати мітки C2 : Ні
Корекція зміщення при читанні : 48
Екстрачитання областей Lead-in і Lead-out : Ні
Заповнення пропущених семплів тишею : Так
Видалення блоків з тишею на початку і кінці : Ні
При вирахуванні CRC використовувались нульові семпли : Так
Використаний інтерфейс : Встановлений зовнішній ASPI-інтерфейс
Застосований вихідний формат : Внутрішні WAV-операції
Формат семпла : 44.100 Гц; 16 біт; стерео
TOC видобутого CD
Трек | Старт | Довжина | Початковий сектор | Кінцевий сектор
------------------------------------------------------------------
1 | 0:00.00 | 8:07.12 | 0 | 36536
2 | 8:07.12 | 7:11.45 | 36537 | 68906
3 | 15:18.57 | 8:59.68 | 68907 | 109399
4 | 24:18.50 | 6:06.12 | 109400 | 136861
5 | 30:24.62 | 8:36.23 | 136862 | 175584
6 | 39:01.10 | 9:47.45 | 175585 | 219654
7 | 48:48.55 | 4:53.72 | 219655 | 241701
8 | 53:42.52 | 6:51.65 | 241702 | 272591
Статус діапазону і помилки
Обраний діапазон
Ім'я файлу O:\ABQ - The Teldec Recordings\CD - VI\Alban Berg Quartett - The Teldec Recordings - VI.wav
Піковий рівень 97.8 %
Якість діапазону 100.0 %
CRC тесту 7F7A24C0
CRC копії 7F7A24C0
Копіювання... OK
Помилки не траплялися
Звіт Точного Видобування
Трек 1 точно видобуто (впевненість 2) [1E3A50F3]
Трек 2 точно видобуто (впевненість 2) [75A4B952]
Трек 3 точно видобуто (впевненість 2) [6D662796]
Трек 4 точно видобуто (впевненість 2) [8BA83C53]
Трек 5 точно видобуто (впевненість 2) [911F2DB3]
Трек 6 точно видобуто (впевненість 2) [0ED9A16C]
Трек 7 точно видобуто (впевненість 2) [1737BF83]
Трек 8 точно видобуто (впевненість 2) [216739C6]
Всі треки видобуті точно
Кінець звіту
Exact Audio Copy V0.99 prebeta 4 from 23. January 2008
Звіт EAC про видобування, котре виконане 4. вересня 2010, 20:11
Alban Berg Quartett / The Teldec Recordings - VII
Дисковод: _NEC DVD_RW ND-4570A Adapter: 5 ID: 0
Режим читання : Точний
Використати точний потік : Так
Вимкнути аудіо кеш : Так
Застосувати мітки C2 : Ні
Корекція зміщення при читанні : 48
Екстрачитання областей Lead-in і Lead-out : Ні
Заповнення пропущених семплів тишею : Так
Видалення блоків з тишею на початку і кінці : Ні
При вирахуванні CRC використовувались нульові семпли : Так
Використаний інтерфейс : Встановлений зовнішній ASPI-інтерфейс
Застосований вихідний формат : Внутрішні WAV-операції
Формат семпла : 44.100 Гц; 16 біт; стерео
TOC видобутого CD
Трек | Старт | Довжина | Початковий сектор | Кінцевий сектор
------------------------------------------------------------------
1 | 0:00.00 | 7:58.25 | 0 | 35874
2 | 7:58.25 | 7:38.62 | 35875 | 70286
3 | 15:37.12 | 8:03.60 | 70287 | 106571
4 | 23:40.72 | 9:45.38 | 106572 | 150484
5 | 33:26.35 | 9:47.60 | 150485 | 194569
6 | 43:14.20 | 11:28.62 | 194570 | 246231
7 | 54:43.07 | 7:10.25 | 246232 | 278506
8 | 61:53.32 | 11:11.70 | 278507 | 328901
Статус діапазону і помилки
Обраний діапазон
Ім'я файлу O:\ABQ - The Teldec Recordings\CD - VII\Alban Berg Quartett - The Teldec Recordings - VII.wav
Піковий рівень 98.9 %
Якість діапазону 100.0 %
CRC тесту ECFD1908
CRC копії ECFD1908
Копіювання... OK
Помилки не траплялися
Звіт Точного Видобування
Трек 1 точно видобуто (впевненість 2) [78F82621]
Трек 2 точно видобуто (впевненість 2) [F1DE0506]
Трек 3 точно видобуто (впевненість 2) [07BA684C]
Трек 4 точно видобуто (впевненість 2) [DE79BCF8]
Трек 5 точно видобуто (впевненість 2) [86891048]
Трек 6 точно видобуто (впевненість 2) [C72B0927]
Трек 7 точно видобуто (впевненість 2) [8443C5C0]
Трек 8 точно видобуто (впевненість 2) [C03D8F38]
Всі треки видобуті точно
Кінець звіту
Exact Audio Copy V0.99 prebeta 4 from 23. January 2008
Звіт EAC про видобування, котре виконане 4. вересня 2010, 22:03
Alban Berg Quartett / The Teldec Recordings - VIII
Дисковод: _NEC DVD_RW ND-4570A Adapter: 5 ID: 0
Режим читання : Точний
Використати точний потік : Так
Вимкнути аудіо кеш : Так
Застосувати мітки C2 : Ні
Корекція зміщення при читанні : 48
Екстрачитання областей Lead-in і Lead-out : Ні
Заповнення пропущених семплів тишею : Так
Видалення блоків з тишею на початку і кінці : Ні
При вирахуванні CRC використовувались нульові семпли : Так
Використаний інтерфейс : Встановлений зовнішній ASPI-інтерфейс
Застосований вихідний формат : Внутрішні WAV-операції
Формат семпла : 44.100 Гц; 16 біт; стерео
TOC видобутого CD
Трек | Старт | Довжина | Початковий сектор | Кінцевий сектор
------------------------------------------------------------------
1 | 0:00.00 | 9:25.70 | 0 | 42444
2 | 9:25.70 | 9:59.22 | 42445 | 87391
3 | 19:25.17 | 2:55.05 | 87392 | 100521
4 | 22:20.22 | 5:35.35 | 100522 | 125681
5 | 27:55.57 | 3:13.53 | 125682 | 140209
6 | 31:09.35 | 5:04.60 | 140210 | 163069
7 | 36:14.20 | 4:21.30 | 163070 | 182674
8 | 40:35.50 | 5:35.57 | 182675 | 207856
9 | 46:11.32 | 2:26.60 | 207857 | 218866
10 | 48:38.17 | 2:25.10 | 218867 | 229751
11 | 51:03.27 | 0:41.35 | 229752 | 232861
12 | 51:44.62 | 1:42.43 | 232862 | 240554
13 | 53:27.30 | 3:37.42 | 240555 | 256871
14 | 57:04.72 | 4:04.25 | 256872 | 275196
15 | 61:09.22 | 3:44.63 | 275197 | 292059
16 | 64:54.10 | 1:41.52 | 292060 | 299686
17 | 66:35.62 | 2:21.60 | 299687 | 310321
18 | 68:57.47 | 8:01.40 | 310322 | 346436
Статус діапазону і помилки
Обраний діапазон
Ім'я файлу O:\ABQ - The Teldec Recordings\CD - VIII\Alban Berg Quartett - The Teldec Recordings - VIII.wav
Піковий рівень 97.7 %
Якість діапазону 100.0 %
CRC тесту 862AF941
CRC копії 862AF941
Копіювання... OK
Помилки не траплялися
Звіт Точного Видобування
Трек 1 точно видобуто (впевненість 2) [B112D2E4]
Трек 2 точно видобуто (впевненість 2) [6E383F1A]
Трек 3 точно видобуто (впевненість 2) [5FC89FD8]
Трек 4 точно видобуто (впевненість 2) [8BD25780]
Трек 5 точно видобуто (впевненість 2) [E13AA2AF]
Трек 6 точно видобуто (впевненість 2) [23391581]
Трек 7 точно видобуто (впевненість 2) [147AF1BA]
Трек 8 точно видобуто (впевненість 2) [ACC425B6]
Трек 9 точно видобуто (впевненість 2) [F1044244]
Трек 10 точно видобуто (впевненість 2) [90829BFE]
Трек 11 точно видобуто (впевненість 2) [BDFD81C1]
Трек 12 точно видобуто (впевненість 2) [C368E379]
Трек 13 точно видобуто (впевненість 2) [DF73288C]
Трек 14 точно видобуто (впевненість 2) [AAE527D3]
Трек 15 точно видобуто (впевненість 2) [BCE7A7BA]
Трек 16 точно видобуто (впевненість 2) [2A075E7B]
Трек 17 точно видобуто (впевненість 2) [B768DE29]
Трек 18 точно видобуто (впевненість 2) [52856957]
Всі треки видобуті точно
Кінець звіту
[teatrix.ru].t10045.torrent 
Торрент: Зарегистрирован [ 2015-10-25 20:37 ] · 73170114AE7102EEB8B6013EE937F2261F3BCB61

Скачать .torrent

Скачать

14 KB

Статус: проверено
Скачан: 0 раз
Размер: 2.21 GB
terms.php



Быстрый ответ

Имя:

      
Для отправки сообщений необходимо включить JavaScript
Показать сообщения:    

Текущее время: 03-Дек 18:42

Часовой пояс: UTC + 3


Вы можете начинать темы
Вы можете отвечать на сообщения
Вы не можете редактировать свои сообщения
Вы не можете удалять свои сообщения
Вы не можете голосовать в опросах
Вы не можете прикреплять файлы к сообщениям
Вы можете скачивать файлы