(Classical) Musik - Sprache der Welt / Music - The Universal Language - Haydn, Mozart, Beethoven, Schubert, Berlioz, Schumann, Brahms, Bruckner (Fricsay, Jochum, Sanderling, Bohm, Маркевич, Lehmann, Furtwangler)- 2004, FLAC (image+.cue), lossless


Статистика раздачи [Обновить пиров]
Размер:  2.25 GB   |    Зарегистрирован:  1 год 1 месяц   |    Скачан:  0 раз

Полного источника не было: Никогда

 
   
 
 
 

[Цитировать]

Musik - Sprache der Welt
Жанр: Classical
Год выпуска диска: 2004
Производитель диска: Deutsche Grammophon
Аудио кодек: FLAC
Тип рипа: image+.cue
Битрейт аудио: lossless
Продолжительность: 11:09:12
Источник: Amigo
Треклист:

CD1 - Haydn - Symphonie Nr. 44, Symphonie Nr. 95, Symphonie Nr. 98 (Ferenc Fricsay)


Joseph Haydn
Symphonie Nr. 44 e-moll 'Trauersymphonie' Hob. I:44
1. Allegro con brio
2. Menuetto: Allegro
3. Adagio
4. Finale: Presto
Symphonie Nr. 95 c-moll Hob. I:95
5. Allegro moderato
6. Andante cantabile
7. Menuet - Trio - Menuet
8. Finale: Vivace
Symphonie Nr. 98 B-dur Hob. I:98
9. Adagio - Allegro
10. Adagio cantabile
11. Menuet: Allegro - Trio - Menuet
12. Finale: Presto
RIAS Symphonie-Orchester Berlin
Conductor: Ferenc Fricsay

CD2 - Mozart - Symphonie Nr. 36, Symphonie Nr. 33, Symphonie Nr. 39 (Eugen Jochum)


Wolfgang Amadeus Mozart
Symphonie Nr. 36 C-dur, KV 425 'Linzer'
1. Adagio - Allegro spirituoso
2. Andante
3. Menuetto
4. Presto
Symphonie Nr. 33 B-dur, KV 319
5. Allegro assai
6. Andante moderato
7. Menuetto - Trio
8. Allegro assai
Symphonie Nr. 39 Es-dur, KV 543
9. Adagio - Allegro
10. Andante con moto
11. Menuetto: Allegretto
12. Finale: Allegro
Symphonieorchester des Bayerischen Rundfunks
Conductor: Eugen Jochum

CD3 - Beethoven - Symphonie Nr.2, Klavierkonzert Nr.3 (Kurt Sanderling)


Ludwig van Beethoven
Symphonie Nr.2 D-dur op. 36
1. Adagio - Allegro con brio
2. Larghetto
3. Scherzo. Allegro - Trio
4. Allegro molto
Leningrader Philharmonie
Klavierkonzert Nr.3 c-moll op. 37
5. Allegro con brio
6. Largo
7. Rondo. Allegro
Sviatoslav Richter, klavier
Wiener Symphoniker
Conductor: Kurt Sanderling

CD4 - Beethoven - Symphonie Nr. 5, Symphonie Nr. 7 (Karl Bohm)


Ludwig van Beethoven
Symphonie Nr. 5 c-moll op. 67
1. Allegro con brio
2. Andante con moto
3. Allegro
4. Allegro
Symphonie Nr. 7 A-dur op. 92
5. Poco sostenuto - Vivace
6. Allegretto
7. Presto
8. Allegro con brio
Berliner Philharmoniker
Conductor: Karl Bohm

CD5 - Schubert - Symphonie Nr. 3, Symphonie Nr. 4 (Igor Markevitch)


Franz Schubert
Symphonie Nr. 3 D-dur D200
1. Adagio maestoso - Allegro con brio
2. Allegretto
3. Menuetto: Vivace - Trio
4. Satz: Presto vivace
Symphonie Nr. 4 c-moll 'Tragische Symphonie' D417
5. Poco sostenuto - ...
6. Allegretto
7. Presto
8. Allegro con brio
Berliner Philharmoniker
Conductor: Igor Markevitch

CD6 - Schubert - Musik zum Schauspiel 'Rosamunde', Die Zauberharfe, Standchen (Fritz Lehmann)


Franz Schubert
Musik zum Schauspiel 'Rosamunde' D 797
1. Ouvertгre: Alfons und Estrella D 732
2. Zwischenaktmusik Nr. 1
3. Ballettmusik Nr. 1
4. Zwischenaktmusik Nr. 2
5. Romanze
6. Geisterchor
7. Zwischenaktmusik Nr. 3
8. Hirtenmelodien
9. Hirtenchor
10. Jagerchor
11. Ballettmusik Nr. 2
12. Ouverture 'Die Zauberharfe' D 644
13. Standchen (Zogernd leise) D 920 fur Altsolo, Frauenchor und Klavier F-dur
Diana Eustratti, alt
Berliner Motettenchor
Michael Raucheisen
, klavier
Berliner Philharmoniker
Conductor: Fritz Lehmann

CD7 - Berlioz - Symphonie fantastique; Bizet - Jeux d'enfants (Igor Markevitch)


Hector Berlioz
Symphonie fantastique op. 14

1. Reveries - Passions, Largo - Allegro a...
2. Un bal: Valse, Allegro ma non troppo
3. Scene aux champs, Adagio
4. Marche au supplice, Allegretto non troppo
5. Songe d'une nuit de Sabbat, Larghetto
Berliner Philharmoniker
Georges Bizet
Jeux d'enfants
6. Marche, Trompette et Tambour
7. Berceuse, La poupee
8. Impromptu, La toupie
9. Duo, Petit mari, petite femme
10. Galop, Le bal
Orchestre des Concerts Lamoureux
Conductor: Igor Markevitch

CD8 - Schumann - Symphony No.4; Haydn - Symphony No.88 (Wilhelm Furtwangler)


Robert Schumann
Symphony No.4 in D minor, op.120

1. Ziemlich langsam - Lebhaft
2. Romanze: Ziemlich langsam
3. Scherzo: Lebhaft
4. Langsam - Lebhaft
Joseph Haydn
Symphony No.88 in G major, Hob.I:88
5. Adagio - Allegro
6. Largo
7. Menuetto: Allegretto
8. Finale: Allegro con spirito
Berliner Philharmoniker
Conductor: Wilhelm Furtwangler

CD9 - Brahms - Symphonie Nr. 2; Reger - Variationen und Fuge ьber ein Thema von Mozart (Karl Bohm)


Johannes Brahms
Symphonie Nr. 2 D-dur
1. Allegro non troppo
2. Adagio non troppo - Lґistesso temp...
3. Allegretto grazioso (quasi Andantino)
4. Allegro con spirito
Max Reger
Variationen und Fuge ьber ein Thema von Mozart OP.132
5. Thema: Andante grazioso
6. L'istesso tempo
7. Poco agitato
8. Con moto
9. Vivace
10. Quasi Presto
11. Sostenuto (quasi Adagietto)
12. Andante grazioso
13. Molto sostenuto
14. Fuge: Allegretto grazioso
Berliner Philharmoniker
Conductor: Karl Bohm

CD10 - Bruckner - Sinfonie Nr.9 (Eugen Jochum)


Anton Bruckner
Sinfonie Nr.9 d-moll
1. Feierlich, Misterioso
2. Scherzo: Bewegt, lebhaft
3. Adagio: Langsam, feierlich
Symphonieorchester des Bayerischen Rundfunks
Conductor: Eugen Jochum
Исполнители:
Ferenc Fricsay
Eugen Jochum
Kurt Sanderling
Karl Bohm
Igor Markevitch
Fritz Lehmann
Wilhelm Furtwangler

Лог создания рипаCD1

Exact Audio Copy V0.99 prebeta 4 from 23. January 2008
Archivo Log de extracciones desde 21. Abril 2009, 10:33
Joseph Haydn / Musik - Sprache der Welt CD1
Usar unidad : HL-DT-STDVDRRW GSA-H30L Adapter: 0 ID: 1
Modo de Lectura : SeguroUtilizar Corriente Exacta : SíDescartar Audio caché : SíUtilizar los punteros C2 : No
Corrección de Desplazamiento de Lectura : 102Sobreleer tanto en Lead-In como en Lead-Out : NoRellenar las muestras faltantes con silencios : SíEliminar silencios inicial y final : NoSe han usado muestras nulas en los cálculos CRC : SíInterfaz usada : Interfaz propio de Win32 para Windowns NT y 2000
Formato de Salida utilizado : Rutinas WAV InternasFormato de Muestreo : 44.100 Hz; 16 Bit; Estéreo
TOC del CD extraido
Pista | Inicio | Duración | Sector inicial | Sector final ------------------------------------------------------------- 1 | 0:00.00 | 7:23.14 | 0 | 33238 2 | 7:23.14 | 4:01.00 | 33239 | 51313 3 | 11:24.14 | 5:37.00 | 51314 | 76588 4 | 17:01.14 | 3:41.74 | 76589 | 93237 5 | 20:43.13 | 6:26.01 | 93238 | 122188 6 | 27:09.14 | 5:27.00 | 122189 | 146713 7 | 32:36.14 | 4:53.00 | 146714 | 168688 8 | 37:29.14 | 3:30.74 | 168689 | 184512 9 | 41:00.13 | 8:03.01 | 184513 | 220738 10 | 49:03.14 | 7:16.00 | 220739 | 253438 11 | 56:19.14 | 6:32.00 | 253439 | 282838 12 | 62:51.14 | 6:07.00 | 282839 | 310363
Gama de estados y errores
Seleccionar gama
Nombre de Archivo D:\Joseph Haydn - Musik - Sprache der Welt CD1.wav
Nivel Pico 98.5 % Gama de Calidad 99.9 % Copiar CRC 4F6C6DA7 Copia OK
Sin Errores

CD2

Exact Audio Copy V0.99 prebeta 4 from 23. January 2008
Archivo Log de extracciones desde 21. Abril 2009, 10:57
Wolfgang Amadeus Mozart / Musik - Sprache der Welt CD2
Usar unidad : HL-DT-STDVDRRW GSA-H30L Adapter: 0 ID: 1
Modo de Lectura : SeguroUtilizar Corriente Exacta : SíDescartar Audio caché : SíUtilizar los punteros C2 : No
Corrección de Desplazamiento de Lectura : 102Sobreleer tanto en Lead-In como en Lead-Out : NoRellenar las muestras faltantes con silencios : SíEliminar silencios inicial y final : NoSe han usado muestras nulas en los cálculos CRC : SíInterfaz usada : Interfaz propio de Win32 para Windowns NT y 2000
Formato de Salida utilizado : Rutinas WAV InternasFormato de Muestreo : 44.100 Hz; 16 Bit; Estéreo
TOC del CD extraido
Pista | Inicio | Duración | Sector inicial | Sector final ------------------------------------------------------------- 1 | 0:00.00 | 10:38.37 | 0 | 47886 2 | 10:38.37 | 7:20.38 | 47887 | 80924 3 | 17:59.00 | 3:45.01 | 80925 | 97800 4 | 21:44.01 | 5:19.74 | 97801 | 121799 5 | 27:04.00 | 6:44.01 | 121800 | 152100 6 | 33:48.01 | 6:26.00 | 152101 | 181050 7 | 40:14.01 | 3:03.14 | 181051 | 194789 8 | 43:17.15 | 5:56.60 | 194790 | 221549 9 | 49:14.00 | 11:05.40 | 221550 | 271464 10 | 60:19.40 | 9:33.34 | 271465 | 314473 11 | 69:52.74 | 4:03.00 | 314474 | 332698 12 | 73:55.74 | 5:19.02 | 332699 | 356625
Gama de estados y errores
Seleccionar gama
Nombre de Archivo D:\Wolfgang Amadeus Mozart - Musik - Sprache der Welt CD2.wav
Nivel Pico 99.9 % Gama de Calidad 100.0 % Copiar CRC ADB8028C Copia OK
Sin Errores

CD3

Exact Audio Copy V0.99 prebeta 4 from 23. January 2008
Archivo Log de extracciones desde 21. Abril 2009, 11:31
Kurt Sanderling / Sviatoslav Richter / Leningrader Philharmonic, Wiener Symphoniker / Beethoven: Symphonie Nr. 2 D-dur op. 36; Klavierkonzert Nr. 3 c-moll op. 37
Usar unidad : HL-DT-STDVDRRW GSA-H30L Adapter: 0 ID: 1
Modo de Lectura : SeguroUtilizar Corriente Exacta : SíDescartar Audio caché : SíUtilizar los punteros C2 : No
Corrección de Desplazamiento de Lectura : 102Sobreleer tanto en Lead-In como en Lead-Out : NoRellenar las muestras faltantes con silencios : SíEliminar silencios inicial y final : NoSe han usado muestras nulas en los cálculos CRC : SíInterfaz usada : Interfaz propio de Win32 para Windowns NT y 2000
Formato de Salida utilizado : Rutinas WAV InternasFormato de Muestreo : 44.100 Hz; 16 Bit; Estéreo
TOC del CD extraido
Pista | Inicio | Duración | Sector inicial | Sector final ------------------------------------------------------------- 1 | 0:00.00 | 11:57.73 | 0 | 53847 2 | 11:57.73 | 13:03.74 | 53848 | 112646 3 | 25:01.72 | 4:09.27 | 112647 | 131348 4 | 29:11.24 | 6:55.53 | 131349 | 162526 5 | 36:07.02 | 17:15.31 | 162527 | 240182 6 | 53:22.33 | 10:01.60 | 240183 | 285317 7 | 63:24.18 | 8:46.29 | 285318 | 324796
Gama de estados y errores
Seleccionar gama
Nombre de Archivo D:\Kurt Sanderling - Sviatoslav Richter Leningrader Philharmonic, Wiener Symphoniker Beethoven Symphonie Nr. 2 D-dur op. 36; Klavierkonzert Nr. 3 c-moll op. 37 CD3.wav
Nivel Pico 100.0 % Gama de Calidad 100.0 % Copiar CRC 99A3E826 Copia OK
Sin Errores

CD4

Exact Audio Copy V0.99 prebeta 4 from 23. January 2008
Archivo Log de extracciones desde 21. Abril 2009, 12:01
Ludwig van Beethoven / Musik - Sprache der Welt CD4
Usar unidad : HL-DT-STDVDRRW GSA-H30L Adapter: 0 ID: 1
Modo de Lectura : SeguroUtilizar Corriente Exacta : SíDescartar Audio caché : SíUtilizar los punteros C2 : No
Corrección de Desplazamiento de Lectura : 102Sobreleer tanto en Lead-In como en Lead-Out : NoRellenar las muestras faltantes con silencios : SíEliminar silencios inicial y final : NoSe han usado muestras nulas en los cálculos CRC : SíInterfaz usada : Interfaz propio de Win32 para Windowns NT y 2000
Formato de Salida utilizado : Rutinas WAV InternasFormato de Muestreo : 44.100 Hz; 16 Bit; Estéreo
TOC del CD extraido
Pista | Inicio | Duración | Sector inicial | Sector final ------------------------------------------------------------- 1 | 0:00.00 | 8:08.01 | 0 | 36600 2 | 8:08.01 | 11:21.74 | 36601 | 87749 3 | 19:30.00 | 5:57.29 | 87750 | 114553 4 | 25:27.29 | 8:57.45 | 114554 | 154873 5 | 34:24.74 | 12:57.74 | 154874 | 213222 6 | 47:22.73 | 10:11.00 | 213223 | 259047 7 | 57:33.73 | 8:23.17 | 259048 | 296789 8 | 65:57.15 | 7:19.21 | 296790 | 329735
Gama de estados y errores
Seleccionar gama
Nombre de Archivo D:\Ludwig van Beethoven - Musik - Sprache der Welt CD4.wav
Nivel Pico 97.7 % Gama de Calidad 100.0 % Copiar CRC 81227CD0 Copia OK
Sin Errores

CD5

Exact Audio Copy V0.99 prebeta 4 from 23. January 2008
Archivo Log de extracciones desde 21. Abril 2009, 12:19
Franz Schubert / Musik - Sprache der Welt CD5
Usar unidad : HL-DT-STDVDRRW GSA-H30L Adapter: 0 ID: 1
Modo de Lectura : SeguroUtilizar Corriente Exacta : SíDescartar Audio caché : SíUtilizar los punteros C2 : No
Corrección de Desplazamiento de Lectura : 102Sobreleer tanto en Lead-In como en Lead-Out : NoRellenar las muestras faltantes con silencios : SíEliminar silencios inicial y final : NoSe han usado muestras nulas en los cálculos CRC : SíInterfaz usada : Interfaz propio de Win32 para Windowns NT y 2000
Formato de Salida utilizado : Rutinas WAV InternasFormato de Muestreo : 44.100 Hz; 16 Bit; Estéreo
TOC del CD extraido
Pista | Inicio | Duración | Sector inicial | Sector final ------------------------------------------------------------- 1 | 0:00.00 | 7:59.46 | 0 | 35970 2 | 7:59.46 | 3:35.49 | 35971 | 52144 3 | 11:35.20 | 3:33.65 | 52145 | 68184 4 | 15:09.10 | 6:57.09 | 68185 | 99468 5 | 22:06.19 | 7:30.54 | 99469 | 133272 6 | 29:36.73 | 9:28.24 | 133273 | 175896 7 | 39:05.22 | 2:43.20 | 175897 | 188141 8 | 41:48.42 | 7:25.03 | 188142 | 221519
Gama de estados y errores
Seleccionar gama
Nombre de Archivo D:\Franz Schubert - Musik - Sprache der Welt CD5.wav
Nivel Pico 99.6 % Gama de Calidad 100.0 % Copiar CRC 02227909 Copia OK
Sin Errores

CD6

Exact Audio Copy V0.99 prebeta 4 from 23. January 2008
Archivo Log de extracciones desde 21. Abril 2009, 12:44
Franz Schubert / Musik - Sprache der Welt CD6
Usar unidad : HL-DT-STDVDRRW GSA-H30L Adapter: 0 ID: 1
Modo de Lectura : SeguroUtilizar Corriente Exacta : SíDescartar Audio caché : SíUtilizar los punteros C2 : No
Corrección de Desplazamiento de Lectura : 102Sobreleer tanto en Lead-In como en Lead-Out : NoRellenar las muestras faltantes con silencios : SíEliminar silencios inicial y final : NoSe han usado muestras nulas en los cálculos CRC : SíInterfaz usada : Interfaz propio de Win32 para Windowns NT y 2000
Formato de Salida utilizado : Rutinas WAV InternasFormato de Muestreo : 44.100 Hz; 16 Bit; Estéreo
TOC del CD extraido
Pista | Inicio | Duración | Sector inicial | Sector final ------------------------------------------------------------- 1 | 0:00.00 | 6:18.00 | 0 | 28349 2 | 6:18.00 | 10:57.00 | 28350 | 77624 3 | 17:15.00 | 9:30.00 | 77625 | 120374 4 | 26:45.00 | 4:28.00 | 120375 | 140474 5 | 31:13.00 | 4:18.00 | 140475 | 159824 6 | 35:31.00 | 4:25.00 | 159825 | 179699 7 | 39:56.00 | 8:24.00 | 179700 | 217499 8 | 48:20.00 | 1:42.00 | 217500 | 225149 9 | 50:02.00 | 4:00.00 | 225150 | 243149 10 | 54:02.00 | 2:25.00 | 243150 | 254024 11 | 56:27.00 | 7:24.00 | 254025 | 287324 12 | 63:51.00 | 10:58.74 | 287325 | 336748 13 | 74:49.74 | 5:21.00 | 336749 | 360823
Gama de estados y errores
Seleccionar gama
Nombre de Archivo D:\Franz Schubert - Musik - Sprache der Welt CD6.wav
Nivel Pico 99.3 % Gama de Calidad 100.0 % Copiar CRC 47F722EA Copia OK
Sin Errores

CD7

Exact Audio Copy V0.99 prebeta 4 from 23. January 2008
Archivo Log de extracciones desde 21. Abril 2009, 14:24
Hector Berlioz, Georges Bizet / Musik - Sprache der Welt CD7
Usar unidad : HL-DT-STDVDRRW GSA-H30L Adapter: 0 ID: 1
Modo de Lectura : SeguroUtilizar Corriente Exacta : SíDescartar Audio caché : SíUtilizar los punteros C2 : No
Corrección de Desplazamiento de Lectura : 102Sobreleer tanto en Lead-In como en Lead-Out : NoRellenar las muestras faltantes con silencios : SíEliminar silencios inicial y final : NoSe han usado muestras nulas en los cálculos CRC : SíInterfaz usada : Interfaz propio de Win32 para Windowns NT y 2000
Formato de Salida utilizado : Rutinas WAV InternasFormato de Muestreo : 44.100 Hz; 16 Bit; Estéreo
TOC del CD extraido
Pista | Inicio | Duración | Sector inicial | Sector final ------------------------------------------------------------- 1 | 0:00.00 | 13:19.33 | 0 | 59957 2 | 13:19.33 | 5:49.33 | 59958 | 86165 3 | 19:08.66 | 14:39.12 | 86166 | 152102 4 | 33:48.03 | 4:26.43 | 152103 | 172095 5 | 38:14.46 | 10:16.59 | 172096 | 218354 6 | 48:31.30 | 2:02.42 | 218355 | 227546 7 | 50:33.72 | 3:01.15 | 227547 | 241136 8 | 53:35.12 | 1:00.08 | 241137 | 245644 9 | 54:35.20 | 3:42.45 | 245645 | 262339 10 | 58:17.65 | 1:49.00 | 262340 | 270514
Gama de estados y errores
Seleccionar gama
Nombre de Archivo D:\Hector Berlioz, Georges Bizet - Musik - Sprache der Welt CD7.wav
Nivel Pico 99.4 % Gama de Calidad 99.9 % Copiar CRC 3D232AED Copia OK
Sin Errores

CD8

Exact Audio Copy V0.99 prebeta 4 from 23. January 2008
Archivo Log de extracciones desde 21. Abril 2009, 14:52
Wilhelm Furtwangler & Berliner Philharmoniker / R. Schumann, Haydn
Usar unidad : HL-DT-STDVDRRW GSA-H30L Adapter: 0 ID: 1
Modo de Lectura : SeguroUtilizar Corriente Exacta : SíDescartar Audio caché : SíUtilizar los punteros C2 : No
Corrección de Desplazamiento de Lectura : 102Sobreleer tanto en Lead-In como en Lead-Out : NoRellenar las muestras faltantes con silencios : SíEliminar silencios inicial y final : NoSe han usado muestras nulas en los cálculos CRC : SíInterfaz usada : Interfaz propio de Win32 para Windowns NT y 2000
Formato de Salida utilizado : Rutinas WAV InternasFormato de Muestreo : 44.100 Hz; 16 Bit; Estéreo
TOC del CD extraido
Pista | Inicio | Duración | Sector inicial | Sector final ------------------------------------------------------------- 1 | 0:00.00 | 11:52.33 | 0 | 53432 2 | 11:52.33 | 5:21.00 | 53433 | 77507 3 | 17:13.33 | 5:55.72 | 77508 | 104204 4 | 23:09.30 | 7:53.65 | 104205 | 139744 5 | 31:03.20 | 6:52.22 | 139745 | 170666 6 | 37:55.42 | 6:18.41 | 170667 | 199057 7 | 44:14.08 | 4:24.70 | 199058 | 218927 8 | 48:39.03 | 3:40.36 | 218928 | 235463
Gama de estados y errores
Seleccionar gama
Nombre de Archivo D:\Wilhelm Furtwangler & Berliner Philharmoniker - R. Schumann, Haydn CD8.wav
Nivel Pico 99.8 % Gama de Calidad 100.0 % Copiar CRC 765C2B50 Copia OK
Sin Errores

CD9

Exact Audio Copy V0.99 prebeta 4 from 23. January 2008
Archivo Log de extracciones desde 21. Abril 2009, 15:40
Berliner Philharmoniker - Karl Böhm / Brahms, J ~ Sinfonie Nr. 2 D-Dur op73
Usar unidad : HL-DT-STDVDRRW GSA-H30L Adapter: 0 ID: 1
Modo de Lectura : SeguroUtilizar Corriente Exacta : SíDescartar Audio caché : SíUtilizar los punteros C2 : No
Corrección de Desplazamiento de Lectura : 102Sobreleer tanto en Lead-In como en Lead-Out : NoRellenar las muestras faltantes con silencios : SíEliminar silencios inicial y final : NoSe han usado muestras nulas en los cálculos CRC : SíInterfaz usada : Interfaz propio de Win32 para Windowns NT y 2000
Formato de Salida utilizado : Rutinas WAV InternasFormato de Muestreo : 44.100 Hz; 16 Bit; Estéreo
TOC del CD extraido
Pista | Inicio | Duración | Sector inicial | Sector final ------------------------------------------------------------- 1 | 0:00.00 | 14:58.00 | 0 | 67349 2 | 14:58.00 | 10:35.00 | 67350 | 114974 3 | 25:33.00 | 5:46.00 | 114975 | 140924 4 | 31:19.00 | 9:40.00 | 140925 | 184424 5 | 40:59.00 | 2:45.68 | 184425 | 196867 6 | 43:44.68 | 2:36.58 | 196868 | 208625 7 | 46:21.51 | 1:58.60 | 208626 | 217535 8 | 48:20.36 | 1:20.72 | 217536 | 223607 9 | 49:41.33 | 0:43.04 | 223608 | 226836 10 | 50:24.37 | 1:42.03 | 226837 | 234489 11 | 52:06.40 | 2:39.40 | 234490 | 246454 12 | 54:46.05 | 2:54.59 | 246455 | 259563 13 | 57:40.64 | 7:00.59 | 259564 | 291122 14 | 64:41.48 | 9:57.67 | 291123 | 335964
Gama de estados y errores
Seleccionar gama
Nombre de Archivo D:\Berliner Philharmoniker - Karl Böhm - Brahms, J ~ Sinfonie Nr. 2 D-Dur op73 CD9.wav
Nivel Pico 87.8 % Gama de Calidad 99.9 % Copiar CRC FABF405D Copia OK
Sin Errores

CD10

Exact Audio Copy V0.99 prebeta 4 from 23. January 2008
Archivo Log de extracciones desde 21. Abril 2009, 16:03
Jochum, Eugen / Bruckner. Sinfonie Nr.9 d-moll
Usar unidad : HL-DT-STDVDRRW GSA-H30L Adapter: 0 ID: 1
Modo de Lectura : SeguroUtilizar Corriente Exacta : SíDescartar Audio caché : SíUtilizar los punteros C2 : No
Corrección de Desplazamiento de Lectura : 102Sobreleer tanto en Lead-In como en Lead-Out : NoRellenar las muestras faltantes con silencios : SíEliminar silencios inicial y final : NoSe han usado muestras nulas en los cálculos CRC : SíInterfaz usada : Interfaz propio de Win32 para Windowns NT y 2000
Formato de Salida utilizado : Rutinas WAV InternasFormato de Muestreo : 44.100 Hz; 16 Bit; Estéreo
TOC del CD extraido
Pista | Inicio | Duración | Sector inicial | Sector final ------------------------------------------------------------- 1 | 0:00.00 | 22:08.00 | 0 | 99599 2 | 22:08.00 | 9:45.00 | 99600 | 143474 3 | 31:53.00 | 27:09.00 | 143475 | 265649
Gama de estados y errores
Seleccionar gama
Nombre de Archivo D:\Jochum, Eugen - Bruckner. Sinfonie Nr.9 d-moll CD10.wav
Nivel Pico 99.9 % Gama de Calidad 100.0 % Copiar CRC E798DA0A Copia OK
Sin Errores
[teatrix.ru].t10046.torrent 
Торрент: Зарегистрирован [ 2015-10-25 20:37 ] · 2BF73DFABB4FB57C410EDD81896DC05BA9856D8F

Скачать .torrent

Скачать

16 KB

Статус: проверено
Скачан: 0 раз
Размер: 2.25 GB
terms.php



Быстрый ответ

Имя:

      
Для отправки сообщений необходимо включить JavaScript
Показать сообщения:    

Текущее время: 11-Дек 14:58

Часовой пояс: UTC + 3


Вы можете начинать темы
Вы можете отвечать на сообщения
Вы не можете редактировать свои сообщения
Вы не можете удалять свои сообщения
Вы не можете голосовать в опросах
Вы не можете прикреплять файлы к сообщениям
Вы можете скачивать файлы