(classical/baroque/renaissance) Gustav Leonhardt Edition (J.S.Bach, Mondonville, Couperin, Rameau, Purcell, Byrd, Biber, Muffat, Froberger, Kuhnau, Bohm, Handel, Frescobaldi et al) (21 CD, Teldec Classics) - 2008, FLAC (image+.cue) lossless


Статистика раздачи [Обновить пиров]
Размер:  6.76 GB   |    Зарегистрирован:  1 год 1 месяц   |    Скачан:  1 раз

Полного источника не было: 15 дней

 
   
 
 
 

[Цитировать]

Gustav Leonhardt Edition (Teldec Classics, 21 CD)
Жанр: classical/baroque/renaissance
Страна-производитель диска: Germany
Год издания диска: 2008
Издатель (лейбл): Teldec Classics (“Das Alte Werk”)
Дата записи: 1964-1970
Аудиокодек: FLAC
Тип рипа: image+.cue
Битрейт аудио: lossless
Общая продолжительность: 20h 39m 9s
Источник: собственный рип
Наличие сканов в содержимом раздачи: да
Краткий треклист:
CD 1-3: J.S.Bach - Harpsichord Concertos
CD 4: J.S.Bach - Goldberg Variations
CD 5: J.S.Bach - Works For Harpsichord
CD 6-7: J.S.Bach - Violin Sonatas
CD 8: J.S.Bach - Quodlibet, Canons, Songs, Chorales and Keyboard Works
CD 9: Mondonville - Pièces de Clavecin en Sonates
CD 10: Keyboard music by Couperin, Poglietti, Grigny, Rameau
CD 11: Rameau - Pièces de Clavecin en Concerts
CD 12-13: Purcell – Anthems, Instrumental Music, Songs
CD 14-15: English Consort & Keyboard Music
(Dowland, Lawes, Coprario, Byrd, Simpson, Lupo,
Morley, Bull, Randall, Tomkins, Gibbons, Farnaby, Tisdale)
CD 16: Consort Music by Biber, Muffat, Rosenmuller, Scheidt, Schmelzer
CD 17: Froberger - Keyboard Works
CD 18-19: Kuhnau - Musicalische Vorstellung einiger Biblischer Historien
CD 20: Keyboard Music by Reincken, Scheidemann, J.S.Bach, Bohm, Handel, J.C.Bach
CD 21: Harpsichord & Consort Music by Frescobaldi, Turini, Caccini, Marini, D. Scarlatti
Подробный трэклист:

скрытый текст

CD 1- 72:59
Johann Sebastian Bach
Concerto For Flute, Violin & Harpsichord In A Minor, BWV 1044
01. I Allegro
02. II Adagio Ma Non Tanto E Dolce
03. III Alla Breve
Concerto For Harpsichord In E Major, BWV 1053
04. I [Allegro]
05. II Ciciliano
06. III Allegro
Concerto For Harpsichord In D Major, BWV 1054
07. I [Allegro]
08. II Adagio E Sempre
09. III Allegro
Concerto For Harpsichord In A Major, BWV 1055
10. I Allegro
11. II Larghetto
12. III Allegro Ma Non Tanto
Frans Bruggen, flute / Marie Leonhardt, violin (BWV 1044)
Leonhardt-Consort / Gustav Leonhardt, harpsichord

CD 2- 64:26
Johann Sebastian Bach
Concerto For Harpsichord In F Minor, BWV 1056
01. I [Allegro]
02. II Largo
03. III Presto
Concerto For Harpsichord & Two Recorders In F Major, BWV 1057
04. I [Allegro]
05. II Andante
06. III Allegro Assai
Concerto For Harpsichord In G Minor, BWV 1058
07. I [Allegro]
08. II Andante
09. III Allegro Assai
Concerto For Harpsichord & Oboe In D Minor, BWV 1059
10. I [Allegro]
11. II [Adagio]
12. III [Presto]
Concerto For Two Harpsichords In C Minor, BWV 1060
13. I Allegro
14. II Largo Ovvero Adagio
15. III Allegro
Eduard Muller, harpsichord (BWV 1060)
Leonhardt-Consort / Gustav Leonhardt, harpsichord

CD 3- 74:55
Johann Sebastian Bach
Concerto For Two Harpsichords In C Major, BWV 1061
01. I [Allegro]
02. II Adagio Ovvero Largo (Quartetto Tacet)
03. III Fuga Vivace
Concerto For Two Harpsichords In C Minor, BWV 1062
04. I [Allegro]
05. II Andante E Piano
06. III Allegro Assai
Concerto For Three Harpsichords In D Minor, BWV 1063
07. I [Allegro]
08. II Alla Siciliana
09. III Allegro
Concerto For Three Harpsichords In C Major, BWV 1064
10. I Allegro
11. II Adagio
12. III Allegro
Concerto For Four Harpsichords In A Minor, BWV 1065
13. I [Allegro]
14. II Largo
15. III Allegro
Eduard Muller, harpsichord (BWV 1060, 1062, 1065)
Anneke Uittenbosch, harpsichord (BWV 1061, 1063, 1064, 1065)
Alan Curtis, harpsichord (BWV 1063, 1064)
Janny Van Wering, harpsichord (BWV 1065)
Leonhardt-Consort / Gustav Leonhardt, harpsichord

CD 4- 47:43
Johann Sebastian Bach
Goldberg Variations (Aria with Diverse Variations), BWV 988
01. I Aria
02. II Variation 1
03. III Variation 2
04. IV Variation 3 (Canone All' Unisono)
05. V Variation 4
06. VI Variation 5
07. VII Variation 6 (Canone Alla Seconda)
08. VIII Variation 7 (Al tempo Di Giga)
09. IX Variation 8
10. X Variation 9 (Canone Alla Terza)
11. XI Variation 10 (Fughetta)
12. XII Variation 11
13. XIII Variation 12 (Canone Alla Quarta)
14. XIV Variation 13
15. XV Variation 14
16. XVI Variation 15 (Canone Alla Quinta)
17. XVII Variation 16 (Ouverture)
18. XVIII Variation 17
19. XIX Variation 18 (Canone Alla Sesta)
20. XX Variation 19
21. XXI Variation 20
22. XXII Variation 21 Ccanone Alla Settima)
23. XXIII Variation 22 (Alla Breve)
24. XXIV Variation 23
25. XXV Variation 24 (Canone All' Ottava)
26. XXVI Variation 25 (Adagio)
27. XXVII Variation 26
28. XXVIII Variation 27 (Canone Alla Nona)
29. XXIX Variation 28
30. XXX Variation 29
31. XXXI Variation 30 (Quodlibet)
32. XXXII Aria Da Capo
Gustav Leonhardt, harpsichord
CD 5- 71:21
Johann Sebastian Bach
Chromatic Fantasia & Fugue In D Minor, BWV 903
01. I Fantasia
02. II Recitativo
03. III Fuga
Sonata In D Minor, BWV 964
04. I Adagio
05. II Fuga: Allegro
06. III Andante
07. Allegro
Toccata In G Major, BWV 916
08. I [Presto]
09. II Adagio
10. III Allegro
Suite In E Minor, BWV 996
11. I Praeludio: Passagio- Presto
12. II Allemande
13. III Courante
14. IV Sarabande
15. V Bourree
16. VI Gigue
Sonata In G Major
17. I Adagio, BWV 968
18. II Fuga: Alla Breve
19. III Largo
20. IV Allegro Assai
(II-IV Reconstructed By Leonhardt After Sonata For Violin, BWV 1005)
Gustav Leonhardt, harpsichord
CD 6- 42:00
Johann Sebastian Bach
Violin Sonata No. 1 In B Minor, BWV 1014
01. I Adagio
02. II Allegro
03. III Andante
04. IV Allegro
Violin Sonata No. 2 In A Major, BWV 1015
05. I [Dolce]
06. II Allegro Assai
07. III Andante Un Poco
08. IV Presto
Violin Sonata No. 3 In E Major, BWV 1016
09. I Adagio
10. II Allegro
11. III Adagio Ma Non Tanto
12. IV Allegro
Lars Fryden, violin
Gustav Leonhardt, harpsichord

CD 7- 43:38
Johann Sebastian Bach
Violin Sonata No. 4 In C Minor, BWV 1017
01. I Siciliano: Largo
02. II Allegro
03. III Adagio
04. IV Allegro
Violin Sonata No. 5 In F Minor, BWV 1018
05. I Largo
06. II Allegro
07. III Adagio
08. IV Vivace
Violin Sonata No. 6 In G Major, BWV 1019
09. I Allegro
10. II Largo
11. III Allegro
12. IV Adagio
13. V Allegro
Lars Fryden, violin
Gustav Leonhardt, harpsichord

CD 8- 73:45
Johann Sebastian Bach
01.Prelude in F major. BWV 927
02. Quodlibet, BWV 524
03. Prelude in E Major, BWV 937
04. Prelude In G Minor, BWV 929
05. Erbauliche Gedanken Eines Tobackrauchers, BWV 515a
06. Prelude In D Minor, BWV 940
07. Canon A 2 Perpetuus, BWV 1075
08. Canon Super Fa Mi A 7 Post Tempus Musicum, BWV 1078
09. Prelude In D Major, BWV 925
10. Gib Dich Zufrieden Und Sei Stille, BWV 511
11. Canon A 4 Perpetuus, BWV 1073
12. Canone Doppio Sopr'il Soggetto, BWV 1077
13. O Herzensangst, O Bangigkeit und Zagen!, BWV 400
14. Nicht So Traurig, Nicht So Sehr, BWV 384
15. Dir, Dir Jehova, Will Ich Singen. BWV 452
16. Prelude In C Major, BWV 939
17. Fugue In C Major, BWV 952
18. Was Betruebst Du Dich, Mein Herze, BWV 423
19. Vergiss Mein Nicht, Mein Allerliebster Gott, BWV 505
20-22. Wer Nur Den Lieben Gott Laest Walten, BWV 691, 434 & 690
23-28. Capriccio Sopra La Lontananza Del Suo Fratello Dilettissimo, BWV 992
29-30. Prelude & Fugue: In A Minor, BWV 895
31-33. Suite In F Minor, BWV 823
34-35. Prelude & Fughetta In D Minor, BWV 899
Agnes Giebel, soprano / Marie Luise Gilles, alto
Bert van t'Hoff, tenor / Peter Christoph Runge, bass
Anner Bylsma, cello
Leonhardt-Consort / Gustav Leonhardt, harpsichord / organ

CD 9- 47:08
Jean-Joseph Cassanea de Mondonville
Pieces De Clavesin En Sonates
Sonata No. 1 in G Minor
01. I Overture
02. II Aria
03. III Giga
Sonata No. 2 in F Major
04. I Allegro
05. II Aria
06. III Giga
Sonata No. 3 in B flat Major
07. I Allegro
08. II Aria
09. III Allegro
Sonata No. 4 in C Major
10. I Allegro
11. II Aria
12. III Giga
Sonata No. 5 in G Major
13. I Allegro
14. II Aria
15. III Allegro
Sonata No.6 in A Major
16. I Concerto
17. II Larghetto
18. III Giga
Lars Fryden, violin
Gustav Leonhardt, harpsichord

CD 10- 49:06
Francois Couperin
Messe a L'usage Ordinaire Des Paroisses
01. Offertoire Sur Les Grands Jeux
L'Art De Toucher Le Clavecin
02-09. Preludes 1-8
Alessandro Poglietti
10. Ricercar Primi Toni
Nicolas de Grigny
11. Cromorne En Taille A Deux Parties
Jean-Philippe Rameau
Pieces De Clavecin
12. La Triomphante
13. L'Entretien Des Muses
14. Menuet In G Major - Menuet In G Minor
15. Les Tourbillons
16. Sarabande In A Major
17. La Villageoise
Anon.
18. Daphne
Anon. 17th-century
19. Resonet In Laudibus
Gustav Leonhardt, harpsichord / organ
CD 11- 52:28
Jean-Philippe Rameau
Pieces De Clavecin En Concerts
Premier Concert
01. I La Coulicam (Kouli Khan)
02. II La Livri
03. III La Vezinet
Deuxieme Concert
04. I La Laborde
05. II La Boucon
06. III L'Agacante
07. IV Menuet I - Menuet II
Troisieme Concert
08. I La La Popliniere (Popliniere)
09. II La Timide
10. III Tambourin - Tambourin En Rondeau
Quatrieme Concert
11. I La Pantomime
12. II L'Indiscrete
13. III La Rameau
Cinquieme Concert
11. I La Forqueray
12. II La Cupis
13. III La Marais
Frans Brueggen, transverse flute
Sigiswald Kuijken, violin / Wieland Kuijken, viola da gamba
Gustav Leonhardt, harpsichord

CD 12- 50:32
Henry Purcell
01.Rejoice In The Lord Alway, Z49
02. Blow Up The Trumpet In Sion, Z10
03. O God, Thou Art My God, Z35
04. Chacony In G Minor, Z730
05. O God, Thou Hast Cast Us Out, Z36
06. My Heart Js Inditing, Z30
07. Remember Not, Lord, Our Offences, Z50
James Bowman, countertenor (01-03, 05 & 06)
Nigel Rogers Tenor (01-03, 05 & 06)
Max Van Egmond, bass (01-03, 05 & 06)
The Choir Of King's College, Cambridge
Leonhardt-Consort / Gustav Leonhardt, harpsichord / organ

CD 13- 57:31
Henry Purcell
01.Overture In D Minor, Z771
02. Pavan In B Flat Major, Z750
03. Ground In D Minor, Z222
04. Overture (With Suite) In G Major, Z770
05. Pavan In A Minor, Z749
06. Fantasia (Chaconne): Three Parts On A Ground In D Major, Z731
07. Overture In G Minor, Z772
08. Suite In D Major, Z667
09. Pavan Of Four Parts In G Minor, Z752
10. Sefauchi's Farewell In D Minor, Z656
11. A New Ground In E Minor, Z682
12. Sonata In A Minor, Z804
13. Fantasia A 4 No. 7
14. Fly Swift, Ye Hours
15. The Father Brave
16. Return, Revolting Rebels
Max Van Egmond, bass (14-16)
Bruegen-Consort (13)
Leonhardt-Consort / Gustav Leonhardt, harpsichord / organ

CD 14- 70:21
John Dowland
01. Pavan In C Major
William Lawes
02-04. Suite: No. 1 In C Minor
05-06. Suite No. 2 In F Major
07-09. Sonata No.7 In D Minor
10. In Nomine (From Suite No. 3 In B flat Major)
John Coprario
11. Fantasia
12-14. Suite
William Byrd
15. Pavan
16. Galliard
17. Fantasia No. 2
18. Fantasia No. 3
Thomas Simpson
19. Ricercar, "Bonney Sweet Robin"
Thomas Lupo
20. Fantasia
Veronika Hampe, alto viol (18)
Leonhardt-Consort / Gustav Leonhardt, harpsichord / organ / bass viol

CD 15- 57:04
William Byrd
01-03. Pavan - Galliard - Miserere
Thomas Morley
04-05. Nancie - Fantasia
John Bull
06. Fantasia On Ut Re Mi Fa Sol La, "Hexachord Fantasia"
07. The Duchess Of Brunswick's Toy (Most Sweet And Fair)
John Dowland
Arr. William Randall mid-16th Century - 1604
08. Lachrimae
09. Galliard, "Can She Excuse My Wrongs"
Thomas Tomkins
10. Pavan
11. Gaillard
12. Sad Pavan For These Distracted Times
Orlando Gibbons
13. Pavan
Giles Fahnaby
14-15. Fantasia - Spagnioletta
William Tisdale Fl. Late 16th Century
16. Pavana Chromatica, "Mrs Katherin Tregians Pavan"
Anon.
17. A Toye
Leonhardt-Consort / Gustav Leonhardt, harpsichord / organ / virginal
CD 16- 77:42
Heinrich Ignaz Franz von Biber
Harmonia Artificiosa-Ariosa: Diversi Mode Accordata
01. Pars III
Mensa Sonora: Seu Musica Instrumentalis
02. Pars III
Fidicinium Sacro-Profanum
03. Sonata No. 3
04. Sonata No. 4
05. Sonata No. 5
06. Sonata No. 6
Georg Muffat
Armonico Tributo
07. Sonata No.2 In G Minor
Johann Rosenmuller
08. Sonata No.7 A 4
Samuel Scheidt
09. Paduan A 4
Johann Heinrich Schmelzer
Sacro-Profanus Concentus Musicus
10. Sonata No. 7 A 5
11. Souata No. 9 A 5
Leonhardt-Consort / Gustav Leonhardt, harpsichord / organ
CD 17- 50:36
Johann Jakob Froberger
01.Capriccio No. 2
02. Fantasia No. 3
03. Toccata No. 11, "Da Sonarsi Alla Levatione"
04. Ricercar No. 2
05. Canzona No. 2
06. Toccata No. 9
Suite No. 18
07. I Allemande
08. II Gigue
09. III Courante
10. IV Sarabande
11. Toccata No. 18
Suite No. 12
12. I Lamento Sopra La Dolorosa Perdita Della Real Maesta
Di Ferdinando IV, Re De Romani (Allemande) - Gigue
13. II Courante
14. III Sarabande
Gustav Leonhardt, organ / harpsichord
CD 18- 62:06
Johann Kuhnau
Musicalische Vorstellung Einiger Biblischer Historien
Musical Depiction Of Certain Biblical Stories
Representation Musicale De Quelques Histoires Bibliques
01-10. Sonata No. 1: Der Streit Zwischen David Und Goliath
The Combat Between David And Goliath
Le Combat Entre David Et Goliath
11-14. Sonata No. 2: Der Von David Vermittelst Der Music Curirte Saul
Saul Healed By David With The Help Of Music
Sauel Gueri Par David Grace A La Musique
15-23. Sonata No. 3: Jacobs Heyrath
The Marriage Of Jacob - Le Marriage De Jacob
Gustau L.Eonhabdt Orcan/Harpsichoro/Nafirotion
Gustav Leonhardt, organ / harpsichord / narration
CD 19- 48:46
Johann Kuhnau
Musicalische Vorstellung Einiger Biblischer Historien
Musical Depiction Of Certain Biblical Stories
Representation Musicale De Quelques Histoires Bibliques
01-04. Sonata No. 4: Der Todtkrancke Und Wieder Gesunde Hiskias
Hezekiah is Mortally ill And Restored To Health
Ezechias Moribond Et Recouvrant La Sante
05-12. Sonata No. 5: Der Heylanb Israelis, Gideon
Gideon, The Saviour Of Israel - Gedeon, Le Sauveur D'Israel
13-18. Sonata No. 6: Jacobs Tod Und Begraebniss
The Death And Burial Of Jacob - La Mort Et Les Funerailles De Jacob
Gustav Leonhardt, organ / harpsichord / narration
CD 20- 75:40
Johann Adam Reincken
01. An Den Wasserfluessen Babylon
Heinrich Scheidemann
02. Praeambulum In D Minor
Johann Sebastian Bach
03. Prelude & Fugue In D Minor, BWV 539
Georg Bohm
04-07. Suite No. 6 In E Flat Major
08-11. Suite No. 8 In F Minor
12-14. Suite No. 9 In F Minor
George Frideric Handel
15-19. Suite No. 8 In F Minor
Johann Christian Bach
20-22. Sonata In D Major, Op. 5 No. 2
Gustav Leonhardt, organ / harpsichord
CD 21- 49:22
Girolamo Frescobaldi
01. Toccata Settima
02. Toccata Undecima In C Major
03. Canzona Terza
04. Toccata In G Major
05. Fantasia Sesta Sopra Doi Soggetti
06-10. 5 Galliards
Francesco Turini
11. Sonata In A Minor
Giulio Caccini arr. Peter Philips
12. Amarilli Mia Bella
Biagio Marini
13. Balletto Secondo A Tre & A Quattro
Domenico Scarlatti
14. Sonata in A minor, Kk 3 (Presto)
15. Sonata in D minor, Kk 52 (Andante moderato)
16. Sonata in E major, Kk 215 (Andante)
17. Sonata in E major, Kk 216 (Allegro)
Leonhardt-Consort / Gustav Leonhardt, harpsichord
Logs EAC CD 1-7:

скрытый текст

Exact Audio Copy V0.99 prebeta 4 from 23. January 2008
EAC extraction logfile from 21. July 2010, 17:32
Gustav Leonhardt / J.S.Bach - Harpsichord concertos CD1
Used drive : PIONEER DVD-RW DVR-112D Adapter: 0 ID: 0
Read mode : Secure
Utilize accurate stream : Yes
Defeat audio cache : Yes
Make use of C2 pointers : No
Read offset correction : 48
Overread into Lead-In and Lead-Out : No
Fill up missing offset samples with silence : Yes
Delete leading and trailing silent blocks : No
Null samples used in CRC calculations : Yes
Used interface : Native Win32 interface for Win NT & 2000
Used output format : User Defined Encoder
Selected bitrate : 768 kBit/s
Quality : High
Add ID3 tag : No
Command line compressor : C:\Program Files\Exact Audio Copy\FLAC\FLAC.EXE
Additional command line options : -6 -V -T "ARTIST=%a" -T "TITLE=%t" -T "ALBUM=%g" -T "DATE=%y" -T "TRACKNUMBER=%n" -T "GENRE=%m" -T "COMMENT=%e" %s -o %d
TOC of the extracted CD
Track | Start | Length | Start sector | End sector
---------------------------------------------------------
1 | 0:00.00 | 8:48.70 | 0 | 39669
2 | 8:48.70 | 5:43.70 | 39670 | 65464
3 | 14:32.65 | 7:35.35 | 65465 | 99624
4 | 22:08.25 | 8:44.00 | 99625 | 138924
5 | 30:52.25 | 5:02.42 | 138925 | 161616
6 | 35:54.67 | 7:26.48 | 161617 | 195114
7 | 43:21.40 | 7:50.22 | 195115 | 230386
8 | 51:11.62 | 5:30.18 | 230387 | 255154
9 | 56:42.05 | 2:45.45 | 255155 | 267574
10 | 59:27.50 | 4:33.37 | 267575 | 288086
11 | 64:01.12 | 4:42.63 | 288087 | 309299
12 | 68:44.00 | 4:15.13 | 309300 | 328437
Range status and errors
Selected range
Filename N:\ANTHOLOGIES\Gustav Leonhardt Edition (21 CD) - Das Alte Werk\CD 1 - J.S.Bach - Harpsichord concertos I\Gustav Leonhardt - J.S.Bach - Harpsichord concertos CD1.wav
Peak level 98.5 %
Range quality 99.9 %
Copy CRC 7AAFC214
Copy OK
No errors occurred
AccurateRip summary
Track 1 accurately ripped (confidence 1) [4F95A8B7]
Track 2 accurately ripped (confidence 1) [10870622]
Track 3 accurately ripped (confidence 1) [E6227C51]
Track 4 accurately ripped (confidence 1) [9A2ADFC9]
Track 5 accurately ripped (confidence 1) [54F3D9F5]
Track 6 accurately ripped (confidence 1) [A65DCC80]
Track 7 accurately ripped (confidence 1) [C407A08F]
Track 8 accurately ripped (confidence 1) [63750CBD]
Track 9 cannot be verified as accurate (confidence 1) [68F164BD], AccurateRip returned [D1530765]
Track 10 accurately ripped (confidence 1) [7C892671]
Track 11 accurately ripped (confidence 1) [43CA269B]
Track 12 accurately ripped (confidence 1) [C68699F8]
11 track(s) accurately ripped
1 track(s) could not be verified as accurate
Some tracks could not be verified as accurate
End of status report
Exact Audio Copy V0.99 prebeta 4 from 23. January 2008
EAC extraction logfile from 21. July 2010, 17:44
Gustav Leonhardt / J.S.Bach - Harpsichord concertos CD2
Used drive : PIONEER DVD-RW DVR-112D Adapter: 0 ID: 0
Read mode : Secure
Utilize accurate stream : Yes
Defeat audio cache : Yes
Make use of C2 pointers : No
Read offset correction : 48
Overread into Lead-In and Lead-Out : No
Fill up missing offset samples with silence : Yes
Delete leading and trailing silent blocks : No
Null samples used in CRC calculations : Yes
Used interface : Native Win32 interface for Win NT & 2000
Used output format : User Defined Encoder
Selected bitrate : 768 kBit/s
Quality : High
Add ID3 tag : No
Command line compressor : C:\Program Files\Exact Audio Copy\FLAC\FLAC.EXE
Additional command line options : -6 -V -T "ARTIST=%a" -T "TITLE=%t" -T "ALBUM=%g" -T "DATE=%y" -T "TRACKNUMBER=%n" -T "GENRE=%m" -T "COMMENT=%e" %s -o %d
TOC of the extracted CD
Track | Start | Length | Start sector | End sector
---------------------------------------------------------
1 | 0:00.00 | 3:15.45 | 0 | 14669
2 | 3:15.45 | 2:16.65 | 14670 | 24934
3 | 5:32.35 | 4:02.02 | 24935 | 43086
4 | 9:34.37 | 6:54.08 | 43087 | 74144
5 | 16:28.45 | 4:07.17 | 74145 | 92686
6 | 20:35.62 | 5:14.50 | 92687 | 116286
7 | 25:50.37 | 3:36.03 | 116287 | 132489
8 | 29:26.40 | 6:19.07 | 132490 | 160921
9 | 35:45.47 | 3:35.68 | 160922 | 177114
10 | 39:21.40 | 6:04.27 | 177115 | 204441
11 | 45:25.67 | 1:05.70 | 204442 | 209386
12 | 46:31.62 | 3:50.43 | 209387 | 226679
13 | 50:22.30 | 5:01.70 | 226680 | 249324
14 | 55:24.25 | 5:09.15 | 249325 | 272514
15 | 60:33.40 | 3:53.08 | 272515 | 289997
Range status and errors
Selected range
Filename N:\ANTHOLOGIES\Gustav Leonhardt Edition (21 CD) - Das Alte Werk\CD 2 - J.S.Bach - Harpsichord concertos II\Gustav Leonhardt - J.S.Bach - Harpsichord concertos CD2.wav
Peak level 99.7 %
Range quality 100.0 %
Copy CRC E1895183
Copy OK
No errors occurred
AccurateRip summary
Track 1 accurately ripped (confidence 1) [B5A9811E]
Track 2 accurately ripped (confidence 1) [089C0E6D]
Track 3 accurately ripped (confidence 1) [106EF773]
Track 4 accurately ripped (confidence 1) [D06D3223]
Track 5 accurately ripped (confidence 1) [2710090F]
Track 6 accurately ripped (confidence 1) [A01B5840]
Track 7 accurately ripped (confidence 1) [9A70B7F5]
Track 8 accurately ripped (confidence 1) [9317A024]
Track 9 accurately ripped (confidence 1) [60E5E0DD]
Track 10 accurately ripped (confidence 1) [EA5DA26D]
Track 11 accurately ripped (confidence 1) [D5178A71]
Track 12 accurately ripped (confidence 1) [7AC75DF5]
Track 13 accurately ripped (confidence 1) [3713C847]
Track 14 accurately ripped (confidence 1) [9EB5CAEA]
Track 15 accurately ripped (confidence 1) [68D5543A]
All tracks accurately ripped
End of status report
Exact Audio Copy V0.99 prebeta 4 from 23. January 2008
EAC extraction logfile from 21. July 2010, 18:46
Gustav Leonhardt / J.S.Bach - Harpsichord concertos CD3
Used drive : PIONEER DVD-RW DVR-112D Adapter: 0 ID: 0
Read mode : Secure
Utilize accurate stream : Yes
Defeat audio cache : Yes
Make use of C2 pointers : No
Read offset correction : 48
Overread into Lead-In and Lead-Out : No
Fill up missing offset samples with silence : Yes
Delete leading and trailing silent blocks : No
Null samples used in CRC calculations : Yes
Used interface : Native Win32 interface for Win NT & 2000
Used output format : User Defined Encoder
Selected bitrate : 768 kBit/s
Quality : High
Add ID3 tag : No
Command line compressor : C:\Program Files\Exact Audio Copy\FLAC\FLAC.EXE
Additional command line options : -6 -V -T "ARTIST=%a" -T "TITLE=%t" -T "ALBUM=%g" -T "DATE=%y" -T "TRACKNUMBER=%n" -T "GENRE=%m" -T "COMMENT=%e" %s -o %d
TOC of the extracted CD
Track | Start | Length | Start sector | End sector
---------------------------------------------------------
1 | 0:00.00 | 7:24.12 | 0 | 33311
2 | 7:24.12 | 5:13.43 | 33312 | 56829
3 | 12:37.55 | 6:07.42 | 56830 | 84396
4 | 18:45.22 | 3:43.13 | 84397 | 101134
5 | 22:28.35 | 6:06.35 | 101135 | 128619
6 | 28:34.70 | 4:59.50 | 128620 | 151094
7 | 33:34.45 | 4:57.20 | 151095 | 173389
8 | 38:31.65 | 3:52.55 | 173390 | 190844
9 | 42:24.45 | 5:12.15 | 190845 | 214259
10 | 47:36.60 | 6:23.00 | 214260 | 242984
11 | 53:59.60 | 5:49.00 | 242985 | 269159
12 | 59:48.60 | 4:48.25 | 269160 | 290784
13 | 64:37.10 | 4:34.70 | 290785 | 311404
14 | 69:12.05 | 2:10.07 | 311405 | 321161
15 | 71:22.12 | 3:33.23 | 321162 | 337159
Range status and errors
Selected range
Filename N:\ANTHOLOGIES\Gustav Leonhardt Edition (21 CD) - Das Alte Werk\CD 3 - J.S.Bach - Harpsichord concertos III\Gustav Leonhardt - J.S.Bach - Harpsichord concertos CD3.wav
Peak level 96.7 %
Range quality 99.9 %
Copy CRC 4622D5AD
Copy OK
No errors occurred
AccurateRip summary
Track 1 accurately ripped (confidence 1) [9D5A7693]
Track 2 accurately ripped (confidence 1) [C84B8275]
Track 3 accurately ripped (confidence 1) [63B61DF9]
Track 4 accurately ripped (confidence 1) [25DA274D]
Track 5 accurately ripped (confidence 1) [EED913B3]
Track 6 accurately ripped (confidence 1) [C5755A01]
Track 7 accurately ripped (confidence 1) [DAE0F4CA]
Track 8 accurately ripped (confidence 1) [8D92B3B5]
Track 9 accurately ripped (confidence 1) [97200A84]
Track 10 accurately ripped (confidence 1) [33F575F5]
Track 11 accurately ripped (confidence 1) [397865A8]
Track 12 accurately ripped (confidence 1) [5FA8E81F]
Track 13 accurately ripped (confidence 1) [52D8F387]
Track 14 accurately ripped (confidence 1) [4B2B1BF7]
Track 15 accurately ripped (confidence 1) [6FD7C9B1]
All tracks accurately ripped
End of status report
Exact Audio Copy V0.99 prebeta 4 from 23. January 2008
EAC extraction logfile from 21. July 2010, 20:16
Gustav Leonhardt / J.S.Bach - Goldberg Variations
Used drive : PIONEER DVD-RW DVR-112D Adapter: 0 ID: 0
Read mode : Secure
Utilize accurate stream : Yes
Defeat audio cache : Yes
Make use of C2 pointers : No
Read offset correction : 48
Overread into Lead-In and Lead-Out : No
Fill up missing offset samples with silence : Yes
Delete leading and trailing silent blocks : No
Null samples used in CRC calculations : Yes
Used interface : Native Win32 interface for Win NT & 2000
Used output format : User Defined Encoder
Selected bitrate : 768 kBit/s
Quality : High
Add ID3 tag : No
Command line compressor : C:\Program Files\Exact Audio Copy\FLAC\FLAC.EXE
Additional command line options : -6 -V -T "ARTIST=%a" -T "TITLE=%t" -T "ALBUM=%g" -T "DATE=%y" -T "TRACKNUMBER=%n" -T "GENRE=%m" -T "COMMENT=%e" %s -o %d
TOC of the extracted CD
Track | Start | Length | Start sector | End sector
---------------------------------------------------------
1 | 0:00.00 | 2:23.67 | 0 | 10791
2 | 2:23.67 | 1:31.20 | 10792 | 17636
3 | 3:55.12 | 0:59.58 | 17637 | 22119
4 | 4:54.70 | 1:02.50 | 22120 | 26819
5 | 5:57.45 | 0:34.65 | 26820 | 29434
6 | 6:32.35 | 1:01.32 | 29435 | 34041
7 | 7:33.67 | 0:56.35 | 34042 | 38276
8 | 8:30.27 | 1:02.50 | 38277 | 42976
9 | 9:33.02 | 1:22.05 | 42977 | 49131
10 | 10:55.07 | 1:04.48 | 49132 | 53979
11 | 11:59.55 | 0:53.45 | 53980 | 57999
12 | 12:53.25 | 1:26.07 | 58000 | 64456
13 | 14:19.32 | 1:49.65 | 64457 | 72696
14 | 16:09.22 | 2:51.50 | 72697 | 85571
15 | 19:00.72 | 1:19.40 | 85572 | 91536
16 | 20:20.37 | 2:39.38 | 91537 | 103499
17 | 23:00.00 | 1:32.15 | 103500 | 110414
18 | 24:32.15 | 1:03.57 | 110415 | 115196
19 | 25:35.72 | 0:46.30 | 115197 | 118676
20 | 26:22.27 | 0:55.13 | 118677 | 122814
21 | 27:17.40 | 1:13.47 | 122815 | 128336
22 | 28:31.12 | 2:06.58 | 128337 | 137844
23 | 30:37.70 | 0:47.45 | 137845 | 141414
24 | 31:25.40 | 1:21.55 | 141415 | 147544
25 | 32:47.20 | 1:58.27 | 147545 | 156421
26 | 34:45.47 | 4:21.68 | 156422 | 176064
27 | 39:07.40 | 1:10.15 | 176065 | 181329
28 | 40:17.55 | 1:03.30 | 181330 | 186084
29 | 41:21.10 | 1:29.42 | 186085 | 192801
30 | 42:50.52 | 1:09.25 | 192802 | 198001
31 | 44:00.02 | 1:07.68 | 198002 | 203094
32 | 45:07.70 | 2:35.13 | 203095 | 214732
Range status and errors
Selected range
Filename N:\ANTHOLOGIES\Gustav Leonhardt Edition (21 CD) - Das Alte Werk\CD 4 - J.S.Bach - Goldberg Variations\Gustav Leonhardt - J.S.Bach - Goldberg Variations.wav
Peak level 97.7 %
Range quality 100.0 %
Copy CRC E2A5CB1F
Copy OK
No errors occurred
AccurateRip summary
Track 1 accurately ripped (confidence 1) [A7179D66]
Track 2 accurately ripped (confidence 1) [FB4884EA]
Track 3 accurately ripped (confidence 1) [D4CEC4E4]
Track 4 accurately ripped (confidence 1) [9F9865C4]
Track 5 accurately ripped (confidence 1) [EDA87906]
Track 6 accurately ripped (confidence 1) [9DA5918A]
Track 7 accurately ripped (confidence 1) [9AB2F6F5]
Track 8 accurately ripped (confidence 1) [6045F224]
Track 9 accurately ripped (confidence 1) [31C86C7F]
Track 10 accurately ripped (confidence 1) [99632AA0]
Track 11 accurately ripped (confidence 1) [01F53A77]
Track 12 accurately ripped (confidence 1) [0688047D]
Track 13 accurately ripped (confidence 1) [84113773]
Track 14 accurately ripped (confidence 1) [28F42419]
Track 15 accurately ripped (confidence 1) [3590BF8E]
Track 16 accurately ripped (confidence 1) [C38BE146]
Track 17 accurately ripped (confidence 1) [EA2314F5]
Track 18 accurately ripped (confidence 1) [7EC8375A]
Track 19 accurately ripped (confidence 1) [6D45C266]
Track 20 accurately ripped (confidence 1) [32190F9C]
Track 21 accurately ripped (confidence 1) [0220B780]
Track 22 accurately ripped (confidence 1) [B720120F]
Track 23 accurately ripped (confidence 1) [ED0AD93D]
Track 24 accurately ripped (confidence 1) [76EC8F2D]
Track 25 accurately ripped (confidence 1) [D47BCE82]
Track 26 accurately ripped (confidence 1) [3F7897A9]
Track 27 accurately ripped (confidence 1) [4CF5ED71]
Track 28 accurately ripped (confidence 1) [DEE90F5B]
Track 29 accurately ripped (confidence 1) [E8D0C8D5]
Track 30 accurately ripped (confidence 1) [59426BC5]
Track 31 accurately ripped (confidence 1) [D2C09BCF]
Track 32 accurately ripped (confidence 1) [8194739F]
All tracks accurately ripped
End of status report
Exact Audio Copy V0.99 prebeta 4 from 23. January 2008
EAC extraction logfile from 21. July 2010, 20:59
Gustav Leonhardt / J.S.Bach - Works for Harpsichord
Used drive : PIONEER DVD-RW DVR-112D Adapter: 0 ID: 0
Read mode : Secure
Utilize accurate stream : Yes
Defeat audio cache : Yes
Make use of C2 pointers : No
Read offset correction : 48
Overread into Lead-In and Lead-Out : No
Fill up missing offset samples with silence : Yes
Delete leading and trailing silent blocks : No
Null samples used in CRC calculations : Yes
Used interface : Native Win32 interface for Win NT & 2000
Used output format : User Defined Encoder
Selected bitrate : 768 kBit/s
Quality : High
Add ID3 tag : No
Command line compressor : C:\Program Files\Exact Audio Copy\FLAC\FLAC.EXE
Additional command line options : -6 -V -T "ARTIST=%a" -T "TITLE=%t" -T "ALBUM=%g" -T "DATE=%y" -T "TRACKNUMBER=%n" -T "GENRE=%m" -T "COMMENT=%e" %s -o %d
TOC of the extracted CD
Track | Start | Length | Start sector | End sector
---------------------------------------------------------
1 | 0:00.00 | 2:36.45 | 0 | 11744
2 | 2:36.45 | 2:51.32 | 11745 | 24601
3 | 5:28.02 | 5:57.58 | 24602 | 51434
4 | 11:25.60 | 3:34.65 | 51435 | 67549
5 | 15:00.50 | 6:51.62 | 67550 | 98436
6 | 21:52.37 | 3:30.00 | 98437 | 114186
7 | 25:22.37 | 3:50.45 | 114187 | 131481
8 | 29:13.07 | 2:41.68 | 131482 | 143624
9 | 31:55.00 | 2:19.62 | 143625 | 154111
10 | 34:14.62 | 3:36.08 | 154112 | 170319
11 | 37:50.70 | 2:22.37 | 170320 | 181006
12 | 40:13.32 | 2:58.60 | 181007 | 194416
13 | 43:12.17 | 2:25.28 | 194417 | 205319
14 | 45:37.45 | 2:07.70 | 205320 | 214914
15 | 47:45.40 | 1:01.55 | 214915 | 219544
16 | 48:47.20 | 2:52.47 | 219545 | 232491
17 | 51:39.67 | 3:14.35 | 232492 | 247076
18 | 54:54.27 | 8:36.03 | 247077 | 285779
19 | 63:30.30 | 3:36.67 | 285780 | 302046
20 | 67:07.22 | 4:13.57 | 302047 | 321078
Range status and errors
Selected range
Filename N:\ANTHOLOGIES\Gustav Leonhardt Edition (21 CD) - Das Alte Werk\CD 5 - J.S.Bach - Harpsichord Works\Gustav Leonhardt - J.S.Bach - Works for Harpsichord.wav
Peak level 63.0 %
Range quality 99.9 %
Copy CRC 494C416A
Copy OK
No errors occurred
AccurateRip summary
Track 1 accurately ripped (confidence 1) [D8560C13]
Track 2 accurately ripped (confidence 1) [0566598A]
Track 3 accurately ripped (confidence 1) [A9606601]
Track 4 accurately ripped (confidence 1) [BA4DE009]
Track 5 accurately ripped (confidence 1) [4C8CDCCA]
Track 6 accurately ripped (confidence 1) [2774E2F3]
Track 7 accurately ripped (confidence 1) [52EA4424]
Track 8 accurately ripped (confidence 1) [3FB3AEC6]
Track 9 accurately ripped (confidence 1) [E552C337]
Track 10 accurately ripped (confidence 1) [F8366F9B]
Track 11 accurately ripped (confidence 1) [CE75408F]
Track 12 accurately ripped (confidence 1) [321D1114]
Track 13 accurately ripped (confidence 1) [56ACA6F5]
Track 14 accurately ripped (confidence 1) [36C79D73]
Track 15 accurately ripped (confidence 1) [69FEECC4]
Track 16 accurately ripped (confidence 1) [5239967B]
Track 17 accurately ripped (confidence 1) [6EB3B6B5]
Track 18 accurately ripped (confidence 1) [B974EC4E]
Track 19 accurately ripped (confidence 1) [29B56D80]
Track 20 accurately ripped (confidence 1) [F3CC4566]
All tracks accurately ripped
End of status report
Exact Audio Copy V0.99 prebeta 4 from 23. January 2008
EAC extraction logfile from 21. July 2010, 21:19
Leonhardt - Fryden / Bach - Violin Sonatas - CD 1
Used drive : PIONEER DVD-RW DVR-112D Adapter: 0 ID: 0
Read mode : Secure
Utilize accurate stream : Yes
Defeat audio cache : Yes
Make use of C2 pointers : No
Read offset correction : 48
Overread into Lead-In and Lead-Out : No
Fill up missing offset samples with silence : Yes
Delete leading and trailing silent blocks : No
Null samples used in CRC calculations : Yes
Used interface : Native Win32 interface for Win NT & 2000
Used output format : User Defined Encoder
Selected bitrate : 768 kBit/s
Quality : High
Add ID3 tag : No
Command line compressor : C:\Program Files\Exact Audio Copy\FLAC\FLAC.EXE
Additional command line options : -6 -V -T "ARTIST=%a" -T "TITLE=%t" -T "ALBUM=%g" -T "DATE=%y" -T "TRACKNUMBER=%n" -T "GENRE=%m" -T "COMMENT=%e" %s -o %d
TOC of the extracted CD
Track | Start | Length | Start sector | End sector
---------------------------------------------------------
1 | 0:00.00 | 3:29.62 | 0 | 15736
2 | 3:29.62 | 3:05.73 | 15737 | 29684
3 | 6:35.60 | 3:20.70 | 29685 | 44754
4 | 9:56.55 | 2:41.32 | 44755 | 56861
5 | 12:38.12 | 3:24.28 | 56862 | 72189
6 | 16:02.40 | 3:28.47 | 72190 | 87836
7 | 19:31.12 | 3:13.38 | 87837 | 102349
8 | 22:44.50 | 3:27.72 | 102350 | 117946
9 | 26:12.47 | 4:21.25 | 117947 | 137546
10 | 30:33.72 | 2:59.10 | 137547 | 150981
11 | 33:33.07 | 4:48.53 | 150982 | 172634
12 | 38:21.60 | 3:38.24 | 172635 | 189008
Range status and errors
Selected range
Filename N:\ANTHOLOGIES\Gustav Leonhardt Edition (21 CD) - Das Alte Werk\CD 6 - J.S.Bach - Violin Sonatas (1)\Leonhardt - Fryden - Bach - Violin Sonatas - CD 1.wav
Peak level 97.1 %
Range quality 100.0 %
Copy CRC FF91FB20
Copy OK
No errors occurred
AccurateRip summary
Track 1 accurately ripped (confidence 1) [3C3F0070]
Track 2 accurately ripped (confidence 1) [6A9A7D82]
Track 3 accurately ripped (confidence 1) [6D876B68]
Track 4 accurately ripped (confidence 1) [F37A5C21]
Track 5 accurately ripped (confidence 1) [94FBF7D8]
Track 6 accurately ripped (confidence 1) [EC3D81B7]
Track 7 accurately ripped (confidence 1) [B376CE83]
Track 8 accurately ripped (confidence 1) [4DBA5AF9]
Track 9 accurately ripped (confidence 1) [2E32880A]
Track 10 accurately ripped (confidence 1) [17AD1336]
Track 11 accurately ripped (confidence 1) [59CA552B]
Track 12 accurately ripped (confidence 1) [ED24E5AA]
All tracks accurately ripped
End of status report
Exact Audio Copy V0.99 prebeta 4 from 23. January 2008
EAC extraction logfile from 21. July 2010, 21:48
Leonhardt - Fryden / J.S.Bach - Violin Sonatas - CD 2
Used drive : PIONEER DVD-RW DVR-112D Adapter: 0 ID: 0
Read mode : Secure
Utilize accurate stream : Yes
Defeat audio cache : Yes
Make use of C2 pointers : No
Read offset correction : 48
Overread into Lead-In and Lead-Out : No
Fill up missing offset samples with silence : Yes
Delete leading and trailing silent blocks : No
Null samples used in CRC calculations : Yes
Used interface : Native Win32 interface for Win NT & 2000
Used output format : User Defined Encoder
Selected bitrate : 768 kBit/s
Quality : High
Add ID3 tag : No
Command line compressor : C:\Program Files\Exact Audio Copy\FLAC\FLAC.EXE
Additional command line options : -6 -V -T "ARTIST=%a" -T "TITLE=%t" -T "ALBUM=%g" -T "DATE=%y" -T "TRACKNUMBER=%n" -T "GENRE=%m" -T "COMMENT=%e" %s -o %d
TOC of the extracted CD
Track | Start | Length | Start sector | End sector
---------------------------------------------------------
1 | 0:00.00 | 2:27.02 | 0 | 11026
2 | 2:27.02 | 4:26.68 | 11027 | 31044
3 | 6:53.70 | 3:28.70 | 31045 | 46714
4 | 10:22.65 | 2:34.62 | 46715 | 58326
5 | 12:57.52 | 6:16.35 | 58327 | 86561
6 | 19:14.12 | 3:26.70 | 86562 | 102081
7 | 22:41.07 | 3:18.68 | 102082 | 116999
8 | 26:00.00 | 2:40.00 | 117000 | 128999
9 | 28:40.00 | 3:52.12 | 129000 | 146411
10 | 32:32.12 | 1:45.43 | 146412 | 154329
11 | 34:17.55 | 2:34.00 | 154330 | 165879
12 | 36:51.55 | 3:23.07 | 165880 | 181111
13 | 40:14.62 | 3:23.50 | 181112 | 196386
Range status and errors
Selected range
Filename N:\ANTHOLOGIES\Gustav Leonhardt Edition (21 CD) - Das Alte Werk\CD 7 - J.S.Bach - Violin Sonatas (2)\Leonhardt - Fryden - J.S.Bach - Violin Sonatas - CD 2.wav
Peak level 100.0 %
Range quality 100.0 %
Copy CRC E5115EB5
Copy OK
No errors occurred
AccurateRip summary
Track 1 accurately ripped (confidence 1) [8E47FEAD]
Track 2 accurately ripped (confidence 1) [9CA15F2C]
Track 3 accurately ripped (confidence 1) [C97C71FD]
Track 4 accurately ripped (confidence 1) [23065E69]
Track 5 accurately ripped (confidence 1) [9FDE579C]
Track 6 accurately ripped (confidence 1) [77A5C756]
Track 7 accurately ripped (confidence 1) [15B607C7]
Track 8 accurately ripped (confidence 1) [81D59C57]
Track 9 accurately ripped (confidence 1) [B225478F]
Track 10 accurately ripped (confidence 1) [5217D192]
Track 11 accurately ripped (confidence 1) [AF712D4C]
Track 12 accurately ripped (confidence 1) [09E368B1]
Track 13 accurately ripped (confidence 1) [65D69875]
All tracks accurately ripped
End of status report
Logs EAC CD 8-14:

скрытый текст

Exact Audio Copy V0.99 prebeta 4 from 23. January 2008
EAC extraction logfile from 21. July 2010, 22:35
Leonhardt-Consort et al / J.S.Bach - Quodlibet, Canons, Songs, Chorales and Keyboard Works
Used drive : PIONEER DVD-RW DVR-112D Adapter: 0 ID: 0
Read mode : Secure
Utilize accurate stream : Yes
Defeat audio cache : Yes
Make use of C2 pointers : No
Read offset correction : 48
Overread into Lead-In and Lead-Out : No
Fill up missing offset samples with silence : Yes
Delete leading and trailing silent blocks : No
Null samples used in CRC calculations : Yes
Used interface : Native Win32 interface for Win NT & 2000
Used output format : User Defined Encoder
Selected bitrate : 768 kBit/s
Quality : High
Add ID3 tag : No
Command line compressor : C:\Program Files\Exact Audio Copy\FLAC\FLAC.EXE
Additional command line options : -6 -V -T "ARTIST=%a" -T "TITLE=%t" -T "ALBUM=%g" -T "DATE=%y" -T "TRACKNUMBER=%n" -T "GENRE=%m" -T "COMMENT=%e" %s -o %d
TOC of the extracted CD
Track | Start | Length | Start sector | End sector
---------------------------------------------------------
1 | 0:00.00 | 0:48.17 | 0 | 3616
2 | 0:48.17 | 9:40.20 | 3617 | 47136
3 | 10:28.37 | 1:28.63 | 47137 | 53799
4 | 11:57.25 | 1:08.17 | 53800 | 58916
5 | 13:05.42 | 3:19.30 | 58917 | 73871
6 | 16:24.72 | 0:53.28 | 73872 | 77874
7 | 17:18.25 | 0:34.37 | 77875 | 80461
8 | 17:52.62 | 0:42.05 | 80462 | 83616
9 | 18:34.67 | 1:20.45 | 83617 | 89661
10 | 19:55.37 | 4:18.38 | 89662 | 109049
11 | 24:14.00 | 1:19.62 | 109050 | 115036
12 | 25:33.62 | 1:15.63 | 115037 | 120724
13 | 26:49.50 | 1:46.40 | 120725 | 128714
14 | 28:36.15 | 2:26.72 | 128715 | 139736
15 | 31:03.12 | 2:51.25 | 139737 | 152586
16 | 33:54.37 | 0:39.13 | 152587 | 155524
17 | 34:33.50 | 2:11.37 | 155525 | 165386
18 | 36:45.12 | 3:19.25 | 165387 | 180336
19 | 40:04.37 | 1:40.00 | 180337 | 187836
20 | 41:44.37 | 1:53.65 | 187837 | 196376
21 | 43:38.27 | 2:59.73 | 196377 | 209874
22 | 46:38.25 | 2:01.40 | 209875 | 218989
23 | 48:39.65 | 2:33.62 | 218990 | 230526
24 | 51:13.52 | 2:06.65 | 230527 | 240041
25 | 53:20.42 | 2:59.30 | 240042 | 253496
26 | 56:19.72 | 1:04.55 | 253497 | 258351
27 | 57:24.52 | 1:23.55 | 258352 | 264631
28 | 58:48.32 | 2:51.30 | 264632 | 277486
29 | 61:39.62 | 0:53.58 | 277487 | 281519
30 | 62:33.45 | 1:55.17 | 281520 | 290161
31 | 64:28.62 | 2:19.68 | 290162 | 300654
32 | 66:48.55 | 2:26.65 | 300655 | 311669
33 | 69:15.45 | 1:50.17 | 311670 | 319936
34 | 71:05.62 | 1:37.25 | 319937 | 327236
35 | 72:43.12 | 1:01.55 | 327237 | 331866
Range status and errors
Selected range
Filename N:\ANTHOLOGIES\Gustav Leonhardt Edition (21 CD) - Das Alte Werk\CD 8 - J.S.Bach - Quodlibet, Canons, Songs, Chorales\Leonhardt-Consort et al - J.S.Bach - Quodlibet, Canons, Songs, Chorales and Keyboard Works.wav
Peak level 100.0 %
Range quality 100.0 %
Copy CRC 8B0AC0CF
Copy OK
No errors occurred
AccurateRip summary
Track 1 accurately ripped (confidence 1) [B01961B3]
Track 2 accurately ripped (confidence 1) [CFF55ADE]
Track 3 accurately ripped (confidence 1) [30A63191]
Track 4 accurately ripped (confidence 1) [0E0F6100]
Track 5 accurately ripped (confidence 1) [B36B2F6C]
Track 6 accurately ripped (confidence 1) [0C4676FE]
Track 7 accurately ripped (confidence 1) [13AF25DD]
Track 8 accurately ripped (confidence 1) [56743111]
Track 9 accurately ripped (confidence 1) [A7184187]
Track 10 accurately ripped (confidence 1) [1894E73A]
Track 11 accurately ripped (confidence 1) [B88FD7E4]
Track 12 accurately ripped (confidence 1) [1EDBA7BE]
Track 13 accurately ripped (confidence 1) [74AD4C6D]
Track 14 accurately ripped (confidence 1) [1E4D893C]
Track 15 accurately ripped (confidence 1) [F4290119]
Track 16 accurately ripped (confidence 1) [ECBF610E]
Track 17 accurately ripped (confidence 1) [1CD094EF]
Track 18 accurately ripped (confidence 1) [D1FFA795]
Track 19 accurately ripped (confidence 1) [BC05E2A2]
Track 20 accurately ripped (confidence 1) [F22CE7F3]
Track 21 accurately ripped (confidence 1) [4C40F3B8]
Track 22 accurately ripped (confidence 1) [0D927ADC]
Track 23 accurately ripped (confidence 1) [F60AA5B2]
Track 24 accurately ripped (confidence 1) [0390CA95]
Track 25 accurately ripped (confidence 1) [B05EABEC]
Track 26 accurately ripped (confidence 1) [3879F69D]
Track 27 accurately ripped (confidence 1) [0800C084]
Track 28 accurately ripped (confidence 1) [7FC4470E]
Track 29 accurately ripped (confidence 1) [A817EAC2]
Track 30 accurately ripped (confidence 1) [B2C5A2E8]
Track 31 accurately ripped (confidence 1) [8EE79159]
Track 32 accurately ripped (confidence 1) [3274EC29]
Track 33 accurately ripped (confidence 1) [707CCA2E]
Track 34 accurately ripped (confidence 1) [6204C220]
Track 35 accurately ripped (confidence 1) [D1DAFC5F]
All tracks accurately ripped
End of status report
Exact Audio Copy V0.99 prebeta 4 from 23. January 2008
EAC extraction logfile from 21. July 2010, 23:11
Gustav Leonhardt & Lars Fryden / Mondonville - Pieces de clavecin en sonates
Used drive : PIONEER DVD-RW DVR-112D Adapter: 0 ID: 0
Read mode : Secure
Utilize accurate stream : Yes
Defeat audio cache : Yes
Make use of C2 pointers : No
Read offset correction : 48
Overread into Lead-In and Lead-Out : No
Fill up missing offset samples with silence : Yes
Delete leading and trailing silent blocks : No
Null samples used in CRC calculations : Yes
Used interface : Native Win32 interface for Win NT & 2000
Used output format : User Defined Encoder
Selected bitrate : 768 kBit/s
Quality : High
Add ID3 tag : No
Command line compressor : C:\Program Files\Exact Audio Copy\FLAC\FLAC.EXE
Additional command line options : -6 -V -T "ARTIST=%a" -T "TITLE=%t" -T "ALBUM=%g" -T "DATE=%y" -T "TRACKNUMBER=%n" -T "GENRE=%m" -T "COMMENT=%e" %s -o %d
TOC of the extracted CD
Track | Start | Length | Start sector | End sector
---------------------------------------------------------
1 | 0:00.00 | 2:57.27 | 0 | 13301
2 | 2:57.27 | 1:58.23 | 13302 | 22174
3 | 4:55.50 | 1:38.37 | 22175 | 29561
4 | 6:34.12 | 1:46.35 | 29562 | 37546
5 | 8:20.47 | 2:31.53 | 37547 | 48924
6 | 10:52.25 | 1:34.25 | 48925 | 55999
7 | 12:26.50 | 1:59.27 | 56000 | 64951
8 | 14:26.02 | 3:21.65 | 64952 | 80091
9 | 17:47.67 | 1:34.05 | 80092 | 87146
10 | 19:21.72 | 5:38.38 | 87147 | 112534
11 | 25:00.35 | 3:03.10 | 112535 | 126269
12 | 28:03.45 | 2:33.05 | 126270 | 137749
13 | 30:36.50 | 2:01.15 | 137750 | 146839
14 | 32:37.65 | 2:08.02 | 146840 | 156441
15 | 34:45.67 | 1:40.45 | 156442 | 163986
16 | 36:26.37 | 3:42.40 | 163987 | 180676
17 | 40:09.02 | 4:15.63 | 180677 | 199864
18 | 44:24.65 | 2:43.43 | 199865 | 212132
Range status and errors
Selected range
Filename N:\ANTHOLOGIES\Gustav Leonhardt Edition (21 CD) - Das Alte Werk\CD 9 - Mondonville - Pieces de clavecin en sonates\Gustav Leonhardt & Lars Fryden - Mondonville - Pieces de clavecin en sonates.wav
Peak level 79.5 %
Range quality 100.0 %
Copy CRC 14088402
Copy OK
No errors occurred
AccurateRip summary
Track 1 accurately ripped (confidence 1) [5E45F41E]
Track 2 accurately ripped (confidence 1) [4D235602]
Track 3 accurately ripped (confidence 1) [7D652031]
Track 4 accurately ripped (confidence 1) [F96D0E07]
Track 5 accurately ripped (confidence 1) [21B80A76]
Track 6 accurately ripped (confidence 1) [D3D0888D]
Track 7 accurately ripped (confidence 1) [6D97BD0B]
Track 8 accurately ripped (confidence 1) [5D2BAEE3]
Track 9 accurately ripped (confidence 1) [18C9BABE]
Track 10 accurately ripped (confidence 1) [A2AF281D]
Track 11 accurately ripped (confidence 1) [604F9545]
Track 12 accurately ripped (confidence 1) [AFA89398]
Track 13 accurately ripped (confidence 1) [D4B92799]
Track 14 accurately ripped (confidence 1) [57D06CB2]
Track 15 accurately ripped (confidence 1) [5256BC8C]
Track 16 accurately ripped (confidence 1) [0F591AE1]
Track 17 accurately ripped (confidence 1) [D1F237A4]
Track 18 accurately ripped (confidence 1) [F75B4D3D]
All tracks accurately ripped
End of status report
Exact Audio Copy V0.99 prebeta 4 from 23. January 2008
EAC extraction logfile from 23. July 2010, 12:00
Gustav Leonhardt / Keyboard Music by Couperin, Poglietti, Rameau
Used drive : PIONEER DVD-RW DVR-112D Adapter: 0 ID: 0
Read mode : Secure
Utilize accurate stream : Yes
Defeat audio cache : Yes
Make use of C2 pointers : No
Read offset correction : 48
Overread into Lead-In and Lead-Out : No
Fill up missing offset samples with silence : Yes
Delete leading and trailing silent blocks : No
Null samples used in CRC calculations : Yes
Used interface : Native Win32 interface for Win NT & 2000
Used output format : User Defined Encoder
Selected bitrate : 768 kBit/s
Quality : High
Add ID3 tag : No
Command line compressor : C:\Program Files\Exact Audio Copy\FLAC\FLAC.EXE
Additional command line options : -6 -V -T "ARTIST=%a" -T "TITLE=%t" -T "ALBUM=%g" -T "DATE=%y" -T "TRACKNUMBER=%n" -T "GENRE=%m" -T "COMMENT=%e" %s -o %d
TOC of the extracted CD
Track | Start | Length | Start sector | End sector
---------------------------------------------------------
1 | 0:00.00 | 8:46.12 | 0 | 39461
2 | 8:46.12 | 1:01.08 | 39462 | 44044
3 | 9:47.20 | 1:48.10 | 44045 | 52154
4 | 11:35.30 | 0:55.20 | 52155 | 56299
5 | 12:30.50 | 1:29.57 | 56300 | 63031
6 | 14:00.32 | 2:40.05 | 63032 | 75036
7 | 16:40.37 | 1:27.43 | 75037 | 81604
8 | 18:08.05 | 2:18.67 | 81605 | 92021
9 | 20:26.72 | 1:31.68 | 92022 | 98914
10 | 21:58.65 | 3:48.72 | 98915 | 116086
11 | 25:47.62 | 3:31.13 | 116087 | 131924
12 | 29:19.00 | 1:23.70 | 131925 | 138219
13 | 30:42.70 | 3:15.17 | 138220 | 152861
14 | 33:58.12 | 2:15.50 | 152862 | 163036
15 | 36:13.62 | 2:13.00 | 163037 | 173011
16 | 38:26.62 | 2:22.00 | 173012 | 183661
17 | 40:48.62 | 2:13.50 | 183662 | 193686
18 | 43:02.37 | 4:29.18 | 193687 | 213879
19 | 47:31.55 | 1:34.21 | 213880 | 220950
Range status and errors
Selected range
Filename N:\ANTHOLOGIES\Gustav Leonhardt Edition (21 CD) - Das Alte Werk\CD 10 - Couperin, Poglietti, Grigny, Rameau\Gustav Leonhardt - Keyboard Music by Couperin, Poglietti, Rameau.wav
Peak level 99.6 %
Range quality 100.0 %
Copy CRC 3ED55E7C
Copy OK
No errors occurred
AccurateRip summary
Track 1 accurately ripped (confidence 1) [5CADC6F2]
Track 2 accurately ripped (confidence 1) [53B78602]
Track 3 accurately ripped (confidence 1) [6AB982E1]
Track 4 accurately ripped (confidence 1) [42D44F68]
Track 5 accurately ripped (confidence 1) [374418FC]
Track 6 accurately ripped (confidence 1) [E21BA2B6]
Track 7 accurately ripped (confidence 1) [5D686E45]
Track 8 accurately ripped (confidence 1) [E0E5FEE7]
Track 9 accurately ripped (confidence 1) [9AC100FD]
Track 10 accurately ripped (confidence 1) [74FBCFB3]
Track 11 accurately ripped (confidence 1) [400DA73C]
Track 12 accurately ripped (confidence 1) [70A3D0D1]
Track 13 accurately ripped (confidence 1) [617918B7]
Track 14 accurately ripped (confidence 1) [4BD105B3]
Track 15 accurately ripped (confidence 1) [6EB8544C]
Track 16 accurately ripped (confidence 1) [E60087BA]
Track 17 accurately ripped (confidence 1) [C476B022]
Track 18 accurately ripped (confidence 1) [AC726B03]
Track 19 accurately ripped (confidence 1) [5148CDFA]
All tracks accurately ripped
End of status report
Exact Audio Copy V0.99 prebeta 4 from 23. January 2008
EAC extraction logfile from 23. July 2010, 13:00
Bruggen, Leonhardt, Kuijken / Rameau - Pieces de clavecin en concerts
Used drive : PIONEER DVD-RW DVR-112D Adapter: 0 ID: 0
Read mode : Secure
Utilize accurate stream : Yes
Defeat audio cache : Yes
Make use of C2 pointers : No
Read offset correction : 48
Overread into Lead-In and Lead-Out : No
Fill up missing offset samples with silence : Yes
Delete leading and trailing silent blocks : No
Null samples used in CRC calculations : Yes
Used interface : Native Win32 interface for Win NT & 2000
Used output format : User Defined Encoder
Selected bitrate : 768 kBit/s
Quality : High
Add ID3 tag : No
Command line compressor : C:\Program Files\Exact Audio Copy\FLAC\FLAC.EXE
Additional command line options : -6 -V -T "ARTIST=%a" -T "TITLE=%t" -T "ALBUM=%g" -T "DATE=%y" -T "TRACKNUMBER=%n" -T "GENRE=%m" -T "COMMENT=%e" %s -o %d
TOC of the extracted CD
Track | Start | Length | Start sector | End sector
---------------------------------------------------------
1 | 0:00.00 | 2:39.70 | 0 | 11994
2 | 2:39.70 | 2:46.00 | 11995 | 24444
3 | 5:25.70 | 2:49.10 | 24445 | 37129
4 | 8:15.05 | 3:57.27 | 37130 | 54931
5 | 12:12.32 | 3:40.63 | 54932 | 71494
6 | 15:53.20 | 2:33.22 | 71495 | 82991
7 | 18:26.42 | 4:49.20 | 82992 | 104686
8 | 23:15.62 | 3:10.15 | 104687 | 118951
9 | 26:26.02 | 6:34.03 | 118952 | 148504
10 | 33:00.05 | 2:28.65 | 148505 | 159669
11 | 35:28.70 | 3:14.72 | 159670 | 174291
12 | 38:43.67 | 1:29.10 | 174292 | 180976
13 | 40:13.02 | 3:27.63 | 180977 | 196564
14 | 43:40.65 | 2:24.52 | 196565 | 207416
15 | 46:05.42 | 4:28.03 | 207417 | 227519
16 | 50:33.45 | 1:54.68 | 227520 | 236137
Range status and errors
Selected range
Filename N:\ANTHOLOGIES\Gustav Leonhardt Edition (21 CD) - Das Alte Werk\CD 11 - Rameau - Pieces de clavecin en concerts\Bruggen, Leonhardt, Kuijken - Rameau - Pieces de clavecin en concerts.wav
Peak level 99.3 %
Range quality 100.0 %
Copy CRC 1F6E44A7
Copy OK
No errors occurred
AccurateRip summary
Track 1 not present in database
Track 2 not present in database
Track 3 not present in database
Track 4 not present in database
Track 5 not present in database
Track 6 not present in database
Track 7 not present in database
Track 8 not present in database
Track 9 not present in database
Track 10 not present in database
Track 11 not present in database
Track 12 not present in database
Track 13 not present in database
Track 14 not present in database
Track 15 not present in database
Track 16 not present in database
None of the tracks are present in the AccurateRip database
End of status report
Exact Audio Copy V0.99 prebeta 4 from 23. January 2008
EAC extraction logfile from 23. July 2010, 19:25
Purcell / Anthems · Instrumental Music · Songs - Leonhardt Consort, Brьggen Consort (1967 1968 1970 Teldec 1993) (Disc 1)
Used drive : PIONEER DVD-RW DVR-112D Adapter: 0 ID: 0
Read mode : Secure
Utilize accurate stream : Yes
Defeat audio cache : Yes
Make use of C2 pointers : No
Read offset correction : 48
Overread into Lead-In and Lead-Out : No
Fill up missing offset samples with silence : Yes
Delete leading and trailing silent blocks : No
Null samples used in CRC calculations : Yes
Used interface : Native Win32 interface for Win NT & 2000
Used output format : User Defined Encoder
Selected bitrate : 768 kBit/s
Quality : High
Add ID3 tag : No
Command line compressor : C:\Program Files\Exact Audio Copy\FLAC\FLAC.EXE
Additional command line options : -6 -V -T "ARTIST=%a" -T "TITLE=%t" -T "ALBUM=%g" -T "DATE=%y" -T "TRACKNUMBER=%n" -T "GENRE=%m" -T "COMMENT=%e" %s -o %d
TOC of the extracted CD
Track | Start | Length | Start sector | End sector
---------------------------------------------------------
1 | 0:00.00 | 8:58.70 | 0 | 40419
2 | 8:58.70 | 7:45.50 | 40420 | 75344
3 | 16:44.45 | 4:18.22 | 75345 | 94716
4 | 21:02.67 | 5:06.40 | 94717 | 117706
5 | 26:09.32 | 4:33.18 | 117707 | 138199
6 | 30:42.50 | 16:46.30 | 138200 | 213679
7 | 47:29.05 | 3:03.13 | 213680 | 227417
Range status and errors
Selected range
Filename N:\ANTHOLOGIES\Gustav Leonhardt Edition (21 CD) - Das Alte Werk\CD 12 - Purcell - Anthems, Instrumental Music, Songs\Purcell - Anthems · Instrumental Music · Songs - Leonhardt Consort, Brьggen Consort (1967 1968 1970 Teldec 1993) (Disc 1).wav
Peak level 98.4 %
Range quality 100.0 %
Copy CRC D93180C7
Copy OK
No errors occurred
AccurateRip summary
Track 1 accurately ripped (confidence 1) [D76E0BD9]
Track 2 accurately ripped (confidence 1) [09CF3C34]
Track 3 accurately ripped (confidence 1) [8DDBED32]
Track 4 accurately ripped (confidence 1) [44D2548B]
Track 5 accurately ripped (confidence 1) [C92DF177]
Track 6 accurately ripped (confidence 1) [96D377E6]
Track 7 accurately ripped (confidence 1) [DB2C1BA8]
All tracks accurately ripped
End of status report
Exact Audio Copy V0.99 prebeta 4 from 23. January 2008
EAC extraction logfile from 24. July 2010, 0:39
Henry Purcell / Anthems - Instrumental Music - Songs (CD 2)
Used drive : PIONEER DVD-RW DVR-112D Adapter: 0 ID: 0
Read mode : Secure
Utilize accurate stream : Yes
Defeat audio cache : Yes
Make use of C2 pointers : No
Read offset correction : 48
Overread into Lead-In and Lead-Out : No
Fill up missing offset samples with silence : Yes
Delete leading and trailing silent blocks : No
Null samples used in CRC calculations : Yes
Used interface : Native Win32 interface for Win NT & 2000
Used output format : User Defined Encoder
Selected bitrate : 768 kBit/s
Quality : High
Add ID3 tag : No
Command line compressor : C:\Program Files\Exact Audio Copy\FLAC\FLAC.EXE
Additional command line options : -6 -V -T "ARTIST=%a" -T "TITLE=%t" -T "ALBUM=%g" -T "DATE=%y" -T "TRACKNUMBER=%n" -T "GENRE=%m" -T "COMMENT=%e" %s -o %d
TOC of the extracted CD
Track | Start | Length | Start sector | End sector
---------------------------------------------------------
1 | 0:00.00 | 3:45.00 | 0 | 16874
2 | 3:45.00 | 3:14.62 | 16875 | 31486
3 | 6:59.62 | 2:04.13 | 31487 | 40799
4 | 9:04.00 | 7:40.12 | 40800 | 75311
5 | 16:44.12 | 3:42.00 | 75312 | 91961
6 | 20:26.12 | 4:41.20 | 91962 | 113056
7 | 25:07.32 | 3:36.43 | 113057 | 129299
8 | 28:44.00 | 4:41.62 | 129300 | 150436
9 | 33:25.62 | 4:37.00 | 150437 | 171211
10 | 38:02.62 | 1:16.13 | 171212 | 176924
11 | 39:19.00 | 2:40.50 | 176925 | 188974
12 | 41:59.50 | 6:06.12 | 188975 | 216436
13 | 48:05.62 | 3:37.00 | 216437 | 232711
14 | 51:42.62 | 6:22.15 | 232712 | 261376
15 | 58:05.02 | 1:31.25 | 261377 | 268226
16 | 59:36.27 | 1:19.06 | 268227 | 274157
Range status and errors
Selected range
Filename N:\ANTHOLOGIES\Gustav Leonhardt Edition (21 CD) - Das Alte Werk\CD 13 - Purcell - Anthems, Instrumental Music, Songs (II)\Henry Purcell - Anthems - Instrumental Music - Songs (CD 2).wav
Peak level 99.2 %
Range quality 100.0 %
Copy CRC EB404EE9
Copy OK
No errors occurred
AccurateRip summary
Track 1 accurately ripped (confidence 1) [6FA72C37]
Track 2 accurately ripped (confidence 1) [3A7C4DC0]
Track 3 accurately ripped (confidence 1) [C21857CD]
Track 4 accurately ripped (confidence 1) [0FB21B6C]
Track 5 accurately ripped (confidence 1) [DB5EC7C7]
Track 6 accurately ripped (confidence 1) [9D95DFE6]
Track 7 accurately ripped (confidence 1) [C057EB29]
Track 8 accurately ripped (confidence 1) [F9C6EEDD]
Track 9 accurately ripped (confidence 1) [8FEEA8CC]
Track 10 accurately ripped (confidence 1) [94416881]
Track 11 accurately ripped (confidence 1) [E14B0762]
Track 12 accurately ripped (confidence 1) [32ADE8DB]
Track 13 accurately ripped (confidence 1) [9D0E8285]
Track 14 accurately ripped (confidence 1) [16E5A5B9]
Track 15 accurately ripped (confidence 1) [F4882662]
Track 16 accurately ripped (confidence 1) [770F8048]
All tracks accurately ripped
End of status report
Exact Audio Copy V0.99 prebeta 4 from 23. January 2008
EAC extraction logfile from 24. July 2010, 0:54
Gustav Leonhardt / English Consort and Keyboard Music CD 1
Used drive : PIONEER DVD-RW DVR-112D Adapter: 0 ID: 0
Read mode : Secure
Utilize accurate stream : Yes
Defeat audio cache : Yes
Make use of C2 pointers : No
Read offset correction : 48
Overread into Lead-In and Lead-Out : No
Fill up missing offset samples with silence : Yes
Delete leading and trailing silent blocks : No
Null samples used in CRC calculations : Yes
Used interface : Native Win32 interface for Win NT & 2000
Used output format : User Defined Encoder
Selected bitrate : 768 kBit/s
Quality : High
Add ID3 tag : No
Command line compressor : C:\Program Files\Exact Audio Copy\FLAC\FLAC.EXE
Additional command line options : -6 -V -T "ARTIST=%a" -T "TITLE=%t" -T "ALBUM=%g" -T "DATE=%y" -T "TRACKNUMBER=%n" -T "GENRE=%m" -T "COMMENT=%e" %s -o %d
TOC of the extracted CD
Track | Start | Length | Start sector | End sector
---------------------------------------------------------
1 | 0:00.00 | 5:14.12 | 0 | 23561
2 | 5:14.12 | 4:59.03 | 23562 | 45989
3 | 10:13.15 | 4:09.37 | 45990 | 64701
4 | 14:22.52 | 3:34.15 | 64702 | 80766
5 | 17:56.67 | 4:26.35 | 80767 | 100751
6 | 22:23.27 | 1:59.25 | 100752 | 109701
7 | 24:22.52 | 4:14.13 | 109702 | 128764
8 | 28:36.65 | 1:53.52 | 128765 | 137291
9 | 30:30.42 | 1:59.33 | 137292 | 146249
10 | 32:30.00 | 5:23.12 | 146250 | 170486
11 | 37:53.12 | 3:15.40 | 170487 | 185151
12 | 41:08.52 | 3:01.50 | 185152 | 198776
13 | 44:10.27 | 1:44.25 | 198777 | 206601
14 | 45:54.52 | 1:57.35 | 206602 | 215411
15 | 47:52.12 | 5:08.68 | 215412 | 238579
16 | 53:01.05 | 1:30.07 | 238580 | 245336
17 | 54:31.12 | 5:26.50 | 245337 | 269836
18 | 59:57.62 | 3:24.15 | 269837 | 285151
19 | 63:22.02 | 3:14.73 | 285152 | 299774
20 | 66:37.00 | 3:44.49 | 299775 | 316623
Range status and errors
Selected range
Filename N:\ANTHOLOGIES\Gustav Leonhardt Edition (21 CD) - Das Alte Werk\CD 14 - English Consort & Keyboard Music (I)\Gustav Leonhardt - English Consort and Keyboard Music CD 1.wav
Peak level 99.7 %
Range quality 99.9 %
Copy CRC DE910280
Copy OK
No errors occurred
AccurateRip summary
Track 1 accurately ripped (confidence 1) [8A255338]
Track 2 accurately ripped (confidence 1) [F3DBF8E1]
Track 3 accurately ripped (confidence 1) [45769935]
Track 4 accurately ripped (confidence 1) [35A4F660]
Track 5 accurately ripped (confidence 1) [10419DF5]
Track 6 accurately ripped (confidence 1) [D3C333E3]
Track 7 accurately ripped (confidence 1) [372EAC48]
Track 8 accurately ripped (confidence 1) [60444C5B]
Track 9 accurately ripped (confidence 1) [BC48351B]
Track 10 accurately ripped (confidence 1) [F28430E5]
Track 11 accurately ripped (confidence 1) [DFEDED20]
Track 12 accurately ripped (confidence 1) [07E4CB6D]
Track 13 accurately ripped (confidence 1) [CCAEE54D]
Track 14 accurately ripped (confidence 1) [4CF94CF0]
Track 15 accurately ripped (confidence 1) [EF704FA0]
Track 16 accurately ripped (confidence 1) [7E75889D]
Track 17 accurately ripped (confidence 1) [F02ABF1F]
Track 18 accurately ripped (confidence 1) [55681581]
Track 19 accurately ripped (confidence 1) [9EDA2EAA]
Track 20 accurately ripped (confidence 1) [0318A98B]
All tracks accurately ripped
End of status report
Logs EAC CD 15-21:

скрытый текст

Exact Audio Copy V0.99 prebeta 4 from 23. January 2008
EAC extraction logfile from 24. July 2010, 1:04
Gustav Leonhardt / English Consort and Keyboard Music CD 2
Used drive : PIONEER DVD-RW DVR-112D Adapter: 0 ID: 0
Read mode : Secure
Utilize accurate stream : Yes
Defeat audio cache : Yes
Make use of C2 pointers : No
Read offset correction : 48
Overread into Lead-In and Lead-Out : No
Fill up missing offset samples with silence : Yes
Delete leading and trailing silent blocks : No
Null samples used in CRC calculations : Yes
Used interface : Native Win32 interface for Win NT & 2000
Used output format : User Defined Encoder
Selected bitrate : 768 kBit/s
Quality : High
Add ID3 tag : No
Command line compressor : C:\Program Files\Exact Audio Copy\FLAC\FLAC.EXE
Additional command line options : -6 -V -T "ARTIST=%a" -T "TITLE=%t" -T "ALBUM=%g" -T "DATE=%y" -T "TRACKNUMBER=%n" -T "GENRE=%m" -T "COMMENT=%e" %s -o %d
TOC of the extracted CD
Track | Start | Length | Start sector | End sector
---------------------------------------------------------
1 | 0:00.00 | 2:43.25 | 0 | 12249
2 | 2:43.25 | 1:27.45 | 12250 | 18819
3 | 4:10.70 | 2:42.17 | 18820 | 30986
4 | 6:53.12 | 4:06.48 | 30987 | 49484
5 | 10:59.60 | 5:36.27 | 49485 | 74711
6 | 16:36.12 | 6:17.63 | 74712 | 103049
7 | 22:54.00 | 0:59.72 | 103050 | 107546
8 | 23:53.72 | 6:21.68 | 107547 | 136189
9 | 30:15.65 | 2:39.00 | 136190 | 148114
10 | 32:54.65 | 2:32.10 | 148115 | 159524
11 | 35:27.00 | 1:02.07 | 159525 | 164181
12 | 36:29.07 | 3:35.43 | 164182 | 180349
13 | 40:04.50 | 2:55.12 | 180350 | 193486
14 | 42:59.62 | 5:01.68 | 193487 | 216129
15 | 48:01.55 | 2:22.72 | 216130 | 226851
16 | 50:24.52 | 5:28.28 | 226852 | 251479
17 | 55:53.05 | 1:11.16 | 251480 | 256820
Range status and errors
Selected range
Filename N:\ANTHOLOGIES\Gustav Leonhardt Edition (21 CD) - Das Alte Werk\CD 15 - English Consort & Keyboard Music (II)\Gustav Leonhardt - English Consort and Keyboard Music CD 2.wav
Peak level 73.4 %
Range quality 99.9 %
Copy CRC CC1B3879
Copy OK
No errors occurred
AccurateRip summary
Track 1 accurately ripped (confidence 1) [D77D648D]
Track 2 accurately ripped (confidence 1) [57CEE683]
Track 3 accurately ripped (confidence 1) [DC494472]
Track 4 accurately ripped (confidence 1) [1B5771E0]
Track 5 accurately ripped (confidence 1) [1E5CC274]
Track 6 accurately ripped (confidence 1) [E2358188]
Track 7 accurately ripped (confidence 1) [6050F0CF]
Track 8 accurately ripped (confidence 1) [B5143C25]
Track 9 accurately ripped (confidence 1) [7ECDB435]
Track 10 accurately ripped (confidence 1) [F6ED120A]
Track 11 accurately ripped (confidence 1) [DBFD2822]
Track 12 accurately ripped (confidence 1) [AB54A9BE]
Track 13 accurately ripped (confidence 1) [CCD49811]
Track 14 accurately ripped (confidence 1) [1BE5C47F]
Track 15 accurately ripped (confidence 1) [A7F5D647]
Track 16 accurately ripped (confidence 1) [E0F3731C]
Track 17 accurately ripped (confidence 1) [4D82DEDD]
All tracks accurately ripped
End of status report
Exact Audio Copy V0.99 prebeta 4 from 23. January 2008
EAC extraction logfile from 24. July 2010, 1:47
Leonhardt-Consort/Gustav Leonhardt / Consort Music by Biber, Muffat, Scheidt et al
Used drive : PIONEER DVD-RW DVR-112D Adapter: 0 ID: 0
Read mode : Secure
Utilize accurate stream : Yes
Defeat audio cache : Yes
Make use of C2 pointers : No
Read offset correction : 48
Overread into Lead-In and Lead-Out : No
Fill up missing offset samples with silence : Yes
Delete leading and trailing silent blocks : No
Null samples used in CRC calculations : Yes
Used interface : Native Win32 interface for Win NT & 2000
Used output format : User Defined Encoder
Selected bitrate : 768 kBit/s
Quality : High
Add ID3 tag : No
Command line compressor : C:\Program Files\Exact Audio Copy\FLAC\FLAC.EXE
Additional command line options : -6 -V -T "ARTIST=%a" -T "TITLE=%t" -T "ALBUM=%g" -T "DATE=%y" -T "TRACKNUMBER=%n" -T "GENRE=%m" -T "COMMENT=%e" %s -o %d
TOC of the extracted CD
Track | Start | Length | Start sector | End sector
---------------------------------------------------------
1 | 0:00.00 | 11:14.25 | 0 | 50574
2 | 11:14.25 | 7:01.62 | 50575 | 82211
3 | 18:16.12 | 5:12.43 | 82212 | 105654
4 | 23:28.55 | 6:48.32 | 105655 | 136286
5 | 30:17.12 | 3:41.63 | 136287 | 152924
6 | 33:59.00 | 7:43.65 | 152925 | 187714
7 | 41:42.65 | 13:00.35 | 187715 | 246249
8 | 54:43.25 | 9:42.40 | 246250 | 289939
9 | 64:25.65 | 5:29.10 | 289940 | 314624
10 | 69:55.00 | 3:36.50 | 314625 | 330874
11 | 73:31.50 | 4:10.47 | 330875 | 349671
Range status and errors
Selected range
Filename N:\ANTHOLOGIES\Gustav Leonhardt Edition (21 CD) - Das Alte Werk\CD 16 - Consort Music by Biber, Muffat, Scheidt et al\Leonhardt-Consort Gustav Leonhardt - Consort Music by Biber, Muffat, Scheidt et al.wav
Peak level 100.0 %
Range quality 100.0 %
Copy CRC 85790204
Copy OK
No errors occurred
AccurateRip summary
Track 1 accurately ripped (confidence 1) [8374A793]
Track 2 accurately ripped (confidence 1) [88BA4572]
Track 3 accurately ripped (confidence 1) [5B5C7E4A]
Track 4 accurately ripped (confidence 1) [660F9BD8]
Track 5 accurately ripped (confidence 1) [9B08AFEA]
Track 6 accurately ripped (confidence 1) [F3BDD1B1]
Track 7 accurately ripped (confidence 1) [EF4716F3]
Track 8 accurately ripped (confidence 1) [3289FC17]
Track 9 accurately ripped (confidence 1) [7A0820E9]
Track 10 accurately ripped (confidence 1) [3F659CA3]
Track 11 accurately ripped (confidence 1) [C72B8144]
All tracks accurately ripped
End of status report
Exact Audio Copy V0.99 prebeta 4 from 23. January 2008
EAC extraction logfile from 24. July 2010, 2:06
Gustav Leonhardt / Froberger - Keyboard Works
Used drive : PIONEER DVD-RW DVR-112D Adapter: 0 ID: 0
Read mode : Secure
Utilize accurate stream : Yes
Defeat audio cache : Yes
Make use of C2 pointers : No
Read offset correction : 48
Overread into Lead-In and Lead-Out : No
Fill up missing offset samples with silence : Yes
Delete leading and trailing silent blocks : No
Null samples used in CRC calculations : Yes
Used interface : Native Win32 interface for Win NT & 2000
Used output format : User Defined Encoder
Selected bitrate : 768 kBit/s
Quality : High
Add ID3 tag : No
Command line compressor : C:\Program Files\Exact Audio Copy\FLAC\FLAC.EXE
Additional command line options : -6 -V -T "ARTIST=%a" -T "TITLE=%t" -T "ALBUM=%g" -T "DATE=%y" -T "TRACKNUMBER=%n" -T "GENRE=%m" -T "COMMENT=%e" %s -o %d
TOC of the extracted CD
Track | Start | Length | Start sector | End sector
---------------------------------------------------------
1 | 0:00.00 | 4:52.00 | 0 | 21899
2 | 4:52.00 | 5:50.25 | 21900 | 48174
3 | 10:42.25 | 5:43.37 | 48175 | 73936
4 | 16:25.62 | 3:55.00 | 73937 | 91561
5 | 20:20.62 | 6:35.63 | 91562 | 121249
6 | 26:56.50 | 2:27.62 | 121250 | 132336
7 | 29:24.37 | 3:24.10 | 132337 | 147646
8 | 32:48.47 | 1:22.65 | 147647 | 153861
9 | 34:11.37 | 1:25.05 | 153862 | 160241
10 | 35:36.42 | 2:02.33 | 160242 | 169424
11 | 37:39.00 | 3:21.62 | 169425 | 184561
12 | 41:00.62 | 5:09.73 | 184562 | 207809
13 | 46:10.60 | 2:55.20 | 207810 | 220954
14 | 49:06.05 | 1:30.08 | 220955 | 227712
Range status and errors
Selected range
Filename N:\ANTHOLOGIES\Gustav Leonhardt Edition (21 CD) - Das Alte Werk\CD 17 - Froberger - Keyboard works\Gustav Leonhardt - Froberger - Keyboard Works.wav
Peak level 98.9 %
Range quality 99.9 %
Copy CRC 34D0F4F0
Copy OK
No errors occurred
AccurateRip summary
Track 1 accurately ripped (confidence 1) [2C36DE3A]
Track 2 accurately ripped (confidence 1) [2E83B1C0]
Track 3 accurately ripped (confidence 1) [A7582CE0]
Track 4 accurately ripped (confidence 1) [3AA640CE]
Track 5 accurately ripped (confidence 1) [CE705503]
Track 6 accurately ripped (confidence 1) [C5F0404F]
Track 7 accurately ripped (confidence 1) [9E902344]
Track 8 accurately ripped (confidence 1) [F67ABD8F]
Track 9 accurately ripped (confidence 1) [35C1E2C3]
Track 10 accurately ripped (confidence 1) [6393BE12]
Track 11 accurately ripped (confidence 1) [C0E0F515]
Track 12 accurately ripped (confidence 1) [DCE9B0F6]
Track 13 accurately ripped (confidence 1) [13031F9A]
Track 14 accurately ripped (confidence 1) [6CED032F]
All tracks accurately ripped
End of status report
Exact Audio Copy V0.99 prebeta 4 from 23. January 2008
EAC extraction logfile from 24. July 2010, 2:34
Gustav Leonhardt / Kuhnau - Musicalische Vorstellung I
Used drive : PIONEER DVD-RW DVR-112D Adapter: 0 ID: 0
Read mode : Secure
Utilize accurate stream : Yes
Defeat audio cache : Yes
Make use of C2 pointers : No
Read offset correction : 48
Overread into Lead-In and Lead-Out : No
Fill up missing offset samples with silence : Yes
Delete leading and trailing silent blocks : No
Null samples used in CRC calculations : Yes
Used interface : Native Win32 interface for Win NT & 2000
Used output format : User Defined Encoder
Selected bitrate : 768 kBit/s
Quality : High
Add ID3 tag : No
Command line compressor : C:\Program Files\Exact Audio Copy\FLAC\FLAC.EXE
Additional command line options : -6 -V -T "ARTIST=%a" -T "TITLE=%t" -T "ALBUM=%g" -T "DATE=%y" -T "TRACKNUMBER=%n" -T "GENRE=%m" -T "COMMENT=%e" %s -o %d
TOC of the extracted CD
Track | Start | Length | Start sector | End sector
---------------------------------------------------------
1 | 0:00.00 | 5:22.67 | 0 | 24216
2 | 5:22.67 | 1:50.53 | 24217 | 32519
3 | 7:13.45 | 2:54.72 | 32520 | 45641
4 | 10:08.42 | 1:20.25 | 45642 | 51666
5 | 11:28.67 | 0:29.38 | 51667 | 53879
6 | 11:58.30 | 0:32.70 | 53880 | 56349
7 | 12:31.25 | 0:58.07 | 56350 | 60706
8 | 13:29.32 | 1:24.48 | 60707 | 67054
9 | 14:54.05 | 1:33.17 | 67055 | 74046
10 | 16:27.22 | 1:36.65 | 74047 | 81311
11 | 18:04.12 | 3:59.58 | 81312 | 99294
12 | 22:03.70 | 9:23.70 | 99295 | 141589
13 | 31:27.65 | 4:04.40 | 141590 | 159929
14 | 35:32.30 | 2:17.45 | 159930 | 170249
15 | 37:50.00 | 5:41.22 | 170250 | 195846
16 | 43:31.22 | 3:19.18 | 195847 | 210789
17 | 46:50.40 | 3:57.37 | 210790 | 228601
18 | 50:48.02 | 0:47.23 | 228602 | 232149
19 | 51:35.25 | 1:16.40 | 232150 | 237889
20 | 52:51.65 | 4:10.15 | 237890 | 256654
21 | 57:02.05 | 2:09.25 | 256655 | 266354
22 | 59:11.30 | 1:33.15 | 266355 | 273344
23 | 60:44.45 | 1:22.02 | 273345 | 279496
Range status and errors
Selected range
Filename N:\ANTHOLOGIES\Gustav Leonhardt Edition (21 CD) - Das Alte Werk\CD 18 - Kuhnau - Musicalische Vorstellung (I)\Gustav Leonhardt - Kuhnau - Musicalische Vorstellung I.wav
Peak level 89.8 %
Range quality 100.0 %
Copy CRC D75C85C5
Copy OK
No errors occurred
AccurateRip summary
Track 1 accurately ripped (confidence 1) [AF115B69]
Track 2 accurately ripped (confidence 1) [08025DE2]
Track 3 accurately ripped (confidence 1) [A4202BBB]
Track 4 accurately ripped (confidence 1) [16381FBF]
Track 5 accurately ripped (confidence 1) [2A19B0B9]
Track 6 accurately ripped (confidence 1) [0ADE3D71]
Track 7 accurately ripped (confidence 1) [5AC14A95]
Track 8 accurately ripped (confidence 1) [C513B97A]
Track 9 accurately ripped (confidence 1) [3779E596]
Track 10 accurately ripped (confidence 1) [E2551C99]
Track 11 accurately ripped (confidence 1) [D4556CC0]
Track 12 accurately ripped (confidence 1) [32DBF905]
Track 13 accurately ripped (confidence 1) [A7D1BBB9]
Track 14 accurately ripped (confidence 1) [2FE22827]
Track 15 accurately ripped (confidence 1) [22B1EC98]
Track 16 accurately ripped (confidence 1) [05F18A9F]
Track 17 accurately ripped (confidence 1) [6E300198]
Track 18 accurately ripped (confidence 1) [7FA3EE5F]
Track 19 accurately ripped (confidence 1) [32E846C9]
Track 20 accurately ripped (confidence 1) [560175BD]
Track 21 accurately ripped (confidence 1) [28241B38]
Track 22 accurately ripped (confidence 1) [415DB7BB]
Track 23 accurately ripped (confidence 1) [FBBDE102]
All tracks accurately ripped
End of status report
Exact Audio Copy V0.99 prebeta 4 from 23. January 2008
EAC extraction logfile from 24. July 2010, 13:05
Gustav Leonhardt / Kuhnau - Musicalische Vorstellung II
Used drive : PIONEER DVD-RW DVR-112D Adapter: 0 ID: 0
Read mode : Secure
Utilize accurate stream : Yes
Defeat audio cache : Yes
Make use of C2 pointers : No
Read offset correction : 48
Overread into Lead-In and Lead-Out : No
Fill up missing offset samples with silence : Yes
Delete leading and trailing silent blocks : No
Null samples used in CRC calculations : Yes
Used interface : Native Win32 interface for Win NT & 2000
Used output format : User Defined Encoder
Selected bitrate : 768 kBit/s
Quality : High
Add ID3 tag : No
Command line compressor : C:\Program Files\Exact Audio Copy\FLAC\FLAC.EXE
Additional command line options : -6 -V -T "ARTIST=%a" -T "TITLE=%t" -T "ALBUM=%g" -T "DATE=%y" -T "TRACKNUMBER=%n" -T "GENRE=%m" -T "COMMENT=%e" %s -o %d
TOC of the extracted CD
Track | Start | Length | Start sector | End sector
---------------------------------------------------------
1 | 0:00.00 | 4:56.00 | 0 | 22199
2 | 4:56.00 | 4:06.27 | 22200 | 40676
3 | 9:02.27 | 2:16.18 | 40677 | 50894
4 | 11:18.45 | 2:09.42 | 50895 | 60611
5 | 13:28.12 | 5:24.63 | 60612 | 84974
6 | 18:53.00 | 2:33.30 | 84975 | 96479
7 | 21:26.30 | 0:43.17 | 96480 | 99721
8 | 22:09.47 | 1:16.03 | 99722 | 105424
9 | 23:25.50 | 0:38.25 | 105425 | 108299
10 | 24:04.00 | 1:04.40 | 108300 | 113139
11 | 25:08.40 | 0:26.72 | 113140 | 115161
12 | 25:35.37 | 1:15.25 | 115162 | 120811
13 | 26:50.62 | 4:44.00 | 120812 | 142111
14 | 31:34.62 | 4:59.50 | 142112 | 164586
15 | 36:34.37 | 2:41.50 | 164587 | 176711
16 | 39:16.12 | 3:31.25 | 176712 | 192561
17 | 42:47.37 | 3:33.10 | 192562 | 208546
18 | 46:20.47 | 2:25.46 | 208547 | 219467
Range status and errors
Selected range
Filename N:\ANTHOLOGIES\Gustav Leonhardt Edition (21 CD) - Das Alte Werk\CD 19 - Kuhnau - Musicalische Vorstellung (II)\Gustav Leonhardt - Kuhnau - Musicalische Vorstellung II.wav
Peak level 88.2 %
Range quality 100.0 %
Copy CRC FC88038F
Copy OK
No errors occurred
AccurateRip summary
Track 1 accurately ripped (confidence 1) [8D9D36AB]
Track 2 accurately ripped (confidence 1) [AFAA154F]
Track 3 accurately ripped (confidence 1) [FB797B32]
Track 4 accurately ripped (confidence 1) [8BFF8E48]
Track 5 accurately ripped (confidence 1) [DB379165]
Track 6 accurately ripped (confidence 1) [2C10CC68]
Track 7 accurately ripped (confidence 1) [D9D0F1CB]
Track 8 accurately ripped (confidence 1) [69A55184]
Track 9 accurately ripped (confidence 1) [E3396A33]
Track 10 accurately ripped (confidence 1) [E2FA41DA]
Track 11 accurately ripped (confidence 1) [744FC477]
Track 12 accurately ripped (confidence 1) [7E1F6976]
Track 13 accurately ripped (confidence 1) [D8040045]
Track 14 accurately ripped (confidence 1) [760C9B06]
Track 15 accurately ripped (confidence 1) [511C11DB]
Track 16 accurately ripped (confidence 1) [C61A7444]
Track 17 accurately ripped (confidence 1) [060425EA]
Track 18 accurately ripped (confidence 1) [372D722B]
All tracks accurately ripped
End of status report
Exact Audio Copy V0.99 prebeta 4 from 23. January 2008
EAC extraction logfile from 24. July 2010, 13:33
Gustav Leonhardt / Keyboard Music by Reincken, Scheidemann, Bach, Bohm et al
Used drive : PIONEER DVD-RW DVR-112D Adapter: 0 ID: 0
Read mode : Secure
Utilize accurate stream : Yes
Defeat audio cache : Yes
Make use of C2 pointers : No
Read offset correction : 48
Overread into Lead-In and Lead-Out : No
Fill up missing offset samples with silence : Yes
Delete leading and trailing silent blocks : No
Null samples used in CRC calculations : Yes
Used interface : Native Win32 interface for Win NT & 2000
Used output format : User Defined Encoder
Selected bitrate : 768 kBit/s
Quality : High
Add ID3 tag : No
Command line compressor : C:\Program Files\Exact Audio Copy\FLAC\FLAC.EXE
Additional command line options : -6 -V -T "ARTIST=%a" -T "TITLE=%t" -T "ALBUM=%g" -T "DATE=%y" -T "TRACKNUMBER=%n" -T "GENRE=%m" -T "COMMENT=%e" %s -o %d
TOC of the extracted CD
Track | Start | Length | Start sector | End sector
---------------------------------------------------------
1 | 0:00.00 | 18:19.37 | 0 | 82461
2 | 18:19.37 | 3:48.25 | 82462 | 99586
3 | 22:07.62 | 8:59.03 | 99587 | 140014
4 | 31:06.65 | 3:14.60 | 140015 | 154624
5 | 34:21.50 | 1:31.67 | 154625 | 161516
6 | 35:53.42 | 1:18.20 | 161517 | 167386
7 | 37:11.62 | 1:59.23 | 167387 | 176334
8 | 39:11.10 | 3:07.55 | 176335 | 190414
9 | 42:18.65 | 1:09.52 | 190415 | 195641
10 | 43:28.42 | 1:06.60 | 195642 | 200651
11 | 44:35.27 | 2:37.43 | 200652 | 212469
12 | 47:12.70 | 3:11.17 | 212470 | 226811
13 | 50:24.12 | 1:16.23 | 226812 | 232534
14 | 51:40.35 | 2:14.27 | 232535 | 242611
15 | 53:54.62 | 2:30.15 | 242612 | 253876
16 | 56:25.02 | 2:32.38 | 253877 | 265314
17 | 58:57.40 | 2:47.42 | 265315 | 277881
18 | 61:45.07 | 1:35.25 | 277882 | 285031
19 | 63:20.32 | 2:13.25 | 285032 | 295031
20 | 65:33.57 | 4:42.63 | 295032 | 316244
21 | 70:16.45 | 2:26.67 | 316245 | 327261
22 | 72:43.37 | 2:56.61 | 327262 | 340522
Range status and errors
Selected range
Filename N:\ANTHOLOGIES\Gustav Leonhardt Edition (21 CD) - Das Alte Werk\CD 20 - Keyboard Music by Reincken, Scheidemann, Bohm, Bach et al\Gustav Leonhardt - Keyboard Music by Reincken, Scheidemann, Bach, Bohm et al.wav
Peak level 97.7 %
Range quality 99.9 %
Copy CRC 87963B5F
Copy OK
No errors occurred
AccurateRip summary
Track 1 accurately ripped (confidence 1) [96A93A8D]
Track 2 accurately ripped (confidence 1) [DE7AC93D]
Track 3 accurately ripped (confidence 1) [405E3BB5]
Track 4 accurately ripped (confidence 1) [47EF7187]
Track 5 accurately ripped (confidence 1) [17A37CF3]
Track 6 accurately ripped (confidence 1) [801905D7]
Track 7 accurately ripped (confidence 1) [29CF9C49]
Track 8 accurately ripped (confidence 1) [36B58376]
Track 9 accurately ripped (confidence 1) [E26D9618]
Track 10 accurately ripped (confidence 1) [CDEB3587]
Track 11 accurately ripped (confidence 1) [6762B0CA]
Track 12 accurately ripped (confidence 1) [FF2E7BB2]
Track 13 accurately ripped (confidence 1) [2326AD2B]
Track 14 accurately ripped (confidence 1) [86D207F0]
Track 15 accurately ripped (confidence 1) [492FD58C]
Track 16 accurately ripped (confidence 1) [8D33B69F]
Track 17 accurately ripped (confidence 1) [7BEA1BEF]
Track 18 accurately ripped (confidence 1) [B3A1C953]
Track 19 accurately ripped (confidence 1) [83187222]
Track 20 accurately ripped (confidence 1) [99D31DA2]
Track 21 accurately ripped (confidence 1) [B0F450DE]
Track 22 accurately ripped (confidence 1) [BB49C66B]
All tracks accurately ripped
End of status report
Exact Audio Copy V0.99 prebeta 4 from 23. January 2008
EAC extraction logfile from 24. July 2010, 13:44
Leonhardt-Consort/Gustav Leonhardt / Harpsichord & Consort Music by Frescobaldi, Turini, Caccini et al
Used drive : PIONEER DVD-RW DVR-112D Adapter: 0 ID: 0
Read mode : Secure
Utilize accurate stream : Yes
Defeat audio cache : Yes
Make use of C2 pointers : No
Read offset correction : 48
Overread into Lead-In and Lead-Out : No
Fill up missing offset samples with silence : Yes
Delete leading and trailing silent blocks : No
Null samples used in CRC calculations : Yes
Used interface : Native Win32 interface for Win NT & 2000
Used output format : User Defined Encoder
Selected bitrate : 768 kBit/s
Quality : High
Add ID3 tag : No
Command line compressor : C:\Program Files\Exact Audio Copy\FLAC\FLAC.EXE
Additional command line options : -6 -V -T "ARTIST=%a" -T "TITLE=%t" -T "ALBUM=%g" -T "DATE=%y" -T "TRACKNUMBER=%n" -T "GENRE=%m" -T "COMMENT=%e" %s -o %d
TOC of the extracted CD
Track | Start | Length | Start sector | End sector
---------------------------------------------------------
1 | 0:00.00 | 3:00.00 | 0 | 13499
2 | 3:00.00 | 3:43.62 | 13500 | 30286
3 | 6:43.62 | 4:01.50 | 30287 | 48411
4 | 10:45.37 | 3:24.50 | 48412 | 63761
5 | 14:10.12 | 6:26.63 | 63762 | 92774
6 | 20:37.00 | 0:36.50 | 92775 | 95524
7 | 21:13.50 | 0:37.40 | 95525 | 98339
8 | 21:51.15 | 0:44.60 | 98340 | 101699
9 | 22:36.00 | 0:40.02 | 101700 | 104701
10 | 23:16.02 | 0:41.73 | 104702 | 107849
11 | 23:58.00 | 3:40.55 | 107850 | 124404
12 | 27:38.55 | 3:56.32 | 124405 | 142136
13 | 31:35.12 | 5:14.38 | 142137 | 165724
14 | 36:49.50 | 2:33.37 | 165725 | 177236
15 | 39:23.12 | 3:46.25 | 177237 | 194211
16 | 43:09.37 | 3:45.13 | 194212 | 211099
17 | 46:54.50 | 2:26.13 | 211100 | 222062
Range status and errors
Selected range
Filename N:\ANTHOLOGIES\Gustav Leonhardt Edition (21 CD) - Das Alte Werk\CD 21 - Harpsichord & Consort Music by Frescobaldi, Turini, Caccini et al\Leonhardt-Consort Gustav Leonhardt - Harpsichord & Consort Music by Frescobaldi, Turini, Caccini et al.wa
Peak level 78.2 %
Range quality 100.0 %
Copy CRC 66FA83F1
Copy OK
No errors occurred
AccurateRip summary
Track 1 accurately ripped (confidence 1) [639EF7A6]
Track 2 accurately ripped (confidence 1) [3809C31A]
Track 3 accurately ripped (confidence 1) [E8D2DA25]
Track 4 accurately ripped (confidence 1) [F1F568B9]
Track 5 accurately ripped (confidence 1) [F8EFA4E0]
Track 6 accurately ripped (confidence 1) [7641E11B]
Track 7 accurately ripped (confidence 1) [73DB5E45]
Track 8 accurately ripped (confidence 1) [E7F240FB]
Track 9 accurately ripped (confidence 1) [00C469A6]
Track 10 accurately ripped (confidence 1) [7FB8C100]
Track 11 accurately ripped (confidence 1) [33C784D4]
Track 12 accurately ripped (confidence 1) [8555D6DE]
Track 13 accurately ripped (confidence 1) [506CAF1E]
Track 14 accurately ripped (confidence 1) [A779DDBE]
Track 15 accurately ripped (confidence 1) [5355FBDD]
Track 16 accurately ripped (confidence 1) [86272625]
Track 17 accurately ripped (confidence 1) [B25EF1F8]
All tracks accurately ripped
End of status report
Исполнители:
Agnes Giebel – soprano
Marie Luise Gilles – alto
Bert van t`Hoff – tenor
Peter Christoph Runge – bass
James Bowman – countertenor
Nigel Rogers – tenor
Max van Egmond – bass
The Choir of King`s College, Cambridge
Lars Fryden – violin
Anner Bylsma – cello
Frans Bruggen – flute
Sigiswald Kuijken – violin
Wieland Kuijken – viola da gamba
Veronika Hampe – alto viol
Bruggen-Consort / Leonhardt-Consort

Gustav Leonhardt – harpsichord / organ / bass viol / virginal / narration / director
Доп. информация:
Диски из личной коллекции. Прилагается полностью отсканированный буклет и обложки дисков. Для удобства поиска начало каждого лога ЕАС на странице раздачи выделено жирным шрифтом.
[teatrix.ru].t10047.torrent 
Торрент: Зарегистрирован [ 2015-10-25 20:37 ] · C0D355E19B15CCA4CE1C1A01595C17D707922066

Скачать .torrent

Скачать

49 KB

Статус: проверено
Скачан: 1 раз
Размер: 6.76 GB
terms.php



Быстрый ответ

Имя:

      
Для отправки сообщений необходимо включить JavaScript
Показать сообщения:    

Текущее время: 10-Дек 13:51

Часовой пояс: UTC + 3


Вы можете начинать темы
Вы можете отвечать на сообщения
Вы не можете редактировать свои сообщения
Вы не можете удалять свои сообщения
Вы не можете голосовать в опросах
Вы не можете прикреплять файлы к сообщениям
Вы можете скачивать файлы