(Classical, piano, orchestral) Van Cliburn in Moscow (Moscow PO - Kirill Kondrashin/ СО МГФ - Кирилл Кондрашин) (Beethoven, Liszt, Chopin, Grieg, Brahms, Debussy, Чайковский, Скрябин) 5CD - 2009, APE (image+.cue), lossless


Статистика раздачи [Обновить пиров]
Размер:  1.35 GB   |    Зарегистрирован:  1 год 1 месяц   |    Скачан:  0 раз

Полного источника не было: Никогда

 
   
 
 
 

[Цитировать]

Van Cliburn in Moscow (Moscow PO - Kirill Kondrashin/ СО МГФ - Кирилл Кондрашин) 5CD
Жанр: Classical, piano, orchestral
Год выпуска диска: 2009
Производитель диска: "Мелодия", Россия
Аудио кодек: APE
Тип рипа: image+.cue
Битрейт аудио: lossless
Продолжительность: 342'33
Трэклист:
CD1 59'52
Людвиг ван Бетховен (1770 – 1827)
1-3 Соната №23 фа минор, соч. 57 «Аппассионата»
Ференц Лист (1811 – 1886)
4 Грезы любви, ноктюрн №3
5-7 Петр Чайковский (1840 – 1893)
Концерт № 1 для фортепиано с оркестром си-бемоль минор, соч. 23
Симфонический оркестр Московской государственной филармонии
Дирижер Кирилл Кондрашин (5 – 7)

Записи 1958 г. (4 – 7) и с концерта из Большого зала Московской консерватории 18 апреля 1958 г. (1 – 3)

CD2 70'18
Фредерик Шопен (1810 – 1849)
1 Баллада № 3 Ля-бемоль мажор, соч. 47
2 Скерцо № 3 до-диез минор, соч. 39
3 Этюд ля минор, соч. 25 № 11
4 Этюд ми минор, соч. 25 № 5
5 Этюд до минор «Революционный», соч. 10 № 12
6 Фантазия фа минор, соч. 49
Ференц Лист (1811 – 1886)
7 Соната си минор
Записи 1959 (1 – 6), 1960 (7).
CD3 73'02
Людвиг ван Бетховен (1770 – 1827)
1-4 Соната №23 фа минор, соч. 57 «Аппассионата»
Иоганнес Брамс (1833 – 1898)
4 Рапсодия си минор, соч. 79 № 1
5 Рапсодия соль минор, соч. 79 № 2
Эдвард Григ (1843 – 1907)
6-8 Концерт для фортепиано с оркестром ля минор, соч. 16
Симфонический оркестр Московской государственной филармонии
Дирижер Кирилл Кондрашин (6 – 8)

Записи 1965 (1 – 3), 1972 (4 – 8).

CD4 74'29
Иоганнес Брамс (1833 – 1898)
1-4 Концерт №2 для фортепиано с оркестром Си-бемоль мажор, соч. 83
Фредерик Шопен (1810 – 1849)
5 Баллада № 4 фа минор, соч. 52
6 Ноктюрн № 18 Ми мажор, соч. 62 №2
7 Полонез № 6 Ля-бемоль мажор («Героический»), соч. 53
Симфонический оркестр Московской государственной филармонии
Дирижер Кирилл Кондрашин (1 – 4)

Записи 1962 (1 – 4), 1972 (5 – 7).

CD5 64'52
Клод Дебюсси (1962 – 1918)
1 Прелюдия «Терраса, посещаемая лунным светом»
2 Отражения в воде
3 Прелюдия «Девушка с волосами цвета льна»
Ференц Лист (1811 – 1886)
4 Мефисто-вальс № 1
5 Сонет Петрарки № 123
Александр Скрябин (1872 – 1915)
6 Этюд ре-диез минор, соч. 8 №12
Иоганнес Брамс (1833 – 1898)
7 Вариации и фуга на тему Генделя, Си-бемоль мажор, соч. 24
Запись 1972
Доп. информация
:

отчет EAC CD1

Exact Audio Copy V0.99 prebeta 4 from 23. January 2008
Отчёт EAC об извлечении, выполненном 28. июня 2010, 11:40
- / Van Cliburn in Moscow (CD1)
Дисковод: _NEC DVD_RW ND-4550A Adapter: 3 ID: 0
Режим чтения : Достоверность
Использование точного потока : Да
Отключение кэша аудио : Да
Использование указателей C2 : Нет
Коррекция смещения при чтении : 48
Способность читать области Lead-in и Lead-out : Нет
Заполнение пропущенных сэмплов тишиной : Да
Удаление блоков с тишиной в начале и конце : Нет
При вычислениях CRC использовались нулевые сэмплы : Да
Интерфейс : Встроенный Win32-интерфейс для Win NT/2000
Выходной формат : Внутренние WAV-операции
Формат сэмплов : 44.100 Гц; 16 бит; стерео
TOC извлечённого CD
Трек | Старт | Длительность | Начальный сектор | Конечный сектор
---------------------------------------------------------------------
1 | 0:00.00 | 9:17.64 | 0 | 41838
2 | 9:17.64 | 6:41.23 | 41839 | 71936
3 | 15:59.12 | 5:21.17 | 71937 | 96028
4 | 21:20.29 | 4:05.42 | 96029 | 114445
5 | 25:25.71 | 20:56.03 | 114446 | 208648
6 | 46:21.74 | 6:53.55 | 208649 | 239678
7 | 53:15.54 | 6:37.08 | 239679 | 269461
Характеристики диапазона извлечения и сообщения об ошибках
Выбранный диапазон
Имя файла C:\Documents and Settings\Директор\Мои документы\Моя музыка\Van Cliburn in Moscow (CD1).wav
Пиковый уровень 91.2 %
Качество диапазона 100.0 %
CRC копии 5C5773AD
Копирование... OK
Ошибок не произошло
Конец отчёта

отчет EAC CD2

Exact Audio Copy V0.99 prebeta 4 from 23. January 2008
Отчёт EAC об извлечении, выполненном 28. июня 2010, 11:58
- / Van Cliburn in Moscow (CD2)
Дисковод: _NEC DVD_RW ND-4550A Adapter: 3 ID: 0
Режим чтения : Достоверность
Использование точного потока : Да
Отключение кэша аудио : Да
Использование указателей C2 : Нет
Коррекция смещения при чтении : 48
Способность читать области Lead-in и Lead-out : Нет
Заполнение пропущенных сэмплов тишиной : Да
Удаление блоков с тишиной в начале и конце : Нет
При вычислениях CRC использовались нулевые сэмплы : Да
Интерфейс : Встроенный Win32-интерфейс для Win NT/2000
Выходной формат : Внутренние WAV-операции
Формат сэмплов : 44.100 Гц; 16 бит; стерео
TOC извлечённого CD
Трек | Старт | Длительность | Начальный сектор | Конечный сектор
---------------------------------------------------------------------
1 | 0:01.00 | 7:18.20 | 75 | 32944
2 | 7:19.20 | 7:03.67 | 32945 | 64736
3 | 14:23.12 | 3:27.10 | 64737 | 80271
4 | 17:50.22 | 3:28.49 | 80272 | 95920
5 | 21:18.71 | 3:16.53 | 95921 | 110673
6 | 24:35.49 | 12:49.45 | 110674 | 168393
7 | 37:25.19 | 32:52.00 | 168394 | 316293
Характеристики диапазона извлечения и сообщения об ошибках
Выбранный диапазон
Имя файла C:\Documents and Settings\Директор\Мои документы\Моя музыка\Van Cliburn in Moscow (CD2).wav
Пиковый уровень 97.8 %
Качество диапазона 100.0 %
CRC копии 2FD2B857
Копирование... OK
Ошибок не произошло
Конец отчёта

отчет EAC CD3

Exact Audio Copy V0.99 prebeta 4 from 23. January 2008
Отчёт EAC об извлечении, выполненном 28. июня 2010, 14:16
- / Van Cliburn in Moscow (CD3)
Дисковод: _NEC DVD_RW ND-4550A Adapter: 3 ID: 0
Режим чтения : Достоверность
Использование точного потока : Да
Отключение кэша аудио : Да
Использование указателей C2 : Нет
Коррекция смещения при чтении : 48
Способность читать области Lead-in и Lead-out : Нет
Заполнение пропущенных сэмплов тишиной : Да
Удаление блоков с тишиной в начале и конце : Нет
При вычислениях CRC использовались нулевые сэмплы : Да
Интерфейс : Встроенный Win32-интерфейс для Win NT/2000
Выходной формат : Внутренние WAV-операции
Формат сэмплов : 44.100 Гц; 16 бит; стерео
TOC извлечённого CD
Трек | Старт | Длительность | Начальный сектор | Конечный сектор
---------------------------------------------------------------------
1 | 0:00.00 | 9:46.53 | 0 | 44002
2 | 9:46.53 | 6:09.43 | 44003 | 71720
3 | 15:56.21 | 8:03.22 | 71721 | 107967
4 | 23:59.43 | 10:44.43 | 107968 | 156310
5 | 34:44.11 | 7:02.61 | 156311 | 188021
6 | 41:46.72 | 13:58.60 | 188022 | 250931
7 | 55:45.57 | 6:19.41 | 250932 | 279397
8 | 62:05.23 | 10:54.73 | 279398 | 328520
Характеристики диапазона извлечения и сообщения об ошибках
Выбранный диапазон
Имя файла C:\Documents and Settings\Директор\Мои документы\Моя музыка\Van Cliburn in Moscow (CD3).wav
Пиковый уровень 92.4 %
Качество диапазона 100.0 %
CRC копии 66EB8366
Копирование... OK
Ошибок не произошло
Конец отчёта

отчет EAC CD4

Exact Audio Copy V0.99 prebeta 5 from 4. May 2009
Отчёт EAC об извлечении, выполненном 28. июня 2010, 13:26
- / Van Cliburn in Moscow (CD4)
Дисковод: Optiarc DVD RW AD-7203S Adapter: 2 ID: 1
Режим чтения : Достоверность
Использование точного потока : Да
Отключение кэша аудио : Да
Использование указателей C2 : Нет
Коррекция смещения при чтении : 48
Способность читать области Lead-in и Lead-out : Нет
Заполнение пропущенных сэмплов тишиной : Да
Удаление блоков с тишиной в начале и конце : Нет
При вычислениях CRC использовались нулевые сэмплы : Да
Интерфейс : Встроенный Win32-интерфейс для Win NT/2000
Выходной формат : Внутренние WAV-операции
Формат сэмплов : 44.100 Гц; 16 бит; стерео
TOC извлечённого CD
Трек | Старт | Длительность | Начальный сектор | Конечный сектор
---------------------------------------------------------------------
1 | 0:00.00 | 17:56.67 | 0 | 80766
2 | 17:56.67 | 8:34.30 | 80767 | 119346
3 | 26:31.22 | 12:01.12 | 119347 | 173433
4 | 38:32.34 | 9:14.37 | 173434 | 215020
5 | 47:46.71 | 11:54.56 | 215021 | 268626
6 | 59:41.52 | 6:50.18 | 268627 | 299394
7 | 66:31.70 | 7:56.03 | 299395 | 335097
Характеристики диапазона извлечения и сообщения об ошибках
Выбранный диапазон
Имя файла C:\Documents and Settings\Admin\Мои документы\Моя музыка\Van Cliburn in Moscow (CD4).wav
Пиковый уровень 100.0 %
Качество диапазона 100.0 %
CRC копии 0065F48E
Копирование... OK
Ошибок не произошло
Конец отчёта

отчет EAC CD5

Exact Audio Copy V0.99 prebeta 5 from 4. May 2009
Отчёт EAC об извлечении, выполненном 28. июня 2010, 12:48
- / Van Cliburn in Moscow (CD5)
Дисковод: Optiarc DVD RW AD-7203S Adapter: 2 ID: 1
Режим чтения : Достоверность
Использование точного потока : Да
Отключение кэша аудио : Да
Использование указателей C2 : Нет
Коррекция смещения при чтении : 48
Способность читать области Lead-in и Lead-out : Нет
Заполнение пропущенных сэмплов тишиной : Да
Удаление блоков с тишиной в начале и конце : Нет
При вычислениях CRC использовались нулевые сэмплы : Да
Интерфейс : Встроенный Win32-интерфейс для Win NT/2000
Выходной формат : Внутренние WAV-операции
Формат сэмплов : 44.100 Гц; 16 бит; стерео
TOC извлечённого CD
Трек | Старт | Длительность | Начальный сектор | Конечный сектор
---------------------------------------------------------------------
1 | 0:00.00 | 4:35.53 | 0 | 20677
2 | 4:35.53 | 5:28.43 | 20678 | 45320
3 | 10:04.21 | 2:57.58 | 45321 | 58653
4 | 13:02.04 | 11:27.17 | 58654 | 110195
5 | 24:29.21 | 7:15.53 | 110196 | 142873
6 | 31:44.74 | 3:14.26 | 142874 | 157449
7 | 34:59.25 | 29:53.41 | 157450 | 291965
Характеристики диапазона извлечения и сообщения об ошибках
Выбранный диапазон
Имя файла C:\Documents and Settings\Admin\Мои документы\Моя музыка\Van Cliburn in Moscow (CD5).wav
Пиковый уровень 100.0 %
Качество диапазона 100.0 %
CRC копии AFE4E9C2
Копирование... OK
Ошибок не произошло
Конец отчёта
[teatrix.ru].t10048.torrent 
Торрент: Зарегистрирован [ 2015-10-25 20:37 ] · A42365B249E7BB8811BD12F0E48DECDD4012E383

Скачать .torrent

Скачать

30 KB

Статус: проверено
Скачан: 0 раз
Размер: 1.35 GB
terms.php



Быстрый ответ

Имя:

      
Для отправки сообщений необходимо включить JavaScript
Показать сообщения:    

Текущее время: 07-Дек 19:30

Часовой пояс: UTC + 3


Вы можете начинать темы
Вы можете отвечать на сообщения
Вы не можете редактировать свои сообщения
Вы не можете удалять свои сообщения
Вы не можете голосовать в опросах
Вы не можете прикреплять файлы к сообщениям
Вы можете скачивать файлы