(Classical) Д.Ойстрах. Скрипичные концерты - Mendelssohn, Dvorak, Шостакович, Lalo, Bruch, Beethoven,Кабалевский,Танеев,Прокофьев,Чайковский,Sibelius,Bartok,Szymanowski,Hindemith,Глазунов,Стравинский,Мясковский-1939-68,10CD,FLAC(tracks+.cue),lossless


Статистика раздачи [Обновить пиров]
Размер:  2.34 GB   |    Зарегистрирован:  1 год 1 месяц   |    Скачан:  1 раз

Полного источника не было: 17 дней

 
   
 
 
 

[Цитировать]


-
-
-
-- Давид Ойстрах. Скрипичные концерты.
Historic Russian Archives

Жанр: Classical, Violin
Годы записи: 1939-1968
Производитель диска: Brilliant Classics
Аудио кодек: FLAC
Тип рипа: tracks+.cue
Битрейт аудио: lossless
Продолжительность: 9:32:51
Сканы обложек: в наличии
Источник: оригинальные диски
Трэклист:
  • CD1
    1. Felix Mendelssohn, Concerto in E Minor Op.64 - Kondrashin, State Symphony Orchestra of USSR, 1949
    2. Antonin Dvorak, Concerto in A Minor Op.53 - Kondrashin, State Symphony Orchestra of USSR, 1949
  • CD2
    1. Dmitri Shostakovich, Concerto No.1 in A Minor Op.99 - Mravinsky, Leningrad Philharmonic, 1956
    2. Dmitri Shostakovich, Concerto No.2 in C# Minor Op.129 - Rozhdestvensky, Moscow Philharmonic, 1968
  • CD3
    1. Lalo, Symphonie Espagnole - Kondrashin, State Symphony Orchestra of USSR, 1947
    2. Max Bruch, Scottish Fantasy Op.46 - Rozhdestvensky, State Symphony Orchestra of USSR, 1960
  • CD4
    1. Ludwig van Beethoven, Concerto in D Op.61 - Rozhdestvensky, State Symphony Orchestra of USSR, 1962
    2. Ludwig van Beethoven, Romances 1 & 2 - Rozhdestvensky, Moscow Philharmonic, 1968
  • CD5
    1. Дмитрий Кабалевский, Concerto in C Op.48 - Eliasberg, State Symphony Orchestra of USSR, 1949
    2. Taneyev, Concert Suite Op.28 - Sanderling, State Symphony Orchestra of USSR, 1960
  • CD6
    1. Sergei Prokofiev, Concerto No.1 in D Op.19 - Kondrashin, Moscow Philharmonic, 1963
    2. Pyotr Tchaikovsky, Concerto in D Op.35 - Rozhdestvensky, Moscow Philharmonic, 1968
  • CD7
    1. Jean Sibelius, Concerto in D Minor Op.47 - Rozhdestvensky, Moscow Philharmonic, 1966
    Скрипичный концерт Я.Сибелиуса lossless на трекере - 40 исполнений
    2. Bela Bartok, Concerto No.1 Sz36 - Rozhdestvensky, State Symphony Orchestra of USSR, 1960
  • CD8
    1. Karl Szymanowski, Concerto No.1 Op.35 - Sanderling, State Symphony Orchestra of USSR, 1960
    2. Paul Hindemith, Concerto - Rozhdestvensky, State Symphony Orchestra of USSR, 1962
  • CD9
    1. Александр Глазунов, Concerto in A Minor Op.82 - Kondrashin, State Symphony Orchestra of USSR, 1947
    2. Chausson, Poeme Op.25 - Kondrashin, State Symphony Orchestra of USSR, 1948
    3. Maurice Ravel, Tzigane - Rozhdevensky, State Symphony Orchestra of USSR, 1960
    4. Александр Глазунов, Mazurka-Oberek in D - Yudin, State Symphony Orchestra of USSR, 1950
  • CD10
    1. Igor Stravinsky, Concerto in D - Kondrashin, Moscow Philharmonic, 1963
    2. Miaskovsky, Concerto in D Minor Op.44 - Gauk, State Symphony Orchestra of USSR, 1939

Отчёты EACОтчёт EAC CD1

Отчёт EAC об извлечении, выполненном 31. декабря 2007, 1:37 для диска:Oistrakh, Kondrashin / Mendelssohn Dvorak Violin Concertos (Historic Russian Archives)
Дисковод: TOSHIBA DVD-ROM SD-M1712 Adapter: 0 ID: 1Режим чтения: Достоверный (C2: нет, Точный поток: да, Отключение кэша: нет)Коррекция смещения при чтении: -472Способность читать области Lead-in и Lead-out : Нет
Выходной формат: C:\Program Files\FLAC\flac.exe (Пользовательский кодировщик) 192 kBit/s Дополнительные параметры: -V -8 -T "artist=%a" -T "title=%t" -T "album=%g" -T "date=%y" -T "tracknumber=%n" -T "genre=%m" %s
Другие параметры: Заполнение пропущенных сэмплов тишиной : Да Удаление блоков с тишиной в начале и конце : Нет Встроенный Win32-интерфейс для Win NT/2000
Трек 1 Имя файла I:\Раздачи\Oistrakh\CD01\01.Mendelssohn- Violin Concerto in E minor Op 64 - 1. Allegro molto appassionato.wav
Длина предзазора 0:00:02.00
Пиковый уровень 94.7 % Качество трека 100.0 % CRC теста 84F22190 CRC копии 84F22190 Копирование... OK
Трек 2 Имя файла I:\Раздачи\Oistrakh\CD01\02.2. Andante.wav
Пиковый уровень 76.7 % Качество трека 99.9 % CRC теста 38FCD60D CRC копии 38FCD60D Копирование... OK
Трек 3 Имя файла I:\Раздачи\Oistrakh\CD01\03.3. Allegretto non troppo-allegro molto vivace.wav
Пиковый уровень 93.9 % Качество трека 100.0 % CRC теста 9D036D21 CRC копии 9D036D21 Копирование... OK
Трек 4 Имя файла I:\Раздачи\Oistrakh\CD01\04.Dvorak- Violin Concerto in A minor Op 53 - 1. Allegro con Brio.wav
Пиковый уровень 99.0 % Качество трека 99.9 % CRC теста 9CE7C600 CRC копии 9CE7C600 Копирование... OK
Трек 5 Имя файла I:\Раздачи\Oistrakh\CD01\05.2. Adagio ma non troppo.wav
Пиковый уровень 77.5 % Качество трека 100.0 % CRC теста F3D6B868 CRC копии F3D6B868 Копирование... OK
Трек 6 Имя файла I:\Раздачи\Oistrakh\CD01\06.3. Allegro giocoso ma non troppo.wav
Пиковый уровень 100.0 % Качество трека 100.0 % CRC теста 7AC5595B CRC копии 7AC5595B Копирование... OK
Ошибок не произошло
Конец отчёта

Отчёт EAC CD2

Отчёт EAC об извлечении, выполненном 14. января 2008, 22:14 для диска:Shostakovich / Violin Concertos (David Oistrakh, violin)
Дисковод: TOSHIBA DVD-ROM SD-M1712 Adapter: 0 ID: 1Режим чтения: Достоверный (C2: нет, Точный поток: да, Отключение кэша: нет)Коррекция смещения при чтении: -472Способность читать области Lead-in и Lead-out : Нет
Выходной формат: C:\Program Files\FLAC\flac.exe (Пользовательский кодировщик) 192 kBit/s Дополнительные параметры: -V -8 -T "artist=%a" -T "title=%t" -T "album=%g" -T "date=%y" -T "tracknumber=%n" -T "genre=%m" %s
Другие параметры: Заполнение пропущенных сэмплов тишиной : Да Удаление блоков с тишиной в начале и конце : Нет Встроенный Win32-интерфейс для Win NT/2000
Трек 1 Имя файла E:\Раздачи\Будущие\Oistrakh\CD02\01.Violin Concerto N°1 in A minor Op.99 - I. Nocturne (Mravinsky, Leningrad Phil. Orch. 1956).wav
Длина предзазора 0:00:02.00
Пиковый уровень 67.5 % Качество трека 99.9 % CRC теста 9BEE77CD CRC копии 9BEE77CD Копирование... OK
Трек 2 Имя файла E:\Раздачи\Будущие\Oistrakh\CD02\02.Violin Concerto N°1 in A minor Op.99 - II. Scherzo.wav
Пиковый уровень 65.6 % Качество трека 99.8 % CRC теста F899AC8A CRC копии F899AC8A Копирование... OK
Трек 3 Имя файла E:\Раздачи\Будущие\Oistrakh\CD02\03.Violin Concerto N°1 in A minor Op.99 - III. Passacaglia-Burlesque.wav
Пиковый уровень 98.8 % Качество трека 100.0 % CRC теста 56F5F5FC CRC копии 56F5F5FC Копирование... OK
Трек 4 Имя файла E:\Раздачи\Будущие\Oistrakh\CD02\04.Violin Concerto N°2 in C sharp minor Op.129 - I. Moderato (Rozhdestvensky, Moscow Phil. Orch. 1968).wav
Длина предзазора 0:00:02.70
Пиковый уровень 68.7 % Качество трека 99.9 % CRC теста E0B9F5F4 CRC копии E0B9F5F4 Копирование... OK
Трек 5 Имя файла E:\Раздачи\Будущие\Oistrakh\CD02\05.Violin Concerto N°2 in C sharp minor Op.129 - II. Adagio, adagio-allegro.wav
Пиковый уровень 100.0 % Качество трека 99.9 % CRC теста 65D9EF4D CRC копии 65D9EF4D Копирование... OK
Ошибок не произошло
Конец отчёта

Отчёт EAC CD3

Exact Audio Copy V0.99 prebeta 5 from 4. May 2009
EAC extraction logfile from 21. February 2010, 20:34
D.Oistrakh / Lalo, Bruch
Used drive : PLEXTOR CD-R PX-240A Adapter: 2 ID: 1
Read mode : SecureUtilize accurate stream : YesDefeat audio cache : YesMake use of C2 pointers : No
Read offset correction : 6Overread into Lead-In and Lead-Out : NoFill up missing offset samples with silence : YesDelete leading and trailing silent blocks : NoNull samples used in CRC calculations : YesUsed interface : Native Win32 interface for Win NT & 2000Gap handling : Appended to previous track
Used output format : User Defined EncoderSelected bitrate : 128 kBit/sQuality : HighAdd ID3 tag : NoCommand line compressor : C:\Program Files\Exact Audio Copy\Flac\flac.exeAdditional command line options : -8 -V -T "ARTIST=%a" -T "TITLE=%t" -T "ALBUM=%g" -T "DATE=%y" -T "TRACKNUMBER=%n" -T "GENRE=%m" -T "COMMENT=EAC FLAC -8" %s
TOC of the extracted CD
Track | Start | Length | Start sector | End sector --------------------------------------------------------- 1 | 0:00.00 | 7:37.19 | 0 | 34293 2 | 7:37.19 | 4:12.29 | 34294 | 53222 3 | 11:49.48 | 5:53.63 | 53223 | 79760 4 | 17:43.36 | 6:39.66 | 79761 | 109751 5 | 24:23.27 | 7:28.39 | 109752 | 143390 6 | 31:51.66 | 9:02.54 | 143391 | 184094 7 | 40:54.45 | 13:10.67 | 184095 | 243411 8 | 54:05.37 | 9:17.57 | 243412 | 285243
Track 1
Filename C:\Oistrakh\Oistrakh\CD03\01. D.Oistrakh - Lalo. Simphonie espagnole. I.Allegro non troppo.wav
Pre-gap length 0:00:02.00
Peak level 100.0 % Track quality 99.9 % Test CRC F2709C62 Copy CRC F2709C62 Cannot be verified as accurate (confidence 7) [0E21EC2F], AccurateRip returned [D08321EB] Copy OK
Track 2
Filename C:\Oistrakh\Oistrakh\CD03\02. D.Oistrakh - Lalo. Simphonie espagnole. II.Scherzo-Allegro molto.wav
Peak level 99.9 % Track quality 100.0 % Test CRC D0997DE2 Copy CRC D0997DE2 Cannot be verified as accurate (confidence 7) [078A551B], AccurateRip returned [F721740D] Copy OK
Track 3
Filename C:\Oistrakh\Oistrakh\CD03\03. D.Oistrakh - Lalo. Simphonie espagnole. III.Intermezzo-Allegretto non troppo.wav
Peak level 88.2 % Track quality 100.0 % Test CRC 85746EB3 Copy CRC 85746EB3 Cannot be verified as accurate (confidence 7) [C6DA2250], AccurateRip returned [7E858B74] Copy OK
Track 4
Filename C:\Oistrakh\Oistrakh\CD03\04. D.Oistrakh - Lalo. Simphonie espagnole. IV.Andante.wav
Peak level 79.0 % Track quality 100.0 % Test CRC 8614B1BF Copy CRC 8614B1BF Cannot be verified as accurate (confidence 7) [34F221B7], AccurateRip returned [A24B7ABC] Copy OK
Track 5
Filename C:\Oistrakh\Oistrakh\CD03\05. D.Oistrakh - Lalo. Simphonie espagnole. V.Rondo, Allegro.wav
Peak level 93.2 % Track quality 100.0 % Test CRC FF1B226F Copy CRC FF1B226F Cannot be verified as accurate (confidence 7) [ADFFC85D], AccurateRip returned [EEDD560C] Copy OK
Track 6
Filename C:\Oistrakh\Oistrakh\CD03\06. D.Oistrakh - Bruch. Scottish Fantasy. I.Allegro.wav
Pre-gap length 0:00:06.36
Peak level 59.5 % Track quality 100.0 % Test CRC BA46C099 Copy CRC BA46C099 Cannot be verified as accurate (confidence 7) [BB4D8068], AccurateRip returned [DEB02D37] Copy OK
Track 7
Filename C:\Oistrakh\Oistrakh\CD03\07. D.Oistrakh - Bruch. Scottish Fantasy. II.Adagio.wav
Peak level 83.9 % Track quality 100.0 % Test CRC ED4C90DF Copy CRC ED4C90DF Cannot be verified as accurate (confidence 7) [BE0AD2BC], AccurateRip returned [004F10E7] Copy OK
Track 8
Filename C:\Oistrakh\Oistrakh\CD03\08. D.Oistrakh - Bruch. Scottish Fantasy. III.Finale, allegro guerrieto.wav
Peak level 100.0 % Track quality 100.0 % Test CRC C5298E5E Copy CRC C5298E5E Cannot be verified as accurate (confidence 7) [3EDB37DE], AccurateRip returned [7559A5E6] Copy OK
No tracks could be verified as accurateYou may have a different pressing from the one(s) in the database
No errors occurred
End of status report

Отчёт EAC CD4

Exact Audio Copy V0.99 prebeta 5 from 4. May 2009
EAC extraction logfile from 22. February 2010, 0:06
David Oistrach / Beethoven
Used drive : PLEXTOR CD-R PX-240A Adapter: 2 ID: 1
Read mode : SecureUtilize accurate stream : YesDefeat audio cache : YesMake use of C2 pointers : No
Read offset correction : 6Overread into Lead-In and Lead-Out : NoFill up missing offset samples with silence : YesDelete leading and trailing silent blocks : NoNull samples used in CRC calculations : YesUsed interface : Native Win32 interface for Win NT & 2000Gap handling : Appended to previous track
Used output format : User Defined EncoderSelected bitrate : 128 kBit/sQuality : HighAdd ID3 tag : NoCommand line compressor : C:\Program Files\Exact Audio Copy\Flac\flac.exeAdditional command line options : -8 -V -T "ARTIST=%a" -T "TITLE=%t" -T "ALBUM=%g" -T "DATE=%y" -T "TRACKNUMBER=%n" -T "GENRE=%m" -T "COMMENT=EAC FLAC -8" %s
TOC of the extracted CD
Track | Start | Length | Start sector | End sector --------------------------------------------------------- 1 | 0:00.00 | 24:03.26 | 0 | 108250 2 | 24:03.26 | 9:29.15 | 108251 | 150940 3 | 33:32.41 | 10:16.44 | 150941 | 197184 4 | 43:49.10 | 7:38.29 | 197185 | 231563 5 | 51:27.39 | 9:11.34 | 231564 | 272922
Track 1
Filename C:\Oistrakh\Oistrakh\CD04\01. David Oistrach - Violin Concerto in D Major Op.61 1. Allegro ma non troppo.wav
Pre-gap length 0:00:02.00
Peak level 93.5 % Track quality 100.0 % Test CRC 165F9078 Copy CRC 165F9078 Cannot be verified as accurate (confidence 13) [67DCE27B], AccurateRip returned [9E0BF451] Copy OK
Track 2
Filename C:\Oistrakh\Oistrakh\CD04\02. David Oistrach - Violin Concerto in D Major Op.61 2. Larghetto.wav
Peak level 81.2 % Track quality 100.0 % Test CRC 78E5E341 Copy CRC 78E5E341 Cannot be verified as accurate (confidence 13) [4940DEFD], AccurateRip returned [E4E821E5] Copy OK
Track 3
Filename C:\Oistrakh\Oistrakh\CD04\03. David Oistrach - Violin Concerto in D Major Op.61 3. Rhondo.wav
Pre-gap length 0:00:00.01
Peak level 91.6 % Track quality 100.0 % Test CRC E2ACBB3B Copy CRC E2ACBB3B Cannot be verified as accurate (confidence 13) [320DE364], AccurateRip returned [7D1768AC] Copy OK
Track 4
Filename C:\Oistrakh\Oistrakh\CD04\04. David Oistrach - Romance for violin and orchestra No.1 in G major Op.40.wav
Pre-gap length 0:00:04.50
Peak level 79.5 % Track quality 100.0 % Test CRC 02DFCCB7 Copy CRC 02DFCCB7 Cannot be verified as accurate (confidence 13) [08E56084], AccurateRip returned [0F7ACADA] Copy OK
Track 5
Filename C:\Oistrakh\Oistrakh\CD04\05. David Oistrach - Romance for violin and orchestra No.2 in F major Op.50.wav
Pre-gap length 0:00:05.73
Peak level 90.9 % Track quality 100.0 % Test CRC F211EAAA Copy CRC F211EAAA Cannot be verified as accurate (confidence 13) [92785D93], AccurateRip returned [58F9DC81] Copy OK
No tracks could be verified as accurateYou may have a different pressing from the one(s) in the database
No errors occurred
End of status report

Отчёт EAC CD5

Exact Audio Copy V0.99 prebeta 5 from 4. May 2009
EAC extraction logfile from 21. February 2010, 21:28
David Oistrakh / Kabalevsky, Taneyev
Used drive : PLEXTOR CD-R PX-240A Adapter: 2 ID: 1
Read mode : SecureUtilize accurate stream : YesDefeat audio cache : YesMake use of C2 pointers : No
Read offset correction : 6Overread into Lead-In and Lead-Out : NoFill up missing offset samples with silence : YesDelete leading and trailing silent blocks : NoNull samples used in CRC calculations : YesUsed interface : Native Win32 interface for Win NT & 2000Gap handling : Appended to previous track
Used output format : User Defined EncoderSelected bitrate : 128 kBit/sQuality : HighAdd ID3 tag : NoCommand line compressor : C:\Program Files\Exact Audio Copy\Flac\flac.exeAdditional command line options : -8 -V -T "ARTIST=%a" -T "TITLE=%t" -T "ALBUM=%g" -T "DATE=%y" -T "TRACKNUMBER=%n" -T "GENRE=%m" -T "COMMENT=EAC FLAC -8" %s
TOC of the extracted CD
Track | Start | Length | Start sector | End sector --------------------------------------------------------- 1 | 0:00.00 | 4:08.31 | 0 | 18630 2 | 4:08.31 | 6:30.12 | 18631 | 47892 3 | 10:38.43 | 5:14.40 | 47893 | 71482 4 | 15:53.08 | 12:18.24 | 71483 | 126856 5 | 28:11.32 | 8:35.24 | 126857 | 165505 6 | 36:46.56 | 10:10.57 | 165506 | 211312 7 | 46:57.38 | 4:15.40 | 211313 | 230477 8 | 51:13.03 | 6:33.02 | 230478 | 259954
Track 1
Filename C:\Oistrakh\Oistrakh\CD05\01. David Oistrakh - 01 - Kabalevsky - Violin concerto in C Major, Op.48 - I - Allegro molto e con brio.wav
Pre-gap length 0:00:02.00
Peak level 80.0 % Track quality 100.0 % Test CRC 32FE7B7E Copy CRC 32FE7B7E Cannot be verified as accurate (confidence 7) [0CBF8C30], AccurateRip returned [E9447B72] Copy OK
Track 2
Filename C:\Oistrakh\Oistrakh\CD05\02. David Oistrakh - 02 - Kabalevsky - Violin concerto in C Major, Op.48 - II - Andantino cantabile.wav
Peak level 69.4 % Track quality 99.9 % Test CRC 09B4C07B Copy CRC 09B4C07B Cannot be verified as accurate (confidence 7) [15EC41B6], AccurateRip returned [1AE0622A] Copy OK
Track 3
Filename C:\Oistrakh\Oistrakh\CD05\03. David Oistrakh - 03 - Kabalevsky - Violin concerto in C Major, Op.48 - III - Vivace giocoso.wav
Peak level 76.4 % Track quality 100.0 % Test CRC 08CFB04E Copy CRC 08CFB04E Cannot be verified as accurate (confidence 7) [B6A11205], AccurateRip returned [B551E02F] Copy OK
Track 4
Filename C:\Oistrakh\Oistrakh\CD05\04. David Oistrakh - 04 - Taneyev - Concert suite for violin & orchestra, Op.28 - I - Prelude.wav
Pre-gap length 0:00:04.25
Peak level 99.5 % Track quality 100.0 % Test CRC F03493A1 Copy CRC F03493A1 Cannot be verified as accurate (confidence 7) [351FBE8F], AccurateRip returned [78C520AB] Copy OK
Track 5
Filename C:\Oistrakh\Oistrakh\CD05\05. David Oistrakh - 05 - Taneyev - Concert suite for violin & orchestra, Op.28 - II - Gavotte.wav
Peak level 93.9 % Track quality 100.0 % Test CRC 334C954E Copy CRC 334C954E Cannot be verified as accurate (confidence 7) [F94D7FC0], AccurateRip returned [23561619] Copy OK
Track 6
Filename C:\Oistrakh\Oistrakh\CD05\06. David Oistrakh - 06 - Taneyev - Concert suite for violin & orchestra, Op.28 - III - Tema con variazioni.wav
Peak level 90.6 % Track quality 100.0 % Test CRC D63A461E Copy CRC D63A461E Cannot be verified as accurate (confidence 7) [0EAACF9B], AccurateRip returned [89415479] Copy OK
Track 7
Filename C:\Oistrakh\Oistrakh\CD05\07. David Oistrakh - 07 - Taneyev - Concert suite for violin & orchestra, Op.28 - IV - Fairy tale.wav
Peak level 61.0 % Track quality 100.0 % Test CRC 489F5952 Copy CRC 489F5952 Cannot be verified as accurate (confidence 7) [32188C90], AccurateRip returned [E2F65F54] Copy OK
Track 8
Filename C:\Oistrakh\Oistrakh\CD05\08. David Oistrakh - 08 - Taneyev - Concert suite for violin & orchestra, Op.28 - V - Tarantella.wav
Peak level 100.0 % Track quality 100.0 % Test CRC 67935027 Copy CRC 67935027 Cannot be verified as accurate (confidence 6) [FD770693], AccurateRip returned [C7A4D601] Copy OK
No tracks could be verified as accurateYou may have a different pressing from the one(s) in the database
No errors occurred
End of status report

Отчёт EAC CD6

Отчёт EAC об извлечении, выполненном 15. января 2008, 2:50 для диска:David Oistrakh / Historic Russian Archives: Prokofiev, Tchaikovsky
Дисковод: TOSHIBA DVD-ROM SD-M1712 Adapter: 0 ID: 1Режим чтения: Достоверный (C2: нет, Точный поток: да, Отключение кэша: нет)Коррекция смещения при чтении: -472Способность читать области Lead-in и Lead-out : Нет
Выходной формат: C:\Program Files\FLAC\flac.exe (Пользовательский кодировщик) 192 kBit/s Дополнительные параметры: -V -8 -T "artist=%a" -T "title=%t" -T "album=%g" -T "date=%y" -T "tracknumber=%n" -T "genre=%m" %s
Другие параметры: Заполнение пропущенных сэмплов тишиной : Да Удаление блоков с тишиной в начале и конце : Нет Встроенный Win32-интерфейс для Win NT/2000
Трек 1 Имя файла E:\Раздачи\Будущие\Oistrakh\CD06\01.Prokofiev, Violin Concerto No. 1 in D major op. 19, 1. Andantino - andante assai.wav
Длина предзазора 0:00:02.00
Пиковый уровень 75.3 % Качество трека 100.0 % CRC теста BB3111DD CRC копии BB3111DD Копирование... OK
Трек 2 Имя файла E:\Раздачи\Будущие\Oistrakh\CD06\02.Prokofiev, Violin Concerto No. 1 in D major op. 19, 2. Scherzo, vivacissimo.wav
Пиковый уровень 97.7 % Качество трека 99.9 % CRC теста AA3884BB CRC копии AA3884BB Копирование... OK
Трек 3 Имя файла E:\Раздачи\Будущие\Oistrakh\CD06\03.Prokofiev, Violin Concerto No. 1 in D major op. 19, 3. Moderato.wav
Пиковый уровень 71.4 % Качество трека 100.0 % CRC теста C8B62312 CRC копии C8B62312 Копирование... OK
Трек 4 Имя файла E:\Раздачи\Будущие\Oistrakh\CD06\04.Tchaikovsky, Violin Concerto in D major op. 35, 1. Allegro moderato.wav
Длина предзазора 0:00:02.43
Пиковый уровень 99.5 % Качество трека 100.0 % CRC теста 00208174 CRC копии 00208174 Копирование... OK
Трек 5 Имя файла E:\Раздачи\Будущие\Oistrakh\CD06\05.Tchaikovsky, Violin Concerto in D major op. 35, 2. Andante.wav
Пиковый уровень 23.5 % Качество трека 100.0 % CRC теста 7F3E7A3A CRC копии 7F3E7A3A Копирование... OK
Трек 6 Имя файла E:\Раздачи\Будущие\Oistrakh\CD06\06.Tchaikovsky, Violin Concerto in D major op. 35, 3. Allegro vivacissimo.wav
Пиковый уровень 73.5 % Качество трека 99.8 % CRC теста 9B5D69E1 CRC копии 9BE69B6A Копирование... OK
Ошибок не произошло
Конец отчёта

Отчёт EAC CD7

Отчёт EAC об извлечении, выполненном 15. января 2008, 3:07 для диска:David Oistrakh / Historic Russian Archives
Дисковод: TOSHIBA DVD-ROM SD-M1712 Adapter: 0 ID: 1Режим чтения: Достоверный (C2: нет, Точный поток: да, Отключение кэша: нет)Коррекция смещения при чтении: -472Способность читать области Lead-in и Lead-out : Нет
Выходной формат: C:\Program Files\FLAC\flac.exe (Пользовательский кодировщик) 192 kBit/s Дополнительные параметры: -V -8 -T "artist=%a" -T "title=%t" -T "album=%g" -T "date=%y" -T "tracknumber=%n" -T "genre=%m" %s
Другие параметры: Заполнение пропущенных сэмплов тишиной : Да Удаление блоков с тишиной в начале и конце : Нет Встроенный Win32-интерфейс для Win NT/2000
Трек 1 Имя файла E:\Раздачи\Будущие\Oistrakh\CD07\01.Sibelius, Violin Concerto in d minor, op. 47, 1. Allegro moderato.wav
Длина предзазора 0:00:02.00
Пиковый уровень 100.0 % Качество трека 99.9 % CRC теста 5CD39063 CRC копии 5CD39063 Копирование... OK
Трек 2 Имя файла E:\Раздачи\Будущие\Oistrakh\CD07\02.Sibelius, Violin Concerto in d minor, op. 47, 2. Adagio di molto.wav
Длина предзазора 0:00:05.06
Пиковый уровень 51.7 % Качество трека 100.0 % CRC теста 8F261CE3 CRC копии 8F261CE3 Копирование... OK
Трек 3 Имя файла E:\Раздачи\Будущие\Oistrakh\CD07\03.Sibelius, Violin Concerto in d minor, op. 47, 3. Allegro ma non tanto.wav
Длина предзазора 0:00:04.06
Пиковый уровень 74.5 % Качество трека 100.0 % CRC теста 0C5BD1FD CRC копии 0C5BD1FD Копирование... OK
Трек 4 Имя файла E:\Раздачи\Будущие\Oistrakh\CD07\04.Bartok, Violin Concerto No. 1, Sz. 36, 1. Andante sostenuso.wav
Длина предзазора 0:00:03.37
Пиковый уровень 77.9 % Качество трека 100.0 % CRC теста E77AF9A6 CRC копии E77AF9A6 Копирование... OK
Трек 5 Имя файла E:\Раздачи\Будущие\Oistrakh\CD07\05.Bartok, Violin Concerto No. 1, Sz. 36, 2. Allegro giocoso.wav
Пиковый уровень 97.5 % Качество трека 99.9 % CRC теста D894D34F CRC копии D894D34F Копирование... OK
Ошибок не произошло
Конец отчёта

Отчёт EAC CD8

Отчёт EAC об извлечении, выполненном 15. января 2008, 3:26 для диска:David Oistrach / Historic Russian Archives - CD8 - Szymanowski-Hindemith
Дисковод: TOSHIBA DVD-ROM SD-M1712 Adapter: 0 ID: 1Режим чтения: Достоверный (C2: нет, Точный поток: да, Отключение кэша: нет)Коррекция смещения при чтении: -472Способность читать области Lead-in и Lead-out : Нет
Выходной формат: C:\Program Files\FLAC\flac.exe (Пользовательский кодировщик) 192 kBit/s Дополнительные параметры: -V -8 -T "artist=%a" -T "title=%t" -T "album=%g" -T "date=%y" -T "tracknumber=%n" -T "genre=%m" %s
Другие параметры: Заполнение пропущенных сэмплов тишиной : Да Удаление блоков с тишиной в начале и конце : Нет Встроенный Win32-интерфейс для Win NT/2000
Трек 1 Имя файла E:\Раздачи\Будущие\Oistrakh\CD08\01.Szymanowski , Violin Concerto No.1 Op.35 - Movement 1.wav
Длина предзазора 0:00:02.00
Пиковый уровень 92.4 % Качество трека 100.0 % CRC теста 213C79E8 CRC копии 213C79E8 Копирование... OK
Трек 2 Имя файла E:\Раздачи\Будущие\Oistrakh\CD08\02.Szymanowski , Violin Concerto No.1 Op.35 - Movement 2.wav
Пиковый уровень 81.1 % Качество трека 100.0 % CRC теста 800AF219 CRC копии 800AF219 Копирование... OK
Трек 3 Имя файла E:\Раздачи\Будущие\Oistrakh\CD08\03.Hindemith , Violin Concerto - 1. Massig bewegte Halbe.wav
Длина предзазора 0:00:05.20
Пиковый уровень 75.6 % Качество трека 99.9 % CRC теста DCD0750D CRC копии DCD0750D Копирование... OK
Трек 4 Имя файла E:\Раздачи\Будущие\Oistrakh\CD08\04.Hindemith , Violin Concerto - 2. Langsam.wav
Пиковый уровень 74.6 % Качество трека 100.0 % CRC теста C55E2A4B CRC копии C55E2A4B Копирование... OK
Трек 5 Имя файла E:\Раздачи\Будущие\Oistrakh\CD08\05.Hindemith , Violin Concerto - 3. Lebhaft.wav
Пиковый уровень 91.8 % Качество трека 99.9 % CRC теста 279408C7 CRC копии 279408C7 Копирование... OK
Ошибок не произошло
Конец отчёта

Отчёт EAC CD9

Отчёт EAC об извлечении, выполненном 15. января 2008, 4:13 для диска:David Oistrach / Historic Russian Archives - CD9 - Glazunov-Chausson-Ravel-Glazunov
Дисковод: TOSHIBA DVD-ROM SD-M1712 Adapter: 0 ID: 1Режим чтения: Достоверный (C2: нет, Точный поток: да, Отключение кэша: нет)Коррекция смещения при чтении: -472Способность читать области Lead-in и Lead-out : Нет
Выходной формат: C:\Program Files\FLAC\flac.exe (Пользовательский кодировщик) 192 kBit/s Дополнительные параметры: -V -8 -T "artist=%a" -T "title=%t" -T "album=%g" -T "date=%y" -T "tracknumber=%n" -T "genre=%m" %s
Другие параметры: Заполнение пропущенных сэмплов тишиной : Да Удаление блоков с тишиной в начале и конце : Нет Встроенный Win32-интерфейс для Win NT/2000
Трек 1 Имя файла E:\Раздачи\Будущие\Oistrakh\CD09\01.Violin Concerto in A minor Op.82 Moderato-andante-allegro.wav
Длина предзазора 0:00:02.00
Пиковый уровень 96.1 % Качество трека 100.0 % CRC теста 977D31B5 CRC копии 977D31B5 Копирование... OK
Трек 2 Имя файла E:\Раздачи\Будущие\Oistrakh\CD09\02.Poeme, for violin and orchestra Op.25.wav
Длина предзазора 0:00:04.54
Пиковый уровень 98.5 % Качество трека 100.0 % CRC теста 428D61D6 CRC копии 428D61D6 Копирование... OK
Трек 3 Имя файла E:\Раздачи\Будущие\Oistrakh\CD09\03.Tzigane, rapsodie de concert for violin and orchestra.wav
Длина предзазора 0:00:04.44
Пиковый уровень 82.2 % Качество трека 99.9 % CRC теста 8E505FC0 CRC копии 8E505FC0 Копирование... OK
Трек 4 Имя файла E:\Раздачи\Будущие\Oistrakh\CD09\04.Mazurka-Oberek in D Major for violin and orchestra.wav
Длина предзазора 0:00:05.06
Пиковый уровень 77.3 % Качество трека 100.0 % CRC теста 908C97AE CRC копии 908C97AE Копирование... OK
Ошибок не произошло
Конец отчёта

Отчёт EAC CD10

Exact Audio Copy V0.99 prebeta 5 from 4. May 2009
EAC extraction logfile from 21. February 2010, 22:30
David Oistrach / Stravinsky-Miaskovsky
Used drive : PLEXTOR CD-R PX-240A Adapter: 2 ID: 1
Read mode : SecureUtilize accurate stream : YesDefeat audio cache : YesMake use of C2 pointers : No
Read offset correction : 6Overread into Lead-In and Lead-Out : NoFill up missing offset samples with silence : YesDelete leading and trailing silent blocks : NoNull samples used in CRC calculations : YesUsed interface : Native Win32 interface for Win NT & 2000Gap handling : Appended to previous track
Used output format : User Defined EncoderSelected bitrate : 128 kBit/sQuality : HighAdd ID3 tag : NoCommand line compressor : C:\Program Files\Exact Audio Copy\Flac\flac.exeAdditional command line options : -8 -V -T "ARTIST=%a" -T "TITLE=%t" -T "ALBUM=%g" -T "DATE=%y" -T "TRACKNUMBER=%n" -T "GENRE=%m" -T "COMMENT=EAC FLAC -8" %s
TOC of the extracted CD
Track | Start | Length | Start sector | End sector --------------------------------------------------------- 1 | 0:00.00 | 5:17.72 | 0 | 23846 2 | 5:17.72 | 4:32.50 | 23847 | 44296 3 | 9:50.47 | 4:57.48 | 44297 | 66619 4 | 14:48.20 | 6:07.65 | 66620 | 94209 5 | 20:56.10 | 18:24.18 | 94210 | 177027 6 | 39:20.28 | 9:59.41 | 177028 | 221993 7 | 49:19.69 | 7:10.16 | 221994 | 254259
Track 1
Filename C:\Oistrakh\Oistrakh\CD10\01. David Oistrach - Stravinsky - Violin Concerto In D Major - 1. Toccata.wav
Pre-gap length 0:00:02.00
Peak level 100.0 % Track quality 100.0 % Test CRC CB0C6068 Copy CRC CB0C6068 Cannot be verified as accurate (confidence 5) [EF086CF4], AccurateRip returned [2E5529C8] Copy OK
Track 2
Filename C:\Oistrakh\Oistrakh\CD10\02. David Oistrach - Stravinsky - Violin Concerto In D Major - 2. Aria I.wav
Peak level 100.0 % Track quality 100.0 % Test CRC D191AECA Copy CRC D191AECA Cannot be verified as accurate (confidence 5) [5DB8C324], AccurateRip returned [492B58C6] Copy OK
Track 3
Filename C:\Oistrakh\Oistrakh\CD10\03. David Oistrach - Stravinsky - Violin Concerto In D Major - 3. Aria II.wav
Pre-gap length 0:00:00.01
Peak level 100.0 % Track quality 100.0 % Test CRC B05C5AD5 Copy CRC B05C5AD5 Cannot be verified as accurate (confidence 5) [A834252B], AccurateRip returned [C8EBBAB3] Copy OK
Track 4
Filename C:\Oistrakh\Oistrakh\CD10\04. David Oistrach - Stravinsky - Violin Concerto In D Major - 4. Capriccio.wav
Pre-gap length 0:00:00.01
Peak level 100.0 % Track quality 100.0 % Test CRC 163592E8 Copy CRC 163592E8 Cannot be verified as accurate (confidence 5) [E418DCB2], AccurateRip returned [68988117] Copy OK
Track 5
Filename C:\Oistrakh\Oistrakh\CD10\05. David Oistrach - Miaskovsky - Violin Concerto in D minor Op. 44 - 1. Allegro.wav
Pre-gap length 0:00:00.01
Peak level 100.0 % Track quality 100.0 % Test CRC AB5BFF1A Copy CRC AB5BFF1A Cannot be verified as accurate (confidence 5) [0AA21372], AccurateRip returned [53B300BA] Copy OK
Track 6
Filename C:\Oistrakh\Oistrakh\CD10\06. David Oistrach - Miaskovsky - Violin Concerto in D minor Op. 44 - 2. Adagio motto catabile.wav
Peak level 83.6 % Track quality 100.0 % Test CRC C51D678D Copy CRC C51D678D Cannot be verified as accurate (confidence 5) [25AAB312], AccurateRip returned [FFDD2F9B] Copy OK
Track 7
Filename C:\Oistrakh\Oistrakh\CD10\07. David Oistrach - Miaskovsky - Violin Concerto in D minor Op. 44 - 3. Allegro motto.wav
Peak level 96.1 % Track quality 100.0 % Test CRC 980BBB9F Copy CRC 980BBB9F Cannot be verified as accurate (confidence 5) [B12EAFE6], AccurateRip returned [FBA7D104] Copy OK
No tracks could be verified as accurateYou may have a different pressing from the one(s) in the database
No errors occurred
End of status report

CUECUE CD1

REM GENRE ClassicalREM DATE 1949REM DISCID 4D0E1006REM COMMENT "ExactAudioCopy v0.95b4"PERFORMER "Oistrakh, Kondrashin"TITLE "Mendelssohn Dvorak Violin Concertos (Historic Russian Archives)"FILE "01.Mendelssohn- Violin Concerto in E minor Op 64 - 1. Allegro molto appassionato.wav" WAVE TRACK 01 AUDIO TITLE "Mendelssohn: Violin Concerto in E minor Op 64 - 1. Allegro molto appassionato" PERFORMER "Oistrakh, Kondrashin" INDEX 01 00:00:00FILE "02.2. Andante.wav" WAVE TRACK 02 AUDIO TITLE "2. Andante" PERFORMER "Oistrakh, Kondrashin" INDEX 01 00:00:00FILE "03.3. Allegretto non troppo-allegro molto vivace.wav" WAVE TRACK 03 AUDIO TITLE "3. Allegretto non troppo-allegro molto vivace" PERFORMER "Oistrakh, Kondrashin" INDEX 01 00:00:00FILE "04.Dvorak- Violin Concerto in A minor Op 53 - 1. Allegro con Brio.wav" WAVE TRACK 04 AUDIO TITLE "Dvorak: Violin Concerto in A minor Op 53 - 1. Allegro con Brio" PERFORMER "Oistrakh, Kondrashin" INDEX 01 00:00:00FILE "05.2. Adagio ma non troppo.wav" WAVE TRACK 05 AUDIO TITLE "2. Adagio ma non troppo" PERFORMER "Oistrakh, Kondrashin" INDEX 01 00:00:00FILE "06.3. Allegro giocoso ma non troppo.wav" WAVE TRACK 06 AUDIO TITLE "3. Allegro giocoso ma non troppo" PERFORMER "Oistrakh, Kondrashin" INDEX 01 00:00:00

CUE CD2

REM GENRE ClassicalREM DATE 2005REM DISCID 3D0F2C05REM COMMENT "ExactAudioCopy v0.95b4"PERFORMER "Shostakovich"TITLE "Violin Concertos (David Oistrakh, violin)"FILE "01.Violin Concerto N°1 in A minor Op.99 - I. Nocturne (Mravinsky, Leningrad Phil. Orch. 1956).wav" WAVE TRACK 01 AUDIO TITLE "Violin Concerto N°1 in A minor Op.99 - I. Nocturne (Mravinsky, Leningrad Phi..." PERFORMER "Shostakovich" INDEX 01 00:00:00FILE "02.Violin Concerto N°1 in A minor Op.99 - II. Scherzo.wav" WAVE TRACK 02 AUDIO TITLE "Violin Concerto N°1 in A minor Op.99 - II. Scherzo" PERFORMER "Shostakovich" INDEX 01 00:00:00FILE "03.Violin Concerto N°1 in A minor Op.99 - III. Passacaglia-Burlesque.wav" WAVE TRACK 03 AUDIO TITLE "Violin Concerto N°1 in A minor Op.99 - III. Passacaglia-Burlesque" PERFORMER "Shostakovich" INDEX 01 00:00:00 TRACK 04 AUDIO TITLE "Violin Concerto N°2 in C sharp minor Op.129 - I. Moderato (Rozhdestvensky, M..." PERFORMER "Shostakovich" INDEX 00 18:15:69FILE "04.Violin Concerto N°2 in C sharp minor Op.129 - I. Moderato (Rozhdestvensky, Moscow Phil. Orch. 1968).wav" WAVE INDEX 01 00:00:00FILE "05.Violin Concerto N°2 in C sharp minor Op.129 - II. Adagio, adagio-allegro.wav" WAVE TRACK 05 AUDIO TITLE "Violin Concerto N°2 in C sharp minor Op.129 - II. Adagio, adagio-allegro" PERFORMER "Shostakovich" INDEX 01 00:00:00

CUE CD3

REM DISCID 680EDB08REM COMMENT "ExactAudioCopy v0.99pb5"PERFORMER "D.Oistrakh"TITLE "Lalo, Bruch"FILE "01. D.Oistrakh - Lalo. Simphonie espagnole. I.Allegro non troppo.wav" WAVE TRACK 01 AUDIO TITLE "Lalo. Simphonie espagnole. I.Allegro non troppo" PERFORMER "D.Oistrakh" INDEX 01 00:00:00FILE "02. D.Oistrakh - Lalo. Simphonie espagnole. II.Scherzo-Allegro molto.wav" WAVE TRACK 02 AUDIO TITLE "Lalo. Simphonie espagnole. II.Scherzo-Allegro molto" PERFORMER "D.Oistrakh" INDEX 01 00:00:00FILE "03. D.Oistrakh - Lalo. Simphonie espagnole. III.Intermezzo-Allegretto non troppo.wav" WAVE TRACK 03 AUDIO TITLE "Lalo. Simphonie espagnole. III.Intermezzo-Allegretto non troppo" PERFORMER "D.Oistrakh" INDEX 01 00:00:00FILE "04. D.Oistrakh - Lalo. Simphonie espagnole. IV.Andante.wav" WAVE TRACK 04 AUDIO TITLE "Lalo. Simphonie espagnole. IV.Andante" PERFORMER "D.Oistrakh" INDEX 01 00:00:00FILE "05. D.Oistrakh - Lalo. Simphonie espagnole. V.Rondo, Allegro.wav" WAVE TRACK 05 AUDIO TITLE "Lalo. Simphonie espagnole. V.Rondo, Allegro" PERFORMER "D.Oistrakh" INDEX 01 00:00:00 TRACK 06 AUDIO TITLE "Bruch. Scottish Fantasy. I.Allegro" PERFORMER "D.Oistrakh" INDEX 00 07:22:12FILE "06. D.Oistrakh - Bruch. Scottish Fantasy. I.Allegro.wav" WAVE INDEX 01 00:00:00FILE "07. D.Oistrakh - Bruch. Scottish Fantasy. II.Adagio.wav" WAVE TRACK 07 AUDIO TITLE "Bruch. Scottish Fantasy. II.Adagio" PERFORMER "D.Oistrakh" INDEX 01 00:00:00FILE "08. D.Oistrakh - Bruch. Scottish Fantasy. III.Finale, allegro guerrieto.wav" WAVE TRACK 08 AUDIO TITLE "Bruch. Scottish Fantasy. III.Finale, allegro guerrieto" PERFORMER "D.Oistrakh" INDEX 01 00:00:00

CUE CD4

REM GENRE ClassicalREM DATE 2007REM DISCID 370E3605REM COMMENT "ExactAudioCopy v0.99pb5"PERFORMER "David Oistrach"TITLE "Beethoven"FILE "01. David Oistrach - Violin Concerto in D Major Op.61 1. Allegro ma non troppo.wav" WAVE TRACK 01 AUDIO TITLE "Violin Concerto in D Major Op.61 1. Allegro ma non troppo" PERFORMER "David Oistrach" INDEX 01 00:00:00FILE "02. David Oistrach - Violin Concerto in D Major Op.61 2. Larghetto.wav" WAVE TRACK 02 AUDIO TITLE "Violin Concerto in D Major Op.61 2. Larghetto" PERFORMER "David Oistrach" INDEX 01 00:00:00 TRACK 03 AUDIO TITLE "Violin Concerto in D Major Op.61 3. Rhondo" PERFORMER "David Oistrach" INDEX 00 09:29:14FILE "03. David Oistrach - Violin Concerto in D Major Op.61 3. Rhondo.wav" WAVE INDEX 01 00:00:00 TRACK 04 AUDIO TITLE "Romance for violin and orchestra No.1 in G major Op.40" PERFORMER "David Oistrach" INDEX 00 10:12:06FILE "04. David Oistrach - Romance for violin and orchestra No.1 in G major Op.40.wav" WAVE INDEX 01 00:00:00 TRACK 05 AUDIO TITLE "Romance for violin and orchestra No.2 in F major Op.50" PERFORMER "David Oistrach" INDEX 00 07:32:49FILE "05. David Oistrach - Romance for violin and orchestra No.2 in F major Op.50.wav" WAVE INDEX 01 00:00:00

CUE CD5

REM GENRE ClassicalREM DATE 2007REM DISCID 680D8A08REM COMMENT "ExactAudioCopy v0.99pb5"PERFORMER "David Oistrakh"TITLE "Kabalevsky, Taneyev"FILE "01. David Oistrakh - 01 - Kabalevsky - Violin concerto in C Major, Op.48 - I - Allegro molto e con brio.wav" WAVE TRACK 01 AUDIO TITLE "01 - Kabalevsky - Violin concerto in C Major, Op.48 - I - Allegro molto e con..." PERFORMER "David Oistrakh" INDEX 01 00:00:00FILE "02. David Oistrakh - 02 - Kabalevsky - Violin concerto in C Major, Op.48 - II - Andantino cantabile.wav" WAVE TRACK 02 AUDIO TITLE "02 - Kabalevsky - Violin concerto in C Major, Op.48 - II - Andantino cantabile" PERFORMER "David Oistrakh" INDEX 01 00:00:00FILE "03. David Oistrakh - 03 - Kabalevsky - Violin concerto in C Major, Op.48 - III - Vivace giocoso.wav" WAVE TRACK 03 AUDIO TITLE "03 - Kabalevsky - Violin concerto in C Major, Op.48 - III - Vivace giocoso" PERFORMER "David Oistrakh" INDEX 01 00:00:00 TRACK 04 AUDIO TITLE "04 - Taneyev - Concert suite for violin & orchestra, Op.28 - I - Prelude" PERFORMER "David Oistrakh" INDEX 00 05:10:21FILE "04. David Oistrakh - 04 - Taneyev - Concert suite for violin & orchestra, Op.28 - I - Prelude.wav" WAVE INDEX 01 00:00:00FILE "05. David Oistrakh - 05 - Taneyev - Concert suite for violin & orchestra, Op.28 - II - Gavotte.wav" WAVE TRACK 05 AUDIO TITLE "05 - Taneyev - Concert suite for violin & orchestra, Op.28 - II - Gavotte" PERFORMER "David Oistrakh" INDEX 01 00:00:00FILE "06. David Oistrakh - 06 - Taneyev - Concert suite for violin & orchestra, Op.28 - III - Tema con variazioni.wav" WAVE TRACK 06 AUDIO TITLE "06 - Taneyev - Concert suite for violin & orchestra, Op.28 - III - Tema con v..." PERFORMER "David Oistrakh" INDEX 01 00:00:00FILE "07. David Oistrakh - 07 - Taneyev - Concert suite for violin & orchestra, Op.28 - IV - Fairy tale.wav" WAVE TRACK 07 AUDIO TITLE "07 - Taneyev - Concert suite for violin & orchestra, Op.28 - IV - Fairy tale" PERFORMER "David Oistrakh" INDEX 01 00:00:00FILE "08. David Oistrakh - 08 - Taneyev - Concert suite for violin & orchestra, Op.28 - V - Tarantella.wav" WAVE TRACK 08 AUDIO TITLE "08 - Taneyev - Concert suite for violin & orchestra, Op.28 - V - Tarantella" PERFORMER "David Oistrakh" INDEX 01 00:00:00

CUE CD6

REM DISCID 4C0CCC06REM COMMENT "ExactAudioCopy v0.95b4"PERFORMER "David Oistrakh"TITLE "Historic Russian Archives: Prokofiev, Tchaikovsky"FILE "01.Prokofiev, Violin Concerto No. 1 in D major op. 19, 1. Andantino - andante assai.wav" WAVE TRACK 01 AUDIO TITLE "Prokofiev, Violin Concerto No. 1 in D major op. 19, 1. Andantino - andante assai" PERFORMER "David Oistrakh" INDEX 01 00:00:00FILE "02.Prokofiev, Violin Concerto No. 1 in D major op. 19, 2. Scherzo, vivacissimo.wav" WAVE TRACK 02 AUDIO TITLE "Prokofiev, Violin Concerto No. 1 in D major op. 19, 2. Scherzo, vivacissimo" PERFORMER "David Oistrakh" INDEX 01 00:00:00FILE "03.Prokofiev, Violin Concerto No. 1 in D major op. 19, 3. Moderato.wav" WAVE TRACK 03 AUDIO TITLE "Prokofiev, Violin Concerto No. 1 in D major op. 19, 3. Moderato" PERFORMER "David Oistrakh" INDEX 01 00:00:00 TRACK 04 AUDIO TITLE "Tchaikovsky, Violin Concerto in D major op. 35, 1. Allegro moderato" PERFORMER "David Oistrakh" INDEX 00 07:31:42FILE "04.Tchaikovsky, Violin Concerto in D major op. 35, 1. Allegro moderato.wav" WAVE INDEX 01 00:00:00FILE "05.Tchaikovsky, Violin Concerto in D major op. 35, 2. Andante.wav" WAVE TRACK 05 AUDIO TITLE "Tchaikovsky, Violin Concerto in D major op. 35, 2. Andante" PERFORMER "David Oistrakh" INDEX 01 00:00:00FILE "06.Tchaikovsky, Violin Concerto in D major op. 35, 3. Allegro vivacissimo.wav" WAVE TRACK 06 AUDIO TITLE "Tchaikovsky, Violin Concerto in D major op. 35, 3. Allegro vivacissimo" PERFORMER "David Oistrakh" INDEX 01 00:00:00

CUE CD7

REM DISCID 430BA505REM COMMENT "ExactAudioCopy v0.95b4"PERFORMER "David Oistrakh"TITLE "Historic Russian Archives"FILE "01.Sibelius, Violin Concerto in d minor, op. 47, 1. Allegro moderato.wav" WAVE TRACK 01 AUDIO TITLE "Sibelius, Violin Concerto in d minor, op. 47, 1. Allegro moderato" PERFORMER "David Oistrakh" INDEX 01 00:00:00 TRACK 02 AUDIO TITLE "Sibelius, Violin Concerto in d minor, op. 47, 2. Adagio di molto" PERFORMER "David Oistrakh" INDEX 00 14:14:73FILE "02.Sibelius, Violin Concerto in d minor, op. 47, 2. Adagio di molto.wav" WAVE INDEX 01 00:00:00 TRACK 03 AUDIO TITLE "Sibelius, Violin Concerto in d minor, op. 47, 3. Allegro ma non tanto" PERFORMER "David Oistrakh" INDEX 00 07:52:71FILE "03.Sibelius, Violin Concerto in d minor, op. 47, 3. Allegro ma non tanto.wav" WAVE INDEX 01 00:00:00 TRACK 04 AUDIO TITLE "Bartok, Violin Concerto No. 1, Sz. 36, 1. Andante sostenuso" PERFORMER "David Oistrakh" INDEX 00 07:12:66FILE "04.Bartok, Violin Concerto No. 1, Sz. 36, 1. Andante sostenuso.wav" WAVE INDEX 01 00:00:00FILE "05.Bartok, Violin Concerto No. 1, Sz. 36, 2. Allegro giocoso.wav" WAVE TRACK 05 AUDIO TITLE "Bartok, Violin Concerto No. 1, Sz. 36, 2. Allegro giocoso" PERFORMER "David Oistrakh" INDEX 01 00:00:00

CUE CD8

REM GENRE ClassicalREM DISCID 560B9005REM COMMENT "ExactAudioCopy v0.95b4"PERFORMER "David Oistrach"TITLE "Historic Russian Archives - CD8 - Szymanowski-Hindemith"FILE "01.Szymanowski , Violin Concerto No.1 Op.35 - Movement 1.wav" WAVE TRACK 01 AUDIO TITLE "Szymanowski / Violin Concerto No.1 Op.35 - Movement 1" PERFORMER "David Oistrach" INDEX 01 00:00:00FILE "02.Szymanowski , Violin Concerto No.1 Op.35 - Movement 2.wav" WAVE TRACK 02 AUDIO TITLE "Szymanowski / Violin Concerto No.1 Op.35 - Movement 2" PERFORMER "David Oistrach" INDEX 01 00:00:00 TRACK 03 AUDIO TITLE "Hindemith / Violin Concerto - 1. Massig bewegte Halbe" PERFORMER "David Oistrach" INDEX 00 04:35:00FILE "03.Hindemith , Violin Concerto - 1. Massig bewegte Halbe.wav" WAVE INDEX 01 00:00:00FILE "04.Hindemith , Violin Concerto - 2. Langsam.wav" WAVE TRACK 04 AUDIO TITLE "Hindemith / Violin Concerto - 2. Langsam" PERFORMER "David Oistrach" INDEX 01 00:00:00FILE "05.Hindemith , Violin Concerto - 3. Lebhaft.wav" WAVE TRACK 05 AUDIO TITLE "Hindemith / Violin Concerto - 3. Lebhaft" PERFORMER "David Oistrach" INDEX 01 00:00:00

CUE CD9

REM GENRE ClassicalREM DISCID 2F0D4104REM COMMENT "ExactAudioCopy v0.95b4"PERFORMER "David Oistrach"TITLE "Historic Russian Archives - CD9 - Glazunov-Chausson-Ravel-Glazunov"FILE "01.Violin Concerto in A minor Op.82 Moderato-andante-allegro.wav" WAVE TRACK 01 AUDIO TITLE "Violin Concerto in A minor Op.82 Moderato-andante-allegro" PERFORMER "David Oistrach" INDEX 01 00:00:00 TRACK 02 AUDIO TITLE "Poeme, for violin and orchestra Op.25" PERFORMER "David Oistrach" INDEX 00 21:42:29FILE "02.Poeme, for violin and orchestra Op.25.wav" WAVE INDEX 01 00:00:00 TRACK 03 AUDIO TITLE "Tzigane, rapsodie de concert for violin and orchestra" PERFORMER "David Oistrach" INDEX 00 15:51:10FILE "03.Tzigane, rapsodie de concert for violin and orchestra.wav" WAVE INDEX 01 00:00:00 TRACK 04 AUDIO TITLE "Mazurka-Oberek in D Major for violin and orchestra" PERFORMER "David Oistrach" INDEX 00 09:07:34FILE "04.Mazurka-Oberek in D Major for violin and orchestra.wav" WAVE INDEX 01 00:00:00

CUE CD10

REM GENRE ClassicalREM DATE 2007REM DISCID 5F0D3E07REM COMMENT "ExactAudioCopy v0.99pb5"PERFORMER "David Oistrach"TITLE "Stravinsky-Miaskovsky"FILE "01. David Oistrach - Stravinsky - Violin Concerto In D Major - 1. Toccata.wav" WAVE TRACK 01 AUDIO TITLE "Stravinsky : Violin Concerto In D Major - 1. Toccata" PERFORMER "David Oistrach" INDEX 01 00:00:00FILE "02. David Oistrach - Stravinsky - Violin Concerto In D Major - 2. Aria I.wav" WAVE TRACK 02 AUDIO TITLE "Stravinsky : Violin Concerto In D Major - 2. Aria I" PERFORMER "David Oistrach" INDEX 01 00:00:00 TRACK 03 AUDIO TITLE "Stravinsky : Violin Concerto In D Major - 3. Aria II" PERFORMER "David Oistrach" INDEX 00 04:32:49FILE "03. David Oistrach - Stravinsky - Violin Concerto In D Major - 3. Aria II.wav" WAVE INDEX 01 00:00:00 TRACK 04 AUDIO TITLE "Stravinsky : Violin Concerto In D Major - 4. Capriccio" PERFORMER "David Oistrach" INDEX 00 04:57:47FILE "04. David Oistrach - Stravinsky - Violin Concerto In D Major - 4. Capriccio.wav" WAVE INDEX 01 00:00:00 TRACK 05 AUDIO TITLE "Miaskovsky : Violin Concerto in D minor Op. 44 - 1. Allegro" PERFORMER "David Oistrach" INDEX 00 06:07:64FILE "05. David Oistrach - Miaskovsky - Violin Concerto in D minor Op. 44 - 1. Allegro.wav" WAVE INDEX 01 00:00:00FILE "06. David Oistrach - Miaskovsky - Violin Concerto in D minor Op. 44 - 2. Adagio motto catabile.wav" WAVE TRACK 06 AUDIO TITLE "Miaskovsky : Violin Concerto in D minor Op. 44 - 2. Adagio motto catabile" PERFORMER "David Oistrach" INDEX 01 00:00:00FILE "07. David Oistrach - Miaskovsky - Violin Concerto in D minor Op. 44 - 3. Allegro motto.wav" WAVE TRACK 07 AUDIO TITLE "Miaskovsky : Violin Concerto in D minor Op. 44 - 3. Allegro motto" PERFORMER "David Oistrach" INDEX 01 00:00:00
[teatrix.ru].t10050.torrent 
Торрент: Зарегистрирован [ 2015-10-25 20:37 ] · 4B803F65DD1D8E8430F34A65500FDD482D695129

Скачать .torrent

Скачать

22 KB

Статус: проверено
Скачан: 1 раз
Размер: 2.34 GB
terms.php



Быстрый ответ

Имя:

      
Для отправки сообщений необходимо включить JavaScript
Показать сообщения:    

Текущее время: 08-Дек 14:58

Часовой пояс: UTC + 3


Вы можете начинать темы
Вы можете отвечать на сообщения
Вы не можете редактировать свои сообщения
Вы не можете удалять свои сообщения
Вы не можете голосовать в опросах
Вы не можете прикреплять файлы к сообщениям
Вы можете скачивать файлы