(Classical/Vocal) Janet Baker: The Beloved Mezzo - 2008, APE (image+.cue), lossless


Статистика раздачи [Обновить пиров]
Размер:  1.49 GB   |    Зарегистрирован:  1 год 1 месяц   |    Скачан:  1 раз

Полного источника не было: 1 месяц 3 дня

 
   
 
 
 

[Цитировать]

Janet Baker: The Beloved Mezzo

Рип господина Berthold_80!
Жанр: Classical/Vocal
Год выпуска диска: 2008
Производитель диска: EMI Classics (IKON)
Аудио кодек: APE
Тип рипа: image+.cue
Битрейт аудио: lossless
Продолжительность: CD1 77'00 ; CD2 75'30 ; CD3 77'00 ; CD4 73'00 ; CD5 77'10
Трэклист:

скрытый текст

CD 1
BRAHMS: Alto Rhapsody
WAGNER: Wesendonck-Lieder
R. STRAUSS: Lieder
ELGAR: Sea Pictures · The Dream of Gerontius - Softly and gently
CD 2
BERLIOZ: Les Nuits d'été
RAVEL: Shéhérazade
CHAUSSON: Poème de l'amour et de la mer
CD 3
MAHLER: Orchestral Songs · Symphony No.2 "Resurrection" - Urlicht
CD 4
HANDEL · J.S. BACH: Arias
DOWLAND · CAMPION · PURCELL · BOYCE · MONRO · ARNE: Songs
CD 5
SCHUBERT · SCHUMANN · MENDELSSOHN · LISZT: Lieder
Подробный трэклист:

скрытый текст

Disc 1:
1. Alto Rhapsody Op. 53 (2004 Digital Remaster) Sir Adrian Boult/London Philharmonic Orchestra/Dame Janet Baker 11:57
2. Wesendonck-Lieder (2008 Digital Remaster): I. Der Engel Dame Janet Baker/London Philharmonic Orchestra/Sir Adrian Boult 3:46
3. II. Stehe still Dame Janet Baker/London Philharmonic Orchestra/Sir Adrian Boult 4:51
4. III. Im Treibhaus Dame Janet Baker/London Philharmonic Orchestra/Sir Adrian Boult 6:20
5. IV. Schmerzen Dame Janet Baker/London Philharmonic Orchestra/Sir Adrian Boult 2:57
6. V. Träume Dame Janet Baker/London Philharmonic Orchestra/Sir Adrian Boult 5:55
7. Fünf Lieder Op. 32: No. 3, Liebeshymnus (wds. K Henckell: orch 1897) Dame Janet Baker/London Philharmonic Orchestra/Sir Adrian Boult 2:06
8. Das Rosenband Op. 36 No. 1 [with orch.] Dame Janet Baker/London Philharmonic Orchestra/Sir Adrian Boult 3:32
9. Ruhe meine Seele Op.27, No.1 Dame Janet Baker/London Philharmonic Orchestra/Sir Adrian Boult 4:36
10. Muttertändelei, Op. 43/2 (Bürger) Dame Janet Baker/London Philharmonic Orchestra/Sir Adrian Boult 2:22
11. Sea Pictures Op. 37 (2004 Digital Remaster): I. Sea Slumber-Song (Roden Noel) Dame Janet Baker/London Symphony Orchestra/Sir John Barbirolli 5:04
12. II. In Haven (Capri) (C. Alice Elgar) Dame Janet Baker/London Symphony Orchestra/Sir John Barbirolli 2:06
13. III. Sabbath Morning at Sea (Elizabeth Barrett Browning) Dame Janet Baker/London Symphony Orchestra/Sir John Barbirolli 6:20
14. IV. Where Corals Lie (Richard Garnett) Dame Janet Baker/London Symphony Orchestra/Sir John Barbirolli 4:10
15. V. The Swimmer (A. Lindsay Gordon) Dame Janet Baker/London Symphony Orchestra/Sir John Barbirolli 6:10
16. The Dream of Gerontius Op. 38 (2007 Digital Remaster), Part II: Softly and gently (Angel, chorus, semi-chorus) Dame Janet Baker/Hallé Choir/Sheffield Philharmonic Chorus/Eric Chadwick/Ambrosian Singers/John McCarthy/Hallé Orchestra/Martin Milner/Sir John Barbirolli 7:00
Disc 2:
1. Les Nuits d'été Op. 7 (1998 Digital Remaster): Villanelle Dame Janet Baker/Sir John Barbirolli/New Philharmonia Orchestra 2:22
2. Le Spectre de la Rose Dame Janet Baker/Sir John Barbirolli/New Philharmonia Orchestra 7:53
3. Sur les Lagunes Dame Janet Baker/Sir John Barbirolli/New Philharmonia Orchestra 5:38
4. Absence Dame Janet Baker/Sir John Barbirolli/New Philharmonia Orchestra 5:28
5. Au Cimetière Dame Janet Baker/Sir John Barbirolli/New Philharmonia Orchestra 6:09
6. L'île inconnue Dame Janet Baker/Sir John Barbirolli/New Philharmonia Orchestra 4:01
7. Shéhérazade (1995 Digital Remaster): 1. Asie Dame Janet Baker/New Philharmonia Orchestra/Sir John Barbirolli 9:51
8. 2. La flûte enchantée Dame Janet Baker/New Philharmonia Orchestra/Sir John Barbirolli 3:00
9. 3. L'indifférent Dame Janet Baker/New Philharmonia Orchestra/Sir John Barbirolli 3:47
10. Poème de l'amour et de la mer Op. 19 (1995 Digital Remaster): La fleur des eaux (Calme) Dame Janet Baker/London Symphony Orchestra/André Previn 11:27
11. Interlude (Lent et triste) Dame Janet Baker/London Symphony Orchestra/André Previn 2:41
12. La mort de l'amour (Vif et joyeux - Sombre et solennel - Lent et triste) Dame Janet Baker/London Symphony Orchestra/André Previn 13:09
Disc 3:
1. Kindertotenlieder (Rückert) (1999 Digital Remaster): I: Nun will die Sonn' so hell aufgeh'n Dame Janet Baker/Hallé Orchestra/Sir John Barbirolli 6:00
2. II: Nun seh' ich wohl, warum so dunkle Flammen Dame Janet Baker/Hallé Orchestra/Sir John Barbirolli 5:11
3. III: Wenn dein Mütterlein, tritt zur Tür herein Dame Janet Baker/Hallé Orchestra/Sir John Barbirolli 5:21
4. IV: Oft denk' ich, sie sind nur augesgangen! Dame Janet Baker/Hallé Orchestra/Sir John Barbirolli 3:09
5. V: In diesem Wetter, in diesem Braus Dame Janet Baker/Hallé Orchestra/Sir John Barbirolli 7:44
6. Five Rückert-Lieder (1999 Digital Remaster): I: Blicke mir nicht in die Lieder! Dame Janet Baker/New Philharmonia Orchestra/Sir John Barbirolli 1:38
7. II: Ich atmet' einen linden Duft! Dame Janet Baker/New Philharmonia Orchestra/Sir John Barbirolli 2:41
8. III: Um Mitternacht Dame Janet Baker/New Philharmonia Orchestra/Sir John Barbirolli 5:54
9. IV: Liebst du um Schönheit (orch. Max Puttmann) Dame Janet Baker/New Philharmonia Orchestra/Sir John Barbirolli 2:27
10. V: Ich bin der Welt abhanden gekommen Dame Janet Baker/New Philharmonia Orchestra/Sir John Barbirolli 6:55
11. Lieder eines fahrenden Gesellen (1999 Digital Remaster): I: Wenn mein Schatz Hochzeit macht Dame Janet Baker/Hallé Orchestra/Sir John Barbirolli 4:20
12. II: Ging heut' Morgen übers Feld Dame Janet Baker/Hallé Orchestra/Sir John Barbirolli 4:43
13. III: Ich hab' ein glühend Messer Dame Janet Baker/Hallé Orchestra/Sir John Barbirolli 3:34
14. IV: Die zwei blauen Augen Dame Janet Baker/Hallé Orchestra/Sir John Barbirolli 5:06
15. Ich bin der Welt abhanden gekommen (1999 Digital Remaster) Dame Janet Baker/Hallé Orchestra/Sir John Barbirolli 6:58
16. Symphony No. 2 in C minor, 'Resurrection': IV. Urlicht. Sehr feierlich, aber schlicht Arleen Augér/Dame Janet Baker/Cbso Chorus/City Of Birmingham Symphony Orchestra/Sir Simon Rattle 5:10
Disc 4:
1. Messiah Hwv56 (1987 Digital Remaster), Part 2: He Was Despised (Alto Air: Largo) Elizabeth Harwood/Dame Janet Baker/Paul Esswood/Robert Tear/Raimund Herincx/Ambrosian Singers/English Chamber Orchestra/Sir Charles MacKerras 12:41
2. Italian Cantata No.1 - Ah! crudel nel pianto mio (2001 Digital Remaster): Aria: Per trofei di mia constenna Dame Janet Baker/Raymond Leppard/English Chamber Orchestra 7:47
3. Cantata No.13 - Armida abbandonata (2001 Digital Remaster): Aria: Ah! crudel, e pur ten vei Dame Janet Baker/Raymond Leppard/English Chamber Orchestra 7:01
4. Cantata No. 82, 'Ich habe genug' BWV82 (2001 Digital Remaster): Aria: Schlummert ein Dame Janet Baker/Bath Festival Orchestra/Yehudi Menuhin 9:54
5. Bereite dich, Zion from Christmas Oratorio BWV248 (2001 Digital Remaster) Dame Janet Baker/Academy Of St Martin-In-The-Fields/Sir Neville Marriner 5:10
6. St. John Passion - Es ist vollbracht (2001 Digital Remaster) Dame Janet Baker/Sir Neville Marriner/Academy Of St Martin-In-The-Fields 5:39
7. Bist du bei mir (attrib. J. S. Bach BWV508) (from the notebook of Anna Magdalena Bach) (2001 Digital Remaster) Dame Janet Baker/Academy Of St Martin-In-The-Fields/Sir Neville Marriner 2:58
8. Come Again, Sweet Love (2008 Digital Remaster) Dame Janet Baker/Robert Spencer 2:29
9. Never love unless you can Dame Janet Baker/Robert Spencer 1:09
10. Oft have I sighed Dame Janet Baker/Robert Spencer 2:36
11. If thour longst so much to learn Dame Janet Baker/Robert Spencer 1:52
12. Fain would I wed Dame Janet Baker/Robert Spencer 1:18
13. Sleep, Adan, sleep Dame Janet Baker/Martin Isepp/Ambrose Gauntlett 1:54
14. Lord, what is man? Dame Janet Baker/Martin Isepp/Ambrose Gauntlett 5:41
15. Tell me lovely shepherd Dame Janet Baker/Martin Isepp/Ambrose Gauntlett 2:10
16. My lovely Celia Dame Janet Baker/Martin Isepp/Ambrose Gauntlett 2:25
17. Where the bee sucks (2008 Digital remaster) Dame Janet Baker/Martin Isepp/Ambrose Gauntlett/Douglas Whittaker 1:51
Disc 5:
1. Gretchen am Spinnrade D118 Dame Janet Baker/Gerald Moore 3:39
2. Ellens Gesang III - Ave Maria D839 (1996 Digital Remaster) Dame Janet Baker/Gerald Moore 6:49
3. Heidenröslein D257 (1996 Digital Remaster) Dame Janet Baker/Geoffrey Parsons 1:50
4. An die Musik D547 (1996 Digital Remaster) Dame Janet Baker/Geoffrey Parsons 2:46
5. Die Forelle D550 (1996 Digital Remaster) Dame Janet Baker/Geoffrey Parsons 2:00
6. Auf dem Wasser zu singen D774 (1996 Digital Remaster) Dame Janet Baker/Geoffrey Parsons 3:18
7. Du bist die Ruh D776 (1996 Digital Remaster) Dame Janet Baker/Geoffrey Parsons 4:31
8. Nacht und Träume D827 (1996 Digital Remaster) Dame Janet Baker/Geoffrey Parsons 4:32
9. An Sylvia D891 Dame Janet Baker/Geoffrey Parsons 3:00
10. Frauenliebe und -leben Op. 42 (1995 Digital Remaster): I. Seit ich ihn gesehen Dame Janet Baker/Daniel Barenboim 2:29
11. II. Er, der Herrlichste von allen Daniel Barenboim/Dame Janet Baker 3:09
12. III. Ich kann's nicht fassen, nicht glauben Daniel Barenboim/Dame Janet Baker 1:52
13. IV. Du Ring an meinem Finger Dame Janet Baker/Daniel Barenboim 2:50
14. V. Helft mir, ihr Schwestern Daniel Barenboim/Dame Janet Baker 2:02
15. VI. Süsser Freund, du blickest Daniel Barenboim/Dame Janet Baker 5:09
16. VII. An meinem Herzen, an meiner Brust Daniel Barenboim/Dame Janet Baker 1:25
17. VIII. Nun hast du mir den ersten Schmerz getan Daniel Barenboim/Dame Janet Baker 4:12
18. Neue Liebe (wds. Heine) from 6 Lieder Op. 19a (2000 Digital Remaster) Dame Janet Baker/Geoffrey Parsons 2:20
19. Auf Flügeln des Gesanges (wds. Heine) from 6 Lieder Op. 34 (2000 Digital Remaster) Dame Janet Baker/Geoffrey Parsons 3:16
20. Nachtlied (wds. Eichendorff) from 6 Lieder Op. 71 (2000 Digital Remaster) Dame Janet Baker/Geoffrey Parsons 4:16
21. Die Lorelei (Heine) (2000 Digital Remaster) Dame Janet Baker/Geoffrey Parsons 7:28
22. Über allen Gipfeln ist Ruh' (Goethe) (2000 Digital Remaster) Dame Janet Baker/Geoffrey Parsons 3:14
Самый подробный трэклист:
скрытый текстCompact Disc 1
Johannes Brahms 1833–1897
1 Alto Rhapsody Op.53 11.44
John Alldis Choir (men’s voices)
London Philharmonic Orchestra
Sir Adrian Boult
Recorded: 15.XII.1970, No.1 Studio, Abbey Road, London
Producer: Christopher Bishop · Balance engineer: Christopher Parker 1971/2004*
Richard Wagner 1813–1883
Wesendonck-Lieder orch. Mottl
2 Der Engel 3.35
3 Stehe still! 4.41
4 Im Treibhaus 6.10
5 Schmerzen 2.49
6 Träume 5.44
Richard Strauss 1864–1949
7 Liebeshymnus Op.32 No.3 1.59
8 Das Rosenband Op.36 No.1 3.26
9 Ruhe, meine Seele Op.27 No.1 4.26
10 Muttertändelei Op.43 No.2 2.11
London Philharmonic Orchestra
Sir Adrian Boult
Recorded: VI.1975, No.1 Studio, Abbey Road, London
Producer: Christopher Bishop · Balance engineer: Christopher Parker 1976/2008
Edward Elgar 1857–1934
Sea Pictures Op.37
11 Sea Slumber-Song 5.04
12 In Haven (Capri) 2.06
13 Sabbath Morning at Sea 6.20
14 Where Corals Lie 4.10
15 The Swimmer 6.06
London Symphony Orchestra
Sir John Barbirolli
Recorded: 30.VIII.1965, No.1 Studio, Abbey Road, London
Producer: Ronald Kinloch Anderson · Balance engineer: Christopher Parker 1965/2004*
The Dream of Gerontius Op.38
16 Softly and gently 6.55
Hallé Choir and Sheffield Philharmonic Chorus chorus master Eric Chadwick
Ambrosian Singers chorus master John McCarthy
Hallé Orchestra leader Martin Milner
Sir John Barbirolli
Recorded: 27–30.XII.1964, Free Trade Hall, Manchester, in association with the Hallé Concerts Society
Producer: Ronald Kinloch Anderson · Balance engineer: Peter Bown 1965/2007*
Compact Disc 2
Hector Berlioz 1803–1869
Les Nuits d’été Op.7
1 Villanelle 2.23
2 Le Spectre de la rose 7.53
3 Sur les lagunes 5.38
4 Absence 5.28
5 Au cimetière 6.09
6 L’Île inconnue 3.56
New Philharmonia Orchestra
Sir John Barbirolli
Recorded: 23.VIII.1967, No.1 Studio, Abbey Road, London
Producer: Christopher Bishop · Balance engineer: Christopher Parker 1969/1998*
Maurice Ravel 1875–1937
Shéhérazade
7 Asie 9.54
8 La Flûte enchantée 3.00
9 L’Indifférent 3.43
New Philharmonia Orchestra
Sir John Barbirolli
Recorded: 27–28.XII.1967, Kingsway Hall, London
Producer: Christopher Bishop · Balance engineer: Christopher Parker 1968/1995*
Ernest Chausson 1855–1899
Poème de l’amour et de la mer
10 La Fleur des eaux 11.28
11 Interlude 2.41
12 La Mort de l’amour 13.05
London Symphony Orchestra
André Previn
Recorded: 18–21.IV.1977, No.1 Studio, Abbey Road, London
Producer: Christopher Bishop · Balance engineer: Christopher Parker 1978/1995*
Compact Disc 3
Gustav Mahler 1860–1911
Kindertotenlieder
1 Nun will die Sonn’ so hell aufgehn 6.00
2 Nun seh’ ich wohl, warum so dunkle Flammen 5.12
3 Wenn dein Mütterlein tritt zur Tür herein 5.20
4 Oft denk’ ich, sie sind nur ausgegangen 3.10
5 In diesem Wetter, in diesem Braus 7.35
Hallé Orchestra
Sir John Barbirolli
Recorded: 4.V.1967, No.1 Studio, Abbey Road, London
Producer: Ronald Kinloch Anderson · Balance engineer: Neville Boyling 1968/1999*
Fünf Rückert-Lieder
6 Blicke mir nicht in die Lieder! 1.37
7 Ich atmet’ einen linden Duft! 2.42
8 Um Mitternacht 5.55
9 Liebst du um Schönheit orch. Puttmann 2.27
10 Ich bin der Welt abhanden gekommen 6.46
New Philharmonia Orchestra
Sir John Barbirolli
Recorded: 18–19.VII.1969, Watford Town Hall
Producer: Ronald Kinloch Anderson · Balance engineer: Stuart Eltham 1970/1999*
Lieder eines fahrenden Gesellen
11 Wenn mein Schatz Hochzeit macht 4.20
12 Ging heut morgen übers Feld 4.43
13 Ich hab’ ein glühend Messer 3.34
14 Die zwei blauen Augen von meinem Schatz 5.02
Fünf Rückert-Lieder
15 Ich bin der Welt abhanden gekommen 6.52
Hallé Orchestra
Sir John Barbirolli
Recorded: 4.V.1967, No.1 Studio, Abbey Road, London
Producer: Ronald Kinloch Anderson · Balance engineer: Neville Boyling 1968/1999*
Symphony No.2 ‘Resurrection’
16 IV. Urlicht. Sehr feierlich, aber schlicht 5.07
City of Birmingham Symphony Orchestra
Sir Simon Rattle
Recorded: 27.IV, 30.V & 1.VI.1986, Watford Town Hall
Producer: David R. Murray · Balance engineer: Michael Sheady 1987 DDD
Compact Disc 4
George Frideric Handel 1685–1759
Messiah HWV56
1 He was despised 12.32
English Chamber Orchestra
Sir Charles Mackerras
Recorded: VI–VIII.1966, Kingsway Hall, London
Producer: Christopher Bishop · Balance engineer: Neville Boyling 1967/1989*
Ah! crudel nel pianto mio HWV78 ed. Leppard
2 Per trofei di mia costanza 7.41
Armida abbandonata HWV105 ed. Leppard
3 Ah! crudel, e pur ten vai 6.55
English Chamber Orchestra
Raymond Leppard
Recorded: 22 & 24.XI & 31.XII.1967, No.1 Studio, Abbey Road, London
Producer: Christopher Bishop · Balance engineer: Christopher Parker 1969/2001*
Johann Sebastian Bach 1685–1750
Ich habe genug BWV82
4 Schlummert ein, ihr matten Augen 9.47
Bath Festival Orchestra
Yehudi Menuhin
Recorded: 18 & 20.VII.1966, No.1 Studio, Abbey Road, London
Producer: Ronald Kinloch Anderson · Balance engineer: Neville Boyling 1967/2001*
Christmas Oratorio BWV248
5 Bereite dich, Zion 5.04
St John Passion BWV245
6 Es ist vollbracht 5.33
7 Stölzel/Bach Bist du bei mir 2.53
Academy of St Martin in the Fields
Sir Neville Marriner
Recorded: 7–9 & 17.X.1975, No.1 Studio, Abbey Road, London
Producer: Christopher Bishop · Balance engineer: Christopher Parker 1976/2001*
John Dowland 1563–1626
8 Come again! sweet love 2.24
Thomas Campion 1567–1620
9 Never love unless you can 1.08
10 Oft have I sighed 2.37
11 If thou longst so much to learn 1.50
12 Fain would I wed 1.14
Robert Spencer lute
Henry Purcell 1659–1695
13 Sleep, Adam, sleep Z195 1.55
14 Lord, what is man? Z192 5.38
William Boyce 1711–1779
15 Tell me, lovely shepherd 2.07
George Monro 1680–1731
16 My lovely Celia 2.20
Martin Isepp harpsichord
Ambrose Gauntlett viola da gamba
Thomas Arne 1710–1778
17 Where the bee sucks 1.49
Martin Isepp harpsichord
Ambrose Gauntlett viola da gamba
Douglas Whittaker flute
Recorded: 9–11.II.1967, No.1 Studio, Abbey Road, London
Producer: Ronald Kinloch Anderson · Balance engineer: Christopher Parker 1967/2008*
Compact Disc 5
Franz Schubert 1797–1828
1 Gretchen am Spinnrade D118 3.43
2 Ellens Gesang III (Ave Maria) D839 6.44
Gerald Moore piano
Recorded: 29.VIII, 12–13.IX and 16–20.XII.1970, No.1 Studio, Abbey Road, London
Producer: Ronald Kinloch Anderson · Balance engineers: Neville Boyling and Christopher Parker
1971/1996*
3 Heidenröslein D257 1.51
4 An die Musik D547 2.47
5 Die Forelle D550 2.03
6 Auf dem Wasser zu singen D774 3.18
7 Du bist die Ruh D776 4.28
8 Nacht und Träume D827 4.34
9 An Sylvia D891 2.56
Geoffrey Parsons piano
Recorded: 3–5 & 7.IV and 29.XII.1980, No.1 Studio, Abbey Road, London
Producer: John Fraser · Balance engineer: Neville Boyling 1981/1996*
Robert Schumann 1810–1856
Frauenliebe und -leben Op.42
10 Seit ich ihn gesehen 2.31
11 Er, der Herrlichste von allen 3.12
12 Ich kann’s nicht fassen, nicht glauben 1.52
13 Du Ring an meinem Finger 2.51
14 Helft mir, ihr Schwestern 2.02
15 Süßer Freund, du blickest 5.09
16 An meinem Herzen, an meiner Brust 1.24
17 Nun hast du mir den ersten Schmerz getan 4.07
Daniel Barenboim piano
Recorded: 11.VIII.1968 & 3–4.VII.1975, No.1 Studio, Abbey Road, London
Producer: Suvi Raj Grubb · Balance engineer: Neville Boyling and Robert Gooch 1976/1995*
Felix Mendelssohn 1809–1847
18 Neue Liebe Op.19a No.4 2.18
19 Auf Flügeln des Gesanges Op.34 No.2 3.17
20 Nachtlied Op.71 No.6 4.10
Geoffrey Parsons piano
Recorded: 29–31.XII.1980, No.1 Studio, Abbey Road, London
Producer: John Fraser · Balance engineer: Neville Boyling 1980/2000*
Franz Liszt 1811–1886
21 Lorelei 7.30
22 Über allen Gipfeln ist Ruh 3.14
Geoffrey Parsons piano
Recorded: 7 & 8.VI.1979 & 3.IV.1980, No.1 Studio, Abbey Road, London
Producer: John Fraser · Balance engineers: Neville Boyling and Robert Gooch 1980/2000*
Доп. информация:

скрытый текст

Dame Janet Baker, mezzo-soprano
The Beloved Mezzo
with
Daniel Barenboim · Gerald Moore · Geoffrey Parsons
Ambrose Gauntlett · Martin Isepp · Robert Spencer · Douglas Whittaker
Sir John Barbirolli · Sir Adrian Boult · Raymond Leppard · Sir Charles Mackerras
Sir Neville Marriner · Yehudi Menuhin · Andre Previn · Sir Simon Rattle
Release Date: 09/02/2008
EAC

скрытый текст

EAC log - CD 1

скрытый текст

Exact Audio Copy V0.99 prebeta 5 from 4. May 2009
EAC extraction logfile from 27. January 2010, 14:36
Janet Baker / Janet Baker - The Beloved Mezzo (CD 1)
Used drive : MATSHITADVD-RAM UJ880AS Adapter: 0 ID: 1
Read mode : Secure
Utilize accurate stream : Yes
Defeat audio cache : Yes
Make use of C2 pointers : No
Read offset correction : 102
Overread into Lead-In and Lead-Out : No
Fill up missing offset samples with silence : Yes
Delete leading and trailing silent blocks : No
Null samples used in CRC calculations : No
Used interface : Native Win32 interface for Win NT & 2000
Used output format : User Defined Encoder
Selected bitrate : 320 kBit/s
Quality : High
Add ID3 tag : No
Command line compressor : C:\Program Files\Exact Audio Copy\wapet\wapet.exe
Additional command line options : %d -t "Artist=%a" -t "Title=%t" -t "Album=%g" -t "Year=%y" -t "Track=%n" -t "Genre=%m" "C:\Program Files\Monkey's Audio\MAC.exe" %s %d -c2000
TOC of the extracted CD
Track | Start | Length | Start sector | End sector
---------------------------------------------------------
1 | 0:00.00 | 11:57.69 | 0 | 53843
2 | 11:57.69 | 3:46.02 | 53844 | 70795
3 | 15:43.71 | 4:51.46 | 70796 | 92666
4 | 20:35.42 | 6:20.40 | 92667 | 121206
5 | 26:56.07 | 2:57.26 | 121207 | 134507
6 | 29:53.33 | 5:55.33 | 134508 | 161165
7 | 35:48.66 | 2:06.27 | 161166 | 170642
8 | 37:55.18 | 3:32.52 | 170643 | 186594
9 | 41:27.70 | 4:36.37 | 186595 | 207331
10 | 46:04.32 | 2:22.33 | 207332 | 218014
11 | 48:26.65 | 5:04.19 | 218015 | 240833
12 | 53:31.09 | 2:05.72 | 240834 | 250280
13 | 55:37.06 | 6:20.14 | 250281 | 278794
14 | 61:57.20 | 4:10.52 | 278795 | 297596
15 | 66:07.72 | 6:10.67 | 297597 | 325413
16 | 72:18.64 | 7:00.20 | 325414 | 356933
Range status and errors
Selected range
Filename E:\Uploads\JANET BAKER Icon EMI\cd 1\Janet Baker - The Beloved Mezzo (CD 1).wav
Peak level 99.8 %
Range quality 99.9 %
Copy CRC D52C732D
Copy OK
No errors occurred
AccurateRip summary
Track 1 accurately ripped (confidence 1) [BFE67E01]
Track 2 accurately ripped (confidence 1) [4B09F4FC]
Track 3 accurately ripped (confidence 1) [B2351E69]
Track 4 accurately ripped (confidence 1) [D7E6CD58]
Track 5 accurately ripped (confidence 1) [93D2B6EB]
Track 6 accurately ripped (confidence 1) [8BCF98B3]
Track 7 accurately ripped (confidence 1) [7A926789]
Track 8 accurately ripped (confidence 1) [8CE122E8]
Track 9 accurately ripped (confidence 1) [AD9F6FE6]
Track 10 accurately ripped (confidence 1) [57D52F18]
Track 11 accurately ripped (confidence 1) [4C9A477E]
Track 12 accurately ripped (confidence 1) [20934C7D]
Track 13 accurately ripped (confidence 1) [FC7C9D12]
Track 14 accurately ripped (confidence 1) [CA0DD38A]
Track 15 accurately ripped (confidence 1) [EE8575BC]
Track 16 accurately ripped (confidence 1) [6848C963]
All tracks accurately ripped
End of status report
------------------------------------------------------------
Exact Audio Copy V0.99 prebeta 5 from 4. May 2009
EAC extraction logfile from 27. January 2010, 14:36
Janet Baker / Janet Baker - The Beloved Mezzo (CD 1)
Used drive : MATSHITADVD-RAM UJ880AS Adapter: 0 ID: 1
Read mode : Secure
Utilize accurate stream : Yes
Defeat audio cache : Yes
Make use of C2 pointers : No
Read offset correction : 102
Overread into Lead-In and Lead-Out : No
Fill up missing offset samples with silence : Yes
Delete leading and trailing silent blocks : No
Null samples used in CRC calculations : No
Used interface : Native Win32 interface for Win NT & 2000
Used output format : User Defined Encoder
Selected bitrate : 320 kBit/s
Quality : High
Add ID3 tag : No
Command line compressor : C:\Program Files\Exact Audio Copy\wapet\wapet.exe
Additional command line options : %d -t "Artist=%a" -t "Title=%t" -t "Album=%g" -t "Year=%y" -t "Track=%n" -t "Genre=%m" "C:\Program Files\Monkey's Audio\MAC.exe" %s %d -c2000
TOC of the extracted CD
Track | Start | Length | Start sector | End sector
---------------------------------------------------------
1 | 0:00.00 | 11:57.69 | 0 | 53843
2 | 11:57.69 | 3:46.02 | 53844 | 70795
3 | 15:43.71 | 4:51.46 | 70796 | 92666
4 | 20:35.42 | 6:20.40 | 92667 | 121206
5 | 26:56.07 | 2:57.26 | 121207 | 134507
6 | 29:53.33 | 5:55.33 | 134508 | 161165
7 | 35:48.66 | 2:06.27 | 161166 | 170642
8 | 37:55.18 | 3:32.52 | 170643 | 186594
9 | 41:27.70 | 4:36.37 | 186595 | 207331
10 | 46:04.32 | 2:22.33 | 207332 | 218014
11 | 48:26.65 | 5:04.19 | 218015 | 240833
12 | 53:31.09 | 2:05.72 | 240834 | 250280
13 | 55:37.06 | 6:20.14 | 250281 | 278794
14 | 61:57.20 | 4:10.52 | 278795 | 297596
15 | 66:07.72 | 6:10.67 | 297597 | 325413
16 | 72:18.64 | 7:00.20 | 325414 | 356933
Range status and errors
Selected range
Filename E:\Uploads\JANET BAKER Icon EMI\cd 1\Janet Baker - The Beloved Mezzo (CD 1).wav
Peak level 99.8 %
Range quality 99.9 %
Copy CRC D52C732D
Copy OK
No errors occurred
AccurateRip summary
Track 1 accurately ripped (confidence 1) [BFE67E01]
Track 2 accurately ripped (confidence 1) [4B09F4FC]
Track 3 accurately ripped (confidence 1) [B2351E69]
Track 4 accurately ripped (confidence 1) [D7E6CD58]
Track 5 accurately ripped (confidence 1) [93D2B6EB]
Track 6 accurately ripped (confidence 1) [8BCF98B3]
Track 7 accurately ripped (confidence 1) [7A926789]
Track 8 accurately ripped (confidence 1) [8CE122E8]
Track 9 accurately ripped (confidence 1) [AD9F6FE6]
Track 10 accurately ripped (confidence 1) [57D52F18]
Track 11 accurately ripped (confidence 1) [4C9A477E]
Track 12 accurately ripped (confidence 1) [20934C7D]
Track 13 accurately ripped (confidence 1) [FC7C9D12]
Track 14 accurately ripped (confidence 1) [CA0DD38A]
Track 15 accurately ripped (confidence 1) [EE8575BC]
Track 16 accurately ripped (confidence 1) [6848C963]
All tracks accurately ripped
End of status report
EAC log - CD 2

скрытый текст

Exact Audio Copy V0.99 prebeta 5 from 4. May 2009
EAC extraction logfile from 27. January 2010, 16:38
Janet Baker / Janet Baker - The Beloved Mezzo (CD 2)
Used drive : MATSHITADVD-RAM UJ880AS Adapter: 0 ID: 1
Read mode : Secure
Utilize accurate stream : Yes
Defeat audio cache : Yes
Make use of C2 pointers : No
Read offset correction : 102
Overread into Lead-In and Lead-Out : No
Fill up missing offset samples with silence : Yes
Delete leading and trailing silent blocks : No
Null samples used in CRC calculations : No
Used interface : Native Win32 interface for Win NT & 2000
Used output format : User Defined Encoder
Selected bitrate : 320 kBit/s
Quality : High
Add ID3 tag : No
Command line compressor : C:\Program Files\Exact Audio Copy\wapet\wapet.exe
Additional command line options : %d -t "Artist=%a" -t "Title=%t" -t "Album=%g" -t "Year=%y" -t "Track=%n" -t "Genre=%m" "C:\Program Files\Monkey's Audio\MAC.exe" %s %d -c2000
TOC of the extracted CD
Track | Start | Length | Start sector | End sector
---------------------------------------------------------
1 | 0:00.00 | 2:22.33 | 0 | 10682
2 | 2:22.33 | 7:53.47 | 10683 | 46204
3 | 10:16.05 | 5:37.72 | 46205 | 71551
4 | 15:54.02 | 5:28.22 | 71552 | 96173
5 | 21:22.24 | 6:08.74 | 96174 | 123847
6 | 27:31.23 | 4:01.40 | 123848 | 141962
7 | 31:32.63 | 9:51.55 | 141963 | 186342
8 | 41:24.43 | 3:00.70 | 186343 | 199912
9 | 44:25.38 | 3:47.24 | 199913 | 216961
10 | 48:12.62 | 11:27.14 | 216962 | 268500
11 | 59:40.01 | 2:41.68 | 268501 | 280643
12 | 62:21.69 | 13:09.02 | 280644 | 339820
Range status and errors
Selected range
Filename E:\Uploads\JANET BAKER Icon EMI\cd 2\Janet Baker - The Beloved Mezzo (CD 2).wav
Peak level 100.0 %
Range quality 100.0 %
Copy CRC 8AB8B337
Copy OK
No errors occurred
AccurateRip summary
Track 1 accurately ripped (confidence 1) [45BEB0FC]
Track 2 accurately ripped (confidence 1) [C25C29F6]
Track 3 accurately ripped (confidence 1) [A4483A35]
Track 4 accurately ripped (confidence 1) [B1B56419]
Track 5 accurately ripped (confidence 1) [5F6295B3]
Track 6 accurately ripped (confidence 1) [6653663B]
Track 7 accurately ripped (confidence 1) [EE9E488B]
Track 8 accurately ripped (confidence 1) [DFD8DB56]
Track 9 accurately ripped (confidence 1) [13195BB8]
Track 10 accurately ripped (confidence 1) [CF921597]
Track 11 accurately ripped (confidence 1) [DE99B043]
Track 12 accurately ripped (confidence 1) [3DC94347]
All tracks accurately ripped
End of status report
------------------------------------------------------------
Exact Audio Copy V0.99 prebeta 5 from 4. May 2009
EAC extraction logfile from 27. January 2010, 16:38
Janet Baker / Janet Baker - The Beloved Mezzo (CD 2)
Used drive : MATSHITADVD-RAM UJ880AS Adapter: 0 ID: 1
Read mode : Secure
Utilize accurate stream : Yes
Defeat audio cache : Yes
Make use of C2 pointers : No
Read offset correction : 102
Overread into Lead-In and Lead-Out : No
Fill up missing offset samples with silence : Yes
Delete leading and trailing silent blocks : No
Null samples used in CRC calculations : No
Used interface : Native Win32 interface for Win NT & 2000
Used output format : User Defined Encoder
Selected bitrate : 320 kBit/s
Quality : High
Add ID3 tag : No
Command line compressor : C:\Program Files\Exact Audio Copy\wapet\wapet.exe
Additional command line options : %d -t "Artist=%a" -t "Title=%t" -t "Album=%g" -t "Year=%y" -t "Track=%n" -t "Genre=%m" "C:\Program Files\Monkey's Audio\MAC.exe" %s %d -c2000
TOC of the extracted CD
Track | Start | Length | Start sector | End sector
---------------------------------------------------------
1 | 0:00.00 | 2:22.33 | 0 | 10682
2 | 2:22.33 | 7:53.47 | 10683 | 46204
3 | 10:16.05 | 5:37.72 | 46205 | 71551
4 | 15:54.02 | 5:28.22 | 71552 | 96173
5 | 21:22.24 | 6:08.74 | 96174 | 123847
6 | 27:31.23 | 4:01.40 | 123848 | 141962
7 | 31:32.63 | 9:51.55 | 141963 | 186342
8 | 41:24.43 | 3:00.70 | 186343 | 199912
9 | 44:25.38 | 3:47.24 | 199913 | 216961
10 | 48:12.62 | 11:27.14 | 216962 | 268500
11 | 59:40.01 | 2:41.68 | 268501 | 280643
12 | 62:21.69 | 13:09.02 | 280644 | 339820
Range status and errors
Selected range
Filename E:\Uploads\JANET BAKER Icon EMI\cd 2\Janet Baker - The Beloved Mezzo (CD 2).wav
Peak level 100.0 %
Range quality 100.0 %
Copy CRC 8AB8B337
Copy OK
No errors occurred
AccurateRip summary
Track 1 accurately ripped (confidence 1) [45BEB0FC]
Track 2 accurately ripped (confidence 1) [C25C29F6]
Track 3 accurately ripped (confidence 1) [A4483A35]
Track 4 accurately ripped (confidence 1) [B1B56419]
Track 5 accurately ripped (confidence 1) [5F6295B3]
Track 6 accurately ripped (confidence 1) [6653663B]
Track 7 accurately ripped (confidence 1) [EE9E488B]
Track 8 accurately ripped (confidence 1) [DFD8DB56]
Track 9 accurately ripped (confidence 1) [13195BB8]
Track 10 accurately ripped (confidence 1) [CF921597]
Track 11 accurately ripped (confidence 1) [DE99B043]
Track 12 accurately ripped (confidence 1) [3DC94347]
All tracks accurately ripped
End of status report
EAC log - CD 3

скрытый текст

Exact Audio Copy V0.99 prebeta 5 from 4. May 2009
EAC extraction logfile from 27. January 2010, 17:53
Janet Baker / Janet Baker - The Beloved Mezzo (CD 3)
Used drive : MATSHITADVD-RAM UJ880AS Adapter: 0 ID: 1
Read mode : Secure
Utilize accurate stream : Yes
Defeat audio cache : Yes
Make use of C2 pointers : No
Read offset correction : 102
Overread into Lead-In and Lead-Out : No
Fill up missing offset samples with silence : Yes
Delete leading and trailing silent blocks : No
Null samples used in CRC calculations : No
Used interface : Native Win32 interface for Win NT & 2000
Used output format : User Defined Encoder
Selected bitrate : 320 kBit/s
Quality : High
Add ID3 tag : No
Command line compressor : C:\Program Files\Exact Audio Copy\wapet\wapet.exe
Additional command line options : %d -t "Artist=%a" -t "Title=%t" -t "Album=%g" -t "Year=%y" -t "Track=%n" -t "Genre=%m" "C:\Program Files\Monkey's Audio\MAC.exe" %s %d -c2000
TOC of the extracted CD
Track | Start | Length | Start sector | End sector
---------------------------------------------------------
1 | 0:00.00 | 6:00.64 | 0 | 27063
2 | 6:00.64 | 5:11.21 | 27064 | 50409
3 | 11:12.10 | 5:21.07 | 50410 | 74491
4 | 16:33.17 | 3:09.30 | 74492 | 88696
5 | 19:42.47 | 7:44.17 | 88697 | 123513
6 | 27:26.64 | 1:38.01 | 123514 | 130864
7 | 29:04.65 | 2:41.63 | 130865 | 143002
8 | 31:46.53 | 5:54.53 | 143003 | 169605
9 | 37:41.31 | 2:27.29 | 169606 | 180659
10 | 40:08.60 | 6:55.03 | 180660 | 211787
11 | 47:03.63 | 4:20.42 | 211788 | 231329
12 | 51:24.30 | 4:43.08 | 231330 | 252562
13 | 56:07.38 | 3:34.52 | 252563 | 268664
14 | 59:42.15 | 5:06.48 | 268665 | 291662
15 | 64:48.63 | 6:58.03 | 291663 | 323015
16 | 71:46.66 | 5:10.61 | 323016 | 346326
Range status and errors
Selected range
Filename E:\Uploads\JANET BAKER Icon EMI\cd 3\Janet Baker - The Beloved Mezzo (CD 3).wav
Peak level 82.7 %
Range quality 99.9 %
Copy CRC 64B63DA6
Copy OK
No errors occurred
AccurateRip summary
Track 1 accurately ripped (confidence 1) [CB1FCD61]
Track 2 accurately ripped (confidence 1) [8D7E2D1B]
Track 3 accurately ripped (confidence 1) [D29FD4D7]
Track 4 accurately ripped (confidence 1) [288EA9F8]
Track 5 accurately ripped (confidence 1) [960232F1]
Track 6 accurately ripped (confidence 1) [5DDAD736]
Track 7 accurately ripped (confidence 1) [598067DE]
Track 8 accurately ripped (confidence 1) [8A743C04]
Track 9 accurately ripped (confidence 1) [96A039B2]
Track 10 accurately ripped (confidence 1) [88B74F46]
Track 11 accurately ripped (confidence 1) [3863D1B1]
Track 12 accurately ripped (confidence 1) [DEC72C0F]
Track 13 accurately ripped (confidence 1) [CA634167]
Track 14 accurately ripped (confidence 1) [D1FD9DC7]
Track 15 accurately ripped (confidence 1) [8DCBECDC]
Track 16 accurately ripped (confidence 1) [ADE5C4F2]
All tracks accurately ripped
End of status report
------------------------------------------------------------
Exact Audio Copy V0.99 prebeta 5 from 4. May 2009
EAC extraction logfile from 27. January 2010, 17:53
Janet Baker / Janet Baker - The Beloved Mezzo (CD 3)
Used drive : MATSHITADVD-RAM UJ880AS Adapter: 0 ID: 1
Read mode : Secure
Utilize accurate stream : Yes
Defeat audio cache : Yes
Make use of C2 pointers : No
Read offset correction : 102
Overread into Lead-In and Lead-Out : No
Fill up missing offset samples with silence : Yes
Delete leading and trailing silent blocks : No
Null samples used in CRC calculations : No
Used interface : Native Win32 interface for Win NT & 2000
Used output format : User Defined Encoder
Selected bitrate : 320 kBit/s
Quality : High
Add ID3 tag : No
Command line compressor : C:\Program Files\Exact Audio Copy\wapet\wapet.exe
Additional command line options : %d -t "Artist=%a" -t "Title=%t" -t "Album=%g" -t "Year=%y" -t "Track=%n" -t "Genre=%m" "C:\Program Files\Monkey's Audio\MAC.exe" %s %d -c2000
TOC of the extracted CD
Track | Start | Length | Start sector | End sector
---------------------------------------------------------
1 | 0:00.00 | 6:00.64 | 0 | 27063
2 | 6:00.64 | 5:11.21 | 27064 | 50409
3 | 11:12.10 | 5:21.07 | 50410 | 74491
4 | 16:33.17 | 3:09.30 | 74492 | 88696
5 | 19:42.47 | 7:44.17 | 88697 | 123513
6 | 27:26.64 | 1:38.01 | 123514 | 130864
7 | 29:04.65 | 2:41.63 | 130865 | 143002
8 | 31:46.53 | 5:54.53 | 143003 | 169605
9 | 37:41.31 | 2:27.29 | 169606 | 180659
10 | 40:08.60 | 6:55.03 | 180660 | 211787
11 | 47:03.63 | 4:20.42 | 211788 | 231329
12 | 51:24.30 | 4:43.08 | 231330 | 252562
13 | 56:07.38 | 3:34.52 | 252563 | 268664
14 | 59:42.15 | 5:06.48 | 268665 | 291662
15 | 64:48.63 | 6:58.03 | 291663 | 323015
16 | 71:46.66 | 5:10.61 | 323016 | 346326
Range status and errors
Selected range
Filename E:\Uploads\JANET BAKER Icon EMI\cd 3\Janet Baker - The Beloved Mezzo (CD 3).wav
Peak level 82.7 %
Range quality 99.9 %
Copy CRC 64B63DA6
Copy OK
No errors occurred
AccurateRip summary
Track 1 accurately ripped (confidence 1) [CB1FCD61]
Track 2 accurately ripped (confidence 1) [8D7E2D1B]
Track 3 accurately ripped (confidence 1) [D29FD4D7]
Track 4 accurately ripped (confidence 1) [288EA9F8]
Track 5 accurately ripped (confidence 1) [960232F1]
Track 6 accurately ripped (confidence 1) [5DDAD736]
Track 7 accurately ripped (confidence 1) [598067DE]
Track 8 accurately ripped (confidence 1) [8A743C04]
Track 9 accurately ripped (confidence 1) [96A039B2]
Track 10 accurately ripped (confidence 1) [88B74F46]
Track 11 accurately ripped (confidence 1) [3863D1B1]
Track 12 accurately ripped (confidence 1) [DEC72C0F]
Track 13 accurately ripped (confidence 1) [CA634167]
Track 14 accurately ripped (confidence 1) [D1FD9DC7]
Track 15 accurately ripped (confidence 1) [8DCBECDC]
Track 16 accurately ripped (confidence 1) [ADE5C4F2]
All tracks accurately ripped
End of status report
EAC log - CD 4

скрытый текст

Exact Audio Copy V0.99 prebeta 5 from 4. May 2009
EAC extraction logfile from 27. January 2010, 22:41
Janet Baker / Janet Baker - The Beloved Mezzo (CD 4)
Used drive : MATSHITADVD-RAM UJ880AS Adapter: 0 ID: 1
Read mode : Secure
Utilize accurate stream : Yes
Defeat audio cache : Yes
Make use of C2 pointers : No
Read offset correction : 102
Overread into Lead-In and Lead-Out : No
Fill up missing offset samples with silence : Yes
Delete leading and trailing silent blocks : No
Null samples used in CRC calculations : No
Used interface : Native Win32 interface for Win NT & 2000
Used output format : User Defined Encoder
Selected bitrate : 320 kBit/s
Quality : High
Add ID3 tag : No
Command line compressor : C:\Program Files\Exact Audio Copy\wapet\wapet.exe
Additional command line options : %d -t "Artist=%a" -t "Title=%t" -t "Album=%g" -t "Year=%y" -t "Track=%n" -t "Genre=%m" "C:\Program Files\Monkey's Audio\MAC.exe" %s %d -c2000
TOC of the extracted CD
Track | Start | Length | Start sector | End sector
---------------------------------------------------------
1 | 0:00.00 | 12:41.66 | 0 | 57140
2 | 12:41.66 | 7:47.24 | 57141 | 92189
3 | 20:29.15 | 7:01.50 | 92190 | 123814
4 | 27:30.65 | 9:54.01 | 123815 | 168365
5 | 37:24.66 | 5:09.73 | 168366 | 191613
6 | 42:34.64 | 5:38.73 | 191614 | 217036
7 | 48:13.62 | 2:58.02 | 217037 | 230388
8 | 51:11.64 | 2:29.34 | 230389 | 241597
9 | 53:41.23 | 1:09.49 | 241598 | 246821
10 | 54:50.72 | 2:36.34 | 246822 | 258555
11 | 57:27.31 | 1:52.08 | 258556 | 266963
12 | 59:19.39 | 1:18.18 | 266964 | 272831
13 | 60:37.57 | 1:54.32 | 272832 | 281413
14 | 62:32.14 | 5:41.09 | 281414 | 306997
15 | 68:13.23 | 2:10.25 | 306998 | 316772
16 | 70:23.48 | 2:24.73 | 316773 | 327645
17 | 72:48.46 | 1:51.17 | 327646 | 335987
Range status and errors
Selected range
Filename E:\Uploads\JANET BAKER Icon EMI\cd 4\Janet Baker - The Beloved Mezzo (CD 4).wav
Peak level 83.2 %
Range quality 100.0 %
Copy CRC 483C9C5D
Copy OK
No errors occurred
AccurateRip summary
Track 1 accurately ripped (confidence 1) [C2C9583C]
Track 2 accurately ripped (confidence 1) [09F03174]
Track 3 accurately ripped (confidence 1) [961E1F6E]
Track 4 accurately ripped (confidence 1) [581D4120]
Track 5 accurately ripped (confidence 1) [F9DEF503]
Track 6 accurately ripped (confidence 1) [7EE1D9B7]
Track 7 accurately ripped (confidence 1) [3EE9FCCF]
Track 8 accurately ripped (confidence 1) [752CBEDD]
Track 9 accurately ripped (confidence 1) [4F21D683]
Track 10 accurately ripped (confidence 1) [E5EE4027]
Track 11 accurately ripped (confidence 1) [FBDFCC89]
Track 12 accurately ripped (confidence 1) [D59341E2]
Track 13 accurately ripped (confidence 1) [77280FA8]
Track 14 accurately ripped (confidence 1) [4F4F038A]
Track 15 accurately ripped (confidence 1) [8E7E5789]
Track 16 accurately ripped (confidence 1) [5A6BF638]
Track 17 accurately ripped (confidence 1) [9D97C8C7]
All tracks accurately ripped
End of status report
EAC log - CD 5

скрытый текст

Exact Audio Copy V0.99 prebeta 5 from 4. May 2009
EAC extraction logfile from 27. January 2010, 20:16
Janet Baker / Janet Baker - The Beloved Mezzo (CD 5)
Used drive : MATSHITADVD-RAM UJ880AS Adapter: 0 ID: 1
Read mode : Secure
Utilize accurate stream : Yes
Defeat audio cache : Yes
Make use of C2 pointers : No
Read offset correction : 102
Overread into Lead-In and Lead-Out : No
Fill up missing offset samples with silence : Yes
Delete leading and trailing silent blocks : No
Null samples used in CRC calculations : No
Used interface : Native Win32 interface for Win NT & 2000
Used output format : User Defined Encoder
Selected bitrate : 320 kBit/s
Quality : High
Add ID3 tag : No
Command line compressor : C:\Program Files\Exact Audio Copy\wapet\wapet.exe
Additional command line options : %d -t "Artist=%a" -t "Title=%t" -t "Album=%g" -t "Year=%y" -t "Track=%n" -t "Genre=%m" "C:\Program Files\Monkey's Audio\MAC.exe" %s %d -c2000
TOC of the extracted CD
Track | Start | Length | Start sector | End sector
---------------------------------------------------------
1 | 0:00.00 | 3:39.57 | 0 | 16481
2 | 3:39.57 | 6:49.05 | 16482 | 47161
3 | 10:28.62 | 1:50.45 | 47162 | 55456
4 | 12:19.32 | 2:46.26 | 55457 | 67932
5 | 15:05.58 | 2:00.15 | 67933 | 76947
6 | 17:05.73 | 3:18.04 | 76948 | 91801
7 | 20:24.02 | 4:31.51 | 91802 | 112177
8 | 24:55.53 | 4:32.27 | 112178 | 132604
9 | 29:28.05 | 3:00.62 | 132605 | 146166
10 | 32:28.67 | 2:29.45 | 146167 | 157386
11 | 34:58.37 | 3:09.61 | 157387 | 171622
12 | 38:08.23 | 1:52.16 | 171623 | 180038
13 | 40:00.39 | 2:50.37 | 180039 | 192825
14 | 42:51.01 | 2:02.11 | 192826 | 201986
15 | 44:53.12 | 5:08.72 | 201987 | 225158
16 | 50:02.09 | 1:25.06 | 225159 | 231539
17 | 51:27.15 | 4:12.48 | 231540 | 250487
18 | 55:39.63 | 2:20.65 | 250488 | 261052
19 | 58:00.53 | 3:16.46 | 261053 | 275798
20 | 61:17.24 | 4:16.40 | 275799 | 295038
21 | 65:33.64 | 7:28.23 | 295039 | 328661
22 | 73:02.12 | 3:14.25 | 328662 | 343236
Range status and errors
Selected range
Filename E:\Uploads\JANET BAKER Icon EMI\cd 5\Janet Baker - The Beloved Mezzo (CD 5).wav
Peak level 100.0 %
Range quality 99.9 %
Copy CRC BF21D938
Copy OK
No errors occurred
AccurateRip summary
Track 1 accurately ripped (confidence 1) [D016B605]
Track 2 accurately ripped (confidence 1) [3356C9C3]
Track 3 accurately ripped (confidence 1) [B94BDD12]
Track 4 accurately ripped (confidence 1) [3012AE41]
Track 5 accurately ripped (confidence 1) [2B1A5216]
Track 6 accurately ripped (confidence 1) [DA469938]
Track 7 accurately ripped (confidence 1) [5F0F1A75]
Track 8 accurately ripped (confidence 1) [A00034CD]
Track 9 accurately ripped (confidence 1) [3124306B]
Track 10 accurately ripped (confidence 1) [FE35185B]
Track 11 accurately ripped (confidence 1) [A735BE85]
Track 12 accurately ripped (confidence 1) [796C23F1]
Track 13 accurately ripped (confidence 1) [A5B671E7]
Track 14 accurately ripped (confidence 1) [3C61124D]
Track 15 accurately ripped (confidence 1) [4890716A]
Track 16 accurately ripped (confidence 1) [CC400FFE]
Track 17 accurately ripped (confidence 1) [FB13988C]
Track 18 accurately ripped (confidence 1) [8F0333EE]
Track 19 accurately ripped (confidence 1) [9B25DBD4]
Track 20 accurately ripped (confidence 1) [408C5B17]
Track 21 accurately ripped (confidence 1) [A729AF86]
Track 22 accurately ripped (confidence 1) [93CD113E]
All tracks accurately ripped
End of status report
------------------------------------------------------------
Exact Audio Copy V0.99 prebeta 5 from 4. May 2009
EAC extraction logfile from 27. January 2010, 20:16
Janet Baker / Janet Baker - The Beloved Mezzo (CD 5)
Used drive : MATSHITADVD-RAM UJ880AS Adapter: 0 ID: 1
Read mode : Secure
Utilize accurate stream : Yes
Defeat audio cache : Yes
Make use of C2 pointers : No
Read offset correction : 102
Overread into Lead-In and Lead-Out : No
Fill up missing offset samples with silence : Yes
Delete leading and trailing silent blocks : No
Null samples used in CRC calculations : No
Used interface : Native Win32 interface for Win NT & 2000
Used output format : User Defined Encoder
Selected bitrate : 320 kBit/s
Quality : High
Add ID3 tag : No
Command line compressor : C:\Program Files\Exact Audio Copy\wapet\wapet.exe
Additional command line options : %d -t "Artist=%a" -t "Title=%t" -t "Album=%g" -t "Year=%y" -t "Track=%n" -t "Genre=%m" "C:\Program Files\Monkey's Audio\MAC.exe" %s %d -c2000
TOC of the extracted CD
Track | Start | Length | Start sector | End sector
---------------------------------------------------------
1 | 0:00.00 | 3:39.57 | 0 | 16481
2 | 3:39.57 | 6:49.05 | 16482 | 47161
3 | 10:28.62 | 1:50.45 | 47162 | 55456
4 | 12:19.32 | 2:46.26 | 55457 | 67932
5 | 15:05.58 | 2:00.15 | 67933 | 76947
6 | 17:05.73 | 3:18.04 | 76948 | 91801
7 | 20:24.02 | 4:31.51 | 91802 | 112177
8 | 24:55.53 | 4:32.27 | 112178 | 132604
9 | 29:28.05 | 3:00.62 | 132605 | 146166
10 | 32:28.67 | 2:29.45 | 146167 | 157386
11 | 34:58.37 | 3:09.61 | 157387 | 171622
12 | 38:08.23 | 1:52.16 | 171623 | 180038
13 | 40:00.39 | 2:50.37 | 180039 | 192825
14 | 42:51.01 | 2:02.11 | 192826 | 201986
15 | 44:53.12 | 5:08.72 | 201987 | 225158
16 | 50:02.09 | 1:25.06 | 225159 | 231539
17 | 51:27.15 | 4:12.48 | 231540 | 250487
18 | 55:39.63 | 2:20.65 | 250488 | 261052
19 | 58:00.53 | 3:16.46 | 261053 | 275798
20 | 61:17.24 | 4:16.40 | 275799 | 295038
21 | 65:33.64 | 7:28.23 | 295039 | 328661
22 | 73:02.12 | 3:14.25 | 328662 | 343236
Range status and errors
Selected range
Filename E:\Uploads\JANET BAKER Icon EMI\cd 5\Janet Baker - The Beloved Mezzo (CD 5).wav
Peak level 100.0 %
Range quality 99.9 %
Copy CRC BF21D938
Copy OK
No errors occurred
AccurateRip summary
Track 1 accurately ripped (confidence 1) [D016B605]
Track 2 accurately ripped (confidence 1) [3356C9C3]
Track 3 accurately ripped (confidence 1) [B94BDD12]
Track 4 accurately ripped (confidence 1) [3012AE41]
Track 5 accurately ripped (confidence 1) [2B1A5216]
Track 6 accurately ripped (confidence 1) [DA469938]
Track 7 accurately ripped (confidence 1) [5F0F1A75]
Track 8 accurately ripped (confidence 1) [A00034CD]
Track 9 accurately ripped (confidence 1) [3124306B]
Track 10 accurately ripped (confidence 1) [FE35185B]
Track 11 accurately ripped (confidence 1) [A735BE85]
Track 12 accurately ripped (confidence 1) [796C23F1]
Track 13 accurately ripped (confidence 1) [A5B671E7]
Track 14 accurately ripped (confidence 1) [3C61124D]
Track 15 accurately ripped (confidence 1) [4890716A]
Track 16 accurately ripped (confidence 1) [CC400FFE]
Track 17 accurately ripped (confidence 1) [FB13988C]
Track 18 accurately ripped (confidence 1) [8F0333EE]
Track 19 accurately ripped (confidence 1) [9B25DBD4]
Track 20 accurately ripped (confidence 1) [408C5B17]
Track 21 accurately ripped (confidence 1) [A729AF86]
Track 22 accurately ripped (confidence 1) [93CD113E]
All tracks accurately ripped
End of status report
[teatrix.ru].t10051.torrent 
Торрент: Зарегистрирован [ 2015-10-25 20:37 ] · 2BAC42537DF83A24C86ADC0503B9097EBEEB6C31

Скачать .torrent

Скачать

18 KB

Статус: проверено
Скачан: 1 раз
Размер: 1.49 GB
terms.php



Быстрый ответ

Имя:

      
Для отправки сообщений необходимо включить JavaScript
Показать сообщения:    

Текущее время: 09-Дек 03:01

Часовой пояс: UTC + 3


Вы можете начинать темы
Вы можете отвечать на сообщения
Вы не можете редактировать свои сообщения
Вы не можете удалять свои сообщения
Вы не можете голосовать в опросах
Вы не можете прикреплять файлы к сообщениям
Вы можете скачивать файлы