(Classical/Orchestral) VA - "Sunday Morning Classics" (3CD) - 1997, APE (image+.cue), lossless


Статистика раздачи [Обновить пиров]
Размер:  733 MB   |    Зарегистрирован:  1 год 1 месяц   |    Скачан:  0 раз

Полного источника не было: Никогда

 
   
 
 
 

[Цитировать]

VA - "Sunday Morning Classics" (3CD)
Жанр: Classical/Orchestral
Год выпуска диска: 1997
Производитель диска: Канада
Выпущено: ℗ & © 1997 St. Clair Music BX 99392-3CD
Аудио кодек: APE
Тип рипа: image+.cue+ log
Битрейт аудио: lossless
Вид релиза: Compilation
Описание:
Sunday Morning Classics. Воскресенье утро ... это особое время на неделе, существующее только для вас, или для вас и самого дорогого человека. Время отложить заботы, предаться неге, созерцанию или романтике ... Спокойное время, чтобы задуматься о драгоценности и радости жизни.
Mellow Moments CD1 CLS 24472. Чудесная подборка романтических, прекрасных классических шедевров! Насладитесь мягким воскресным утром великими проникновенными сентиментальными мелодиями... Превосходное исполнение лучшими европейскими оркестрами!
Tranquil Time CD2 CLS 24522. Ангельская музыка, которая так безмятежна и успокоительна! ... Самая красивая и спокойная классика в страстном мастерском исполнении музыкантов ... Эта коллекция идеально подходит для создания миролюбивого настроения в воскресное утро или в любое другое время!
Romantic Dreams CD3 CLS 24482. Все ваши романтические мечты сбудутся под музыку на этом диске. Элегантная классика с восхитительным любовным настроением. Расслабьтесь, и пусть эта успокаивающая, прекрасная классика принесет вам тепло и страсть любовных грез.
Доп. информация:
Скачано с RapidShare. Релизер Alex ZAM
Трэклист:

CD1 длительность 65:24

1.Frederic Chopin: Piano Concerto No.2 In F Minor, Opus 21: II. Largetto: Ljubljana Symphony Orchestra, Marko Munih, conductor, Dubravka Tomsic, piano (9:17)
2. Pyotr Tchaikovsky: Symphony No.1 "Winter Daydreams" In G Minor, Opus 13: II. Adagio Cantabile Ma Non Troppo: Philharmonia Slavonica, Cesare Cantieri, conductor (11:55)
3. Antonio Vivaldi: Concerto For 2 Violins In G Minor Opus 3, No.2: II. Larghetto: Camerata Romana, Eugen Duvier, conductor (5:20)
4. Wolfgang Amadeus Mozart: Piano Concerto No.21 "Elvira Madigan" In C Major, K.467: II. Andante: Mozart Festival Orchestra, Alberto Lizzio, conductor, Svetlana Stanveca, piano (5:37)
5. Georges Bizet: Symphony No.1 In C Major, Opus 88: II. Adagio: London Festival Orchestra, Alfred Scholz conductor (9:53)
6. Bedrich Smetana: "My Country"/Symphonic Poem: I. The Maldau: Philharmonia Slavonia, Henry Adolph, conductor (12:51)
7. Edvard Grieg): Pier Gynt Suite No.2, Opus 55, IV Solvejg's Song: Slovak Philharmonic, Libor Pesek, conductor (5:24)
8.Christoph Gluck: Orpheus/"Che Puro Ciel": Zagreb Opera Orchestra, Milan Sachs, conductor, Ruza Baldani, soprano (5:03)

CD2 длительность 65:25

Antonio Vivaldi: Concerto for Violoin, Strings And Basso Continuo
1. I. Allegro: Camerata Romana, Eugen Duvier, conductor (2:15)
2. II. Largo: Camerata Romana, Eugen Duvier, conductor (3:57)
3. III. Allegro: Camerata Romana, Eugen Duvier, conductor (2:10)
4. Wolfgang Amadeus Mozart: Piano Concerto No 23 in A Major K. 488: II. Adagio: Mozart Festival Orchestra, Alberto Lizzio, conductor, Svetlana Stanveca, piano (5:57)
5. Antonin Dvorak: Symphony No 9 "From the new world" in E minor, opus 95: II. Largo: Ljubljana Symphony Orchestra, Anton Nanut, conductor (12:15)
6. Nicolai Rimsky-Korsakov: Scheherazade: II. The Tale of Prince Kalendar: Ljubljana Symphony Orchestra, Anton Nanut, conductor (12:14)
7. Ludwig van Beethoven: Symphony No 6 "Pastorale" in F major, opus 68: II. Andante molto mosso: Slowakische Phlharmonia, Bystrik Rezucha, conductor (13:27)
8. Franz Schubert: Rosamunde Ballete Suite Entr'acte: Philharmonia Slavonia, Henry Adolph, conductor (7:35)
9. Claude Debussy: Reverie: Dieter Goldmann, piano (5:32)

CD3 длительность 65:56

1. Claude Debussy: Clair de lune, for piano: Dieter Goldmann, piano (5:06)
2. Pyotr Tchaikovsky: Violin Concerto in D major, Op. 35: ll. Canzonetta (Andante): Festival Orchestra Belgium Pierre Narrato, conductor, Rachel Applebaum, violin(6:51)
3. Ludwig van Beethoven: Symphony No. 2 in D major, Op. 36: ll. Larghetto: London Philharmonic Orchestra, Cesare Cantieri, conductor (11:44)
4. Wolfgang Amadeus Mozart: Concerto for Bassoon & Orchestra in B major, K. 191: II. Andante ma adagio: Mozart Festival Orchestra, Alberto Lizzio, conductor, Kamil Sreter, bassoon (7:25)
5. Johann Sebastian Bach: Italian Concerto in F major BWV 971: ll. Andante: Christiane Jaccottet, harpsichord (4:10)
6. Wolfgang Amadeus Mozart: Symphony No. 41 in C major, K. 551 "Jupiter" ll. Andante cantabile: Mozart Festival Orchestra, Richard Edliner, conductor (11:44)
7. Johann Strauss: Wiennese Bonbons waltz: Vienna Volksoper Orchestra, Cesare Cantieri, conductor (9:41)
8. Ludwig van Beethoven: "For Elise": Dubravka Tomisic, piano (2:59)
9. Niccolo Paganini: Violin Concerto No. 1 in E flat major (usually transposed to D major), Op. 6, ll. Adagio espressivo: South German Philharmonic Orchestra, Hanspeter Gmur, conductor, Oliver Colbentsen, violin (6:18)
Обложки:

CD1

, ,

CD2

, ,

CD3

, ,
Отчет EAC:

CD1

Exact Audio Copy V0.99 prebeta 5 from 4. May 2009
EAC extraction logfile from 2. November 2009, 0:06
Various / Sunday Morning Classics - Mellow Moments
Used drive : HL-DT-STDVD-RAM GSA-H22N Adapter: 1 ID: 0
Read mode : Secure
Utilize accurate stream : Yes
Defeat audio cache : Yes
Make use of C2 pointers : No
Read offset correction : 102
Overread into Lead-In and Lead-Out : No
Fill up missing offset samples with silence : Yes
Delete leading and trailing silent blocks : No
Null samples used in CRC calculations : Yes
Used interface : Native Win32 interface for Win NT & 2000
Used output format : Internal WAV Routines
Sample format : 44.100 Hz; 16 Bit; Stereo
TOC of the extracted CD
Track | Start | Length | Start sector | End sector
---------------------------------------------------------
1 | 0:00.00 | 9:17.55 | 0 | 41829
2 | 9:17.55 | 11:55.48 | 41830 | 95502
3 | 21:13.28 | 5:20.70 | 95503 | 119572
4 | 26:34.23 | 5:37.05 | 119573 | 144852
5 | 32:11.28 | 9:53.16 | 144853 | 189343
6 | 42:04.44 | 12:51.37 | 189344 | 247205
7 | 54:56.06 | 5:24.30 | 247206 | 271535
8 | 60:20.36 | 5:03.60 | 271536 | 294320
Range status and errors
Selected range
Filename C:\Music\OUT Record\Sunday\SMC-MM\Various - Sunday Morning Classics - Mellow Moments.wav
Peak level 83.5 %
Range quality 100.0 %
Copy CRC 1802877B
Copy OK
No errors occurred
AccurateRip summary
Track 1 not present in database
Track 2 not present in database
Track 3 not present in database
Track 4 not present in database
Track 5 not present in database
Track 6 not present in database
Track 7 not present in database
Track 8 not present in database
None of the tracks are present in the AccurateRip database
End of status report

CD2

Exact Audio Copy V0.99 prebeta 5 from 4. May 2009
EAC extraction logfile from 2. November 2009, 0:41
Sunday Morning Classic / Tranquil Time
Used drive : HL-DT-STDVD-RAM GSA-H22N Adapter: 1 ID: 0
Read mode : Secure
Utilize accurate stream : Yes
Defeat audio cache : Yes
Make use of C2 pointers : No
Read offset correction : 102
Overread into Lead-In and Lead-Out : No
Fill up missing offset samples with silence : Yes
Delete leading and trailing silent blocks : No
Null samples used in CRC calculations : Yes
Used interface : Native Win32 interface for Win NT & 2000
Used output format : Internal WAV Routines
Sample format : 44.100 Hz; 16 Bit; Stereo
TOC of the extracted CD
Track | Start | Length | Start sector | End sector
---------------------------------------------------------
1 | 0:00.00 | 2:15.02 | 0 | 10126
2 | 2:15.02 | 3:56.68 | 10127 | 27894
3 | 6:11.70 | 2:10.12 | 27895 | 37656
4 | 8:22.07 | 5:57.02 | 37657 | 64433
5 | 14:19.09 | 12:15.43 | 64434 | 119601
6 | 26:34.52 | 12:14.66 | 119602 | 174717
7 | 38:49.43 | 13:27.73 | 174718 | 235315
8 | 52:17.41 | 7:35.65 | 235316 | 269505
9 | 59:53.31 | 5:32.13 | 269506 | 294418
Range status and errors
Selected range
Filename C:\Music\OUT Record\Sunday\SMCII-TT\Sunday Morning Classic - Tranquil Time.wav
Peak level 97.5 %
Range quality 100.0 %
Copy CRC 93D9B344
Copy OK
No errors occurred
AccurateRip summary
Track 1 not present in database
Track 2 not present in database
Track 3 not present in database
Track 4 not present in database
Track 5 not present in database
Track 6 not present in database
Track 7 not present in database
Track 8 not present in database
Track 9 not present in database
None of the tracks are present in the AccurateRip database
End of status report

CD3

Exact Audio Copy V0.99 prebeta 5 from 4. May 2009
EAC extraction logfile from 2. November 2009, 1:15
Various / Sunday Morning Classics: Romantic Dreams
Used drive : HL-DT-STDVD-RAM GSA-H22N Adapter: 1 ID: 0
Read mode : Secure
Utilize accurate stream : Yes
Defeat audio cache : Yes
Make use of C2 pointers : No
Read offset correction : 102
Overread into Lead-In and Lead-Out : No
Fill up missing offset samples with silence : Yes
Delete leading and trailing silent blocks : No
Null samples used in CRC calculations : Yes
Used interface : Native Win32 interface for Win NT & 2000
Used output format : Internal WAV Routines
Sample format : 44.100 Hz; 16 Bit; Stereo
TOC of the extracted CD
Track | Start | Length | Start sector | End sector
---------------------------------------------------------
1 | 0:00.00 | 5:08.38 | 0 | 23137
2 | 5:08.38 | 6:53.18 | 23138 | 54130
3 | 12:01.56 | 11:44.12 | 54131 | 106942
4 | 23:45.68 | 7:25.60 | 106943 | 140377
5 | 31:11.53 | 4:07.24 | 140378 | 158926
6 | 35:19.02 | 11:37.01 | 158927 | 211202
7 | 46:56.03 | 9:41.02 | 211203 | 254779
8 | 56:37.05 | 2:59.00 | 254780 | 268204
9 | 59:36.05 | 6:20.45 | 268205 | 296749
Range status and errors
Selected range
Filename C:\Music\OUT Record\Sunday\SMCIII-RD\Various - Sunday Morning Classics Romantic Dreams.wav
Peak level 100.0 %
Range quality 100.0 %
Copy CRC F2DC6FAB
Copy OK
No errors occurred
AccurateRip summary
Track 1 not present in database
Track 2 not present in database
Track 3 not present in database
Track 4 not present in database
Track 5 not present in database
Track 6 not present in database
Track 7 not present in database
Track 8 not present in database
Track 9 not present in database
None of the tracks are present in the AccurateRip database
End of status report
[teatrix.ru].t10054.torrent 
Торрент: Зарегистрирован [ 2015-10-25 20:37 ] · 4CADE18F3F53BB4DFA0CBBF1D7FF00AFF25EB36C

Скачать .torrent

Скачать

17 KB

Статус: проверено
Скачан: 0 раз
Размер: 733 MB
terms.php



Быстрый ответ

Имя:

      
Для отправки сообщений необходимо включить JavaScript
Показать сообщения:    

Текущее время: 06-Дек 20:59

Часовой пояс: UTC + 3


Вы можете начинать темы
Вы можете отвечать на сообщения
Вы не можете редактировать свои сообщения
Вы не можете удалять свои сообщения
Вы не можете голосовать в опросах
Вы не можете прикреплять файлы к сообщениям
Вы можете скачивать файлы