(Симфоническая музыка) Евгений Мравинский (Evgeni Mravinsky) 5CD (Глазунов, Овсянико-Куликовский, Чайковский, Прокофьев, R.Strauss, Hindemith, Honegger, Debussy, Bartok, Стравинский) - 2005, FLAC (tracks+.cue), lossless


Статистика раздачи [Обновить пиров]
Размер:  1.45 GB   |    Зарегистрирован:  1 год 2 месяца   |    Скачан:  0 раз

Полного источника не было: Никогда

 
   
 
 
 

[Цитировать]

Евгений Мравинский (Evgeni Mravinsky) 5CD (Глазунов, Овсянико-Куликовский, Чайковский, Прокофьев, R.Strauss, Hindemith, Honegger, Debussy, Bartok, Стравинский)
Жанр: Симфоническая музыка
Год выпуска диска: 2005
Производитель диска: Россия
Аудио кодек: FLAC
Тип рипа: tracks+.cue
Битрейт аудио: lossless
Продолжительность: 5CD
Трэклист:

CD1

01 - 03. Alexander Glazunov. Symphony No.4
04 - 07. Ovsianiko-Kulikovsky. Symphony No.21
Recorded 1947 (01-03), 1954 (04-07)

Log CD1

Exact Audio Copy V0.99 prebeta 5 from 4. May 2009
EAC extraction logfile from 29. October 2009, 13:30
Evgeni Mravinsky / Evgeni Mravinsky Edition (2) CD1
Used drive : PLEXTOR DVDR PX-800A Adapter: 1 ID: 0
Read mode : Secure
Utilize accurate stream : Yes
Defeat audio cache : Yes
Make use of C2 pointers : No
Read offset correction : 48
Overread into Lead-In and Lead-Out : No
Fill up missing offset samples with silence : Yes
Delete leading and trailing silent blocks : No
Null samples used in CRC calculations : No
Used interface : Native Win32 interface for Win NT & 2000
Gap handling : Appended to previous track
Used output format : User Defined Encoder
Selected bitrate : 1024 kBit/s
Quality : High
Add ID3 tag : No
Command line compressor : C:\Program Files\Exact Audio Copy\FLAC\FLAC.EXE
Additional command line options : -6 -V -T "ARTIST=%a" -T "TITLE=%t" -T "ALBUM=%g" -T "DATE=%y" -T "TRACKNUMBER=%n" -T "GENRE=%m" -T "COMMENT=%e" %s -o %d
TOC of the extracted CD
Track | Start | Length | Start sector | End sector
---------------------------------------------------------
1 | 0:00.00 | 13:00.56 | 0 | 58555
2 | 13:00.56 | 5:19.19 | 58556 | 82499
3 | 18:20.00 | 12:02.24 | 82500 | 136673
4 | 30:22.24 | 8:54.20 | 136674 | 176743
5 | 39:16.44 | 6:17.43 | 176744 | 205061
6 | 45:34.12 | 4:15.65 | 205062 | 224251
7 | 49:50.02 | 5:50.47 | 224252 | 250548
Track 1
Filename E:\1111\Evgeni_Mravinsky_Edition_2.5CD(Melodiya)\CD1-Glazunov,Ovsianiko-Kulikovsky\01 - Glazunov. Symphony No.4 - I. Andante.Allegro moderato.wav
Pre-gap length 0:00:02.00
Peak level 98.8 %
Track quality 100.0 %
Test CRC 728A67C0
Copy CRC 728A67C0
Track not present in AccurateRip database
Copy OK
Track 2
Filename E:\1111\Evgeni_Mravinsky_Edition_2.5CD(Melodiya)\CD1-Glazunov,Ovsianiko-Kulikovsky\02 - Glazunov. Symphony No.4 - II. Scherzo.Allegro vivace.wav
Peak level 78.4 %
Track quality 100.0 %
Test CRC E85000C8
Copy CRC E85000C8
Track not present in AccurateRip database
Copy OK
Track 3
Filename E:\1111\Evgeni_Mravinsky_Edition_2.5CD(Melodiya)\CD1-Glazunov,Ovsianiko-Kulikovsky\03 - Glazunov. Symphony No.4 - III. Andante.Allegro.wav
Peak level 100.0 %
Track quality 100.0 %
Test CRC 0F694E80
Copy CRC 0F694E80
Track not present in AccurateRip database
Copy OK
Track 4
Filename E:\1111\Evgeni_Mravinsky_Edition_2.5CD(Melodiya)\CD1-Glazunov,Ovsianiko-Kulikovsky\04 - Ovsianiko-Kulikovsy. Symphony No.21 - I. Adagio.Allegro.wav
Peak level 99.4 %
Track quality 99.9 %
Test CRC 8BD4769C
Copy CRC 8BD4769C
Track not present in AccurateRip database
Copy OK
Track 5
Filename E:\1111\Evgeni_Mravinsky_Edition_2.5CD(Melodiya)\CD1-Glazunov,Ovsianiko-Kulikovsky\05 - Ovsianiko-Kulikovsy. Symphony No.21 - II. Romance.wav
Peak level 72.5 %
Track quality 100.0 %
Test CRC 56EC9A60
Copy CRC 56EC9A60
Track not present in AccurateRip database
Copy OK
Track 6
Filename E:\1111\Evgeni_Mravinsky_Edition_2.5CD(Melodiya)\CD1-Glazunov,Ovsianiko-Kulikovsky\06 - Ovsianiko-Kulikovsy. Symphony No.21 - III. Minuet.wav
Peak level 100.0 %
Track quality 99.8 %
Test CRC 55E44FF9
Copy CRC 55E44FF9
Track not present in AccurateRip database
Copy OK
Track 7
Filename E:\1111\Evgeni_Mravinsky_Edition_2.5CD(Melodiya)\CD1-Glazunov,Ovsianiko-Kulikovsky\07 - Ovsianiko-Kulikovsy. Symphony No.21 - IV. Finale.Kazachok.wav
Peak level 95.4 %
Track quality 100.0 %
Test CRC 9D31BDBB
Copy CRC 9D31BDBB
Track not present in AccurateRip database
Copy OK
None of the tracks are present in the AccurateRip database
No errors occurred
End of status report

CD2

Pyotr Tchaikovsky. Fragments From The Ballet "The Nutcracker", Op. 71
01. Scene 6 - Departure Of The Guests. Night
02. Scene 7 - The Battle
03. Scene 8 - Pine Wood At Winter
04. Scene 9 - Waltz Of The Snow Flakes
05. Scene 14 - Pas De Deux (Fairy Dragee And Prince Orchade)
06. Scene 15 - Final Waltz and apotheosis
Sergei Prokofiev. Second Suite From The Ballet "Romeo And Juliet", Op. 64-Bis
07. Montecchi's And Capuletti's
08. Juliet The Young Girl
09. Friar Laurence's
10. Romeo And Juliet Before Parting
11. Dance Of The Antilian Girls
12. Romeo At The Juliet's Tomb
Recorded: live 31.12.1981 (01-06), 30.12.1981 (07-12)

Log CD2

Exact Audio Copy V0.99 prebeta 5 from 4. May 2009
EAC extraction logfile from 29. October 2009, 14:03
Evgeni Mravinsky / Evgeni Mravinsky Edition (2) - CD2
Used drive : PLEXTOR DVDR PX-800A Adapter: 1 ID: 0
Read mode : Secure
Utilize accurate stream : Yes
Defeat audio cache : Yes
Make use of C2 pointers : No
Read offset correction : 48
Overread into Lead-In and Lead-Out : No
Fill up missing offset samples with silence : Yes
Delete leading and trailing silent blocks : No
Null samples used in CRC calculations : No
Used interface : Native Win32 interface for Win NT & 2000
Gap handling : Appended to previous track
Used output format : User Defined Encoder
Selected bitrate : 1024 kBit/s
Quality : High
Add ID3 tag : No
Command line compressor : C:\Program Files\Exact Audio Copy\FLAC\FLAC.EXE
Additional command line options : -6 -V -T "ARTIST=%a" -T "TITLE=%t" -T "ALBUM=%g" -T "DATE=%y" -T "TRACKNUMBER=%n" -T "GENRE=%m" -T "COMMENT=%e" %s -o %d
TOC of the extracted CD
Track | Start | Length | Start sector | End sector
---------------------------------------------------------
1 | 0:00.00 | 3:16.47 | 0 | 14746
2 | 3:16.47 | 11:03.72 | 14747 | 64543
3 | 14:20.44 | 1:26.35 | 64544 | 71028
4 | 15:47.04 | 5:54.13 | 71029 | 97591
5 | 21:41.17 | 5:48.24 | 97592 | 123715
6 | 27:29.41 | 5:22.04 | 123716 | 147869
7 | 32:51.45 | 4:57.42 | 147870 | 170186
8 | 37:49.12 | 3:45.10 | 170187 | 187071
9 | 41:34.22 | 2:18.48 | 187072 | 197469
10 | 43:52.70 | 7:58.21 | 197470 | 233340
11 | 51:51.16 | 1:47.59 | 233341 | 241424
12 | 53:39.00 | 6:00.08 | 241425 | 268432
Track 1
Filename E:\1111\Evgeni_Mravinsky_Edition_2.5CD(Melodiya)\CD2-Tchaikovsky,Prokofiev\01 - P. Tchaikovsky , Departure from the guests.wav
Pre-gap length 0:00:02.00
Peak level 28.8 %
Track quality 100.0 %
Test CRC 1DB88800
Copy CRC 1DB88800
Track not present in AccurateRip database
Copy OK
Track 2
Filename E:\1111\Evgeni_Mravinsky_Edition_2.5CD(Melodiya)\CD2-Tchaikovsky,Prokofiev\02 - P. Tchaikovsky , The Battle.wav
Peak level 79.7 %
Track quality 100.0 %
Test CRC 0655E1BA
Copy CRC 0655E1BA
Track not present in AccurateRip database
Copy OK
Track 3
Filename E:\1111\Evgeni_Mravinsky_Edition_2.5CD(Melodiya)\CD2-Tchaikovsky,Prokofiev\03 - P. Tchaikovsky , Pinewood at winter.wav
Peak level 37.4 %
Track quality 100.0 %
Test CRC 5277D94A
Copy CRC 5277D94A
Track not present in AccurateRip database
Copy OK
Track 4
Filename E:\1111\Evgeni_Mravinsky_Edition_2.5CD(Melodiya)\CD2-Tchaikovsky,Prokofiev\04 - P. Tchaikovsky , Waltz of Snow Flakes.wav
Peak level 73.4 %
Track quality 100.0 %
Test CRC E2DEC51D
Copy CRC E2DEC51D
Track not present in AccurateRip database
Copy OK
Track 5
Filename E:\1111\Evgeni_Mravinsky_Edition_2.5CD(Melodiya)\CD2-Tchaikovsky,Prokofiev\05 - P. Tchaikovsky , Pas de deux.wav
Peak level 68.3 %
Track quality 99.9 %
Test CRC 60D71AAB
Copy CRC 60D71AAB
Track not present in AccurateRip database
Copy OK
Track 6
Filename E:\1111\Evgeni_Mravinsky_Edition_2.5CD(Melodiya)\CD2-Tchaikovsky,Prokofiev\06 - P. Tchaikovsky , Final waltz & apotheosis.wav
Peak level 80.2 %
Track quality 100.0 %
Test CRC 9A3BA560
Copy CRC 9A3BA560
Track not present in AccurateRip database
Copy OK
Track 7
Filename E:\1111\Evgeni_Mravinsky_Edition_2.5CD(Melodiya)\CD2-Tchaikovsky,Prokofiev\07 - S. Prokofiev , Montecchi's & Capuletti's.wav
Pre-gap length 0:00:02.00
Peak level 80.4 %
Track quality 100.0 %
Test CRC 0A25D6FC
Copy CRC 0A25D6FC
Track not present in AccurateRip database
Copy OK
Track 8
Filename E:\1111\Evgeni_Mravinsky_Edition_2.5CD(Melodiya)\CD2-Tchaikovsky,Prokofiev\08 - S. Prokofiev , Juliet the young girl.wav
Peak level 28.2 %
Track quality 99.9 %
Test CRC 16FF2220
Copy CRC 16FF2220
Track not present in AccurateRip database
Copy OK
Track 9
Filename E:\1111\Evgeni_Mravinsky_Edition_2.5CD(Melodiya)\CD2-Tchaikovsky,Prokofiev\09 - S. Prokofiev , Friar Laurence's.wav
Peak level 34.0 %
Track quality 100.0 %
Test CRC F6C51D1E
Copy CRC F6C51D1E
Track not present in AccurateRip database
Copy OK
Track 10
Filename E:\1111\Evgeni_Mravinsky_Edition_2.5CD(Melodiya)\CD2-Tchaikovsky,Prokofiev\10 - S. Prokofiev , Romeo & Juliet before Parting.wav
Peak level 60.2 %
Track quality 100.0 %
Test CRC 8600DE48
Copy CRC 8600DE48
Track not present in AccurateRip database
Copy OK
Track 11
Filename E:\1111\Evgeni_Mravinsky_Edition_2.5CD(Melodiya)\CD2-Tchaikovsky,Prokofiev\11 - S. Prokofiev , Dance of the Antilian Girls.wav
Peak level 19.5 %
Track quality 100.0 %
Test CRC F739CDDB
Copy CRC F739CDDB
Track not present in AccurateRip database
Copy OK
Track 12
Filename E:\1111\Evgeni_Mravinsky_Edition_2.5CD(Melodiya)\CD2-Tchaikovsky,Prokofiev\12 - S. Prokofiev , Romeo at the Juliet's tomb.wav
Peak level 100.0 %
Track quality 100.0 %
Test CRC 8E2F9EA1
Copy CRC 8E2F9EA1
Track not present in AccurateRip database
Copy OK
None of the tracks are present in the AccurateRip database
No errors occurred
End of status report

CD3

01 - 21. Richard Strauss. Eine Alpensymphonie / Alpine Symphony, Op. 64
Запись 21.04.1962 с концерта в Большом зале Ленинградской филармонии

Log CD3

Exact Audio Copy V0.99 prebeta 5 from 4. May 2009
EAC extraction logfile from 29. October 2009, 14:42
Evgeni Mravinsky / Evgeni Mravinsky Edition (2) - CD3-R.Strauss.Alpine Symphony
Used drive : PLEXTOR DVDR PX-800A Adapter: 1 ID: 0
Read mode : Secure
Utilize accurate stream : Yes
Defeat audio cache : Yes
Make use of C2 pointers : No
Read offset correction : 48
Overread into Lead-In and Lead-Out : No
Fill up missing offset samples with silence : Yes
Delete leading and trailing silent blocks : No
Null samples used in CRC calculations : No
Used interface : Native Win32 interface for Win NT & 2000
Gap handling : Appended to previous track
Used output format : User Defined Encoder
Selected bitrate : 1024 kBit/s
Quality : High
Add ID3 tag : No
Command line compressor : C:\Program Files\Exact Audio Copy\FLAC\FLAC.EXE
Additional command line options : -6 -V -T "ARTIST=%a" -T "TITLE=%t" -T "ALBUM=%g" -T "DATE=%y" -T "TRACKNUMBER=%n" -T "GENRE=%m" -T "COMMENT=%e" %s -o %d
TOC of the extracted CD
Track | Start | Length | Start sector | End sector
---------------------------------------------------------
1 | 0:00.00 | 4:52.54 | 0 | 21953
2 | 4:52.54 | 1:33.55 | 21954 | 28983
3 | 6:26.34 | 2:15.57 | 28984 | 39165
4 | 8:42.16 | 5:46.24 | 39166 | 65139
5 | 14:28.40 | 0:49.61 | 65140 | 68875
6 | 15:18.26 | 1:08.28 | 68876 | 74003
7 | 16:26.54 | 0:57.16 | 74004 | 78294
8 | 17:23.70 | 2:36.60 | 78295 | 90054
9 | 20:00.55 | 1:33.43 | 90055 | 97072
10 | 21:34.23 | 1:08.07 | 97073 | 102179
11 | 22:42.30 | 1:19.20 | 102180 | 108124
12 | 24:01.50 | 5:07.40 | 108125 | 131189
13 | 29:09.15 | 4:00.25 | 131190 | 149214
14 | 33:09.40 | 0:23.28 | 149215 | 150967
15 | 33:32.68 | 1:13.46 | 150968 | 156488
16 | 34:46.39 | 2:15.10 | 156489 | 166623
17 | 37:01.49 | 2:46.55 | 166624 | 179128
18 | 39:48.29 | 3:18.47 | 179129 | 194025
19 | 43:07.01 | 2:14.47 | 194026 | 204122
20 | 45:21.48 | 5:38.17 | 204123 | 229489
21 | 50:59.65 | 3:43.62 | 229490 | 246276
Track 1
Filename E:\1111\Evgeni_Mravinsky_Edition_2.5CD(Melodiya)\CD3-R.Strauss.Alpine Symphony\01 - Ночь , Night.wav
Pre-gap length 0:00:02.00
Peak level 48.8 %
Track quality 100.0 %
Test CRC 7F01E88C
Copy CRC 7F01E88C
Track not present in AccurateRip database
Copy OK
Track 2
Filename E:\1111\Evgeni_Mravinsky_Edition_2.5CD(Melodiya)\CD3-R.Strauss.Alpine Symphony\02 - Восход солнца , Sunrise.wav
Peak level 92.1 %
Track quality 100.0 %
Test CRC 57FABF15
Copy CRC 57FABF15
Track not present in AccurateRip database
Copy OK
Track 3
Filename E:\1111\Evgeni_Mravinsky_Edition_2.5CD(Melodiya)\CD3-R.Strauss.Alpine Symphony\03 - Подъём , The Ascent.wav
Peak level 88.2 %
Track quality 100.0 %
Test CRC 73735E2A
Copy CRC 73735E2A
Track not present in AccurateRip database
Copy OK
Track 4
Filename E:\1111\Evgeni_Mravinsky_Edition_2.5CD(Melodiya)\CD3-R.Strauss.Alpine Symphony\04 - Вход в лес , Entry into the wood.wav
Peak level 91.8 %
Track quality 99.9 %
Test CRC 965762DE
Copy CRC 965762DE
Track not present in AccurateRip database
Copy OK
Track 5
Filename E:\1111\Evgeni_Mravinsky_Edition_2.5CD(Melodiya)\CD3-R.Strauss.Alpine Symphony\05 - Прогулка вдоль ручья , A walk along the brook.wav
Peak level 68.5 %
Track quality 99.7 %
Test CRC B79E4125
Copy CRC B79E4125
Track not present in AccurateRip database
Copy OK
Track 6
Filename E:\1111\Evgeni_Mravinsky_Edition_2.5CD(Melodiya)\CD3-R.Strauss.Alpine Symphony\06 - У водопада , At the waterfall.wav
Peak level 65.1 %
Track quality 100.0 %
Test CRC 22A3994B
Copy CRC 22A3994B
Track not present in AccurateRip database
Copy OK
Track 7
Filename E:\1111\Evgeni_Mravinsky_Edition_2.5CD(Melodiya)\CD3-R.Strauss.Alpine Symphony\07 - На цветущих лугах , Onto flowely meadows.wav
Peak level 38.8 %
Track quality 100.0 %
Test CRC 1A3BEF13
Copy CRC 1A3BEF13
Track not present in AccurateRip database
Copy OK
Track 8
Filename E:\1111\Evgeni_Mravinsky_Edition_2.5CD(Melodiya)\CD3-R.Strauss.Alpine Symphony\08 - На высокогорном пастбище , On the mountain pasture.wav
Peak level 43.9 %
Track quality 100.0 %
Test CRC 86A0C038
Copy CRC 86A0C038
Track not present in AccurateRip database
Copy OK
Track 9
Filename E:\1111\Evgeni_Mravinsky_Edition_2.5CD(Melodiya)\CD3-R.Strauss.Alpine Symphony\09 - Сквозь чащобу и кустарник по ложному пути , Wrong turns through thicket and brush.wav
Peak level 70.1 %
Track quality 100.0 %
Test CRC E69F8457
Copy CRC E69F8457
Track not present in AccurateRip database
Copy OK
Track 10
Filename E:\1111\Evgeni_Mravinsky_Edition_2.5CD(Melodiya)\CD3-R.Strauss.Alpine Symphony\10 - На глетчере , On the glacier.wav
Peak level 76.7 %
Track quality 99.8 %
Test CRC 571FD5BE
Copy CRC 571FD5BE
Track not present in AccurateRip database
Copy OK
Track 11
Filename E:\1111\Evgeni_Mravinsky_Edition_2.5CD(Melodiya)\CD3-R.Strauss.Alpine Symphony\11 - Опасные мгновения , Perilous moments.wav
Peak level 23.3 %
Track quality 100.0 %
Test CRC 16943FE5
Copy CRC 16943FE5
Track not present in AccurateRip database
Copy OK
Track 12
Filename E:\1111\Evgeni_Mravinsky_Edition_2.5CD(Melodiya)\CD3-R.Strauss.Alpine Symphony\12 - На вершине , At the summit.wav
Peak level 91.7 %
Track quality 100.0 %
Test CRC 5AE977C5
Copy CRC 5AE977C5
Track not present in AccurateRip database
Copy OK
Track 13
Filename E:\1111\Evgeni_Mravinsky_Edition_2.5CD(Melodiya)\CD3-R.Strauss.Alpine Symphony\13 - Видение , A vision.wav
Peak level 70.0 %
Track quality 100.0 %
Test CRC 9DA1B359
Copy CRC 9DA1B359
Track not present in AccurateRip database
Copy OK
Track 14
Filename E:\1111\Evgeni_Mravinsky_Edition_2.5CD(Melodiya)\CD3-R.Strauss.Alpine Symphony\14 - Подымается туман , The fog rises.wav
Peak level 56.9 %
Track quality 100.0 %
Test CRC CC8416B2
Copy CRC CC8416B2
Track not present in AccurateRip database
Copy OK
Track 15
Filename E:\1111\Evgeni_Mravinsky_Edition_2.5CD(Melodiya)\CD3-R.Strauss.Alpine Symphony\15 - Солнце постепенно меркнет , The sun is gradually obcured.wav
Peak level 9.7 %
Track quality 100.0 %
Test CRC BE56B0FF
Copy CRC BE56B0FF
Track not present in AccurateRip database
Copy OK
Track 16
Filename E:\1111\Evgeni_Mravinsky_Edition_2.5CD(Melodiya)\CD3-R.Strauss.Alpine Symphony\16 - Элегия , Elegy.wav
Peak level 13.6 %
Track quality 99.9 %
Test CRC 3757B248
Copy CRC 3757B248
Track not present in AccurateRip database
Copy OK
Track 17
Filename E:\1111\Evgeni_Mravinsky_Edition_2.5CD(Melodiya)\CD3-R.Strauss.Alpine Symphony\17 - Затищье перед бурей , Calm before the storm.wav
Peak level 68.6 %
Track quality 100.0 %
Test CRC 20A6B5EA
Copy CRC 20A6B5EA
Track not present in AccurateRip database
Copy OK
Track 18
Filename E:\1111\Evgeni_Mravinsky_Edition_2.5CD(Melodiya)\CD3-R.Strauss.Alpine Symphony\18 - Гроза и буря, спуск , Thunder and rainstorm, the descent.wav
Peak level 100.0 %
Track quality 100.0 %
Test CRC CF546F7D
Copy CRC CF546F7D
Track not present in AccurateRip database
Copy OK
Track 19
Filename E:\1111\Evgeni_Mravinsky_Edition_2.5CD(Melodiya)\CD3-R.Strauss.Alpine Symphony\19 - Закат , Sunset.wav
Peak level 58.2 %
Track quality 100.0 %
Test CRC 680CEF5E
Copy CRC 680CEF5E
Track not present in AccurateRip database
Copy OK
Track 20
Filename E:\1111\Evgeni_Mravinsky_Edition_2.5CD(Melodiya)\CD3-R.Strauss.Alpine Symphony\20 - Отголосок дня , Ending (of the day).wav
Peak level 79.2 %
Track quality 99.9 %
Test CRC E5BA5E87
Copy CRC E5BA5E87
Track not present in AccurateRip database
Copy OK
Track 21
Filename E:\1111\Evgeni_Mravinsky_Edition_2.5CD(Melodiya)\CD3-R.Strauss.Alpine Symphony\21 - Ночь , Night.wav
Peak level 66.9 %
Track quality 99.9 %
Test CRC DD232842
Copy CRC DD232842
Track not present in AccurateRip database
Copy OK
None of the tracks are present in the AccurateRip database
No errors occurred
End of status report

CD4

01 - 03. Paul Hindemith. Symphony "Harmonia Mundi"
04 - 06. Honegger. Symphony No. 3 "Liturgy"
Recorded 1965

Log CD4

Exact Audio Copy V0.99 prebeta 5 from 4. May 2009
EAC extraction logfile from 30. October 2009, 13:43
Evgeni Mravinsky / Evgeni Mravinsky Edition (2) CD4-Hindemith & Honegger
Used drive : PLEXTOR DVDR PX-800A Adapter: 1 ID: 0
Read mode : Secure
Utilize accurate stream : Yes
Defeat audio cache : Yes
Make use of C2 pointers : No
Read offset correction : 48
Overread into Lead-In and Lead-Out : No
Fill up missing offset samples with silence : Yes
Delete leading and trailing silent blocks : No
Null samples used in CRC calculations : No
Used interface : Native Win32 interface for Win NT & 2000
Gap handling : Appended to previous track
Used output format : User Defined Encoder
Selected bitrate : 1024 kBit/s
Quality : High
Add ID3 tag : No
Command line compressor : C:\Program Files\Exact Audio Copy\FLAC\FLAC.EXE
Additional command line options : -6 -V -T "ARTIST=%a" -T "TITLE=%t" -T "ALBUM=%g" -T "DATE=%y" -T "TRACKNUMBER=%n" -T "GENRE=%m" -T "COMMENT=%e" %s -o %d
TOC of the extracted CD
Track | Start | Length | Start sector | End sector
---------------------------------------------------------
1 | 0:00.00 | 11:01.00 | 0 | 49574
2 | 11:01.00 | 9:20.10 | 49575 | 91584
3 | 20:21.10 | 14:09.08 | 91585 | 155267
4 | 34:30.18 | 6:49.02 | 155268 | 185944
5 | 41:19.20 | 10:46.00 | 185945 | 234394
6 | 52:05.20 | 9:55.32 | 234395 | 279051
Track 1
Filename E:\1111\Evgeni_Mravinsky_Edition_2.5CD(Melodiya)\CD4-Hindemith,Honegger\01 - P. Hindemith , Harmonia Mundi - Musica instrumentalis.wav
Pre-gap length 0:00:02.00
Peak level 95.2 %
Track quality 100.0 %
Test CRC A8A7998B
Copy CRC A8A7998B
Track not present in AccurateRip database
Copy OK
Track 2
Filename E:\1111\Evgeni_Mravinsky_Edition_2.5CD(Melodiya)\CD4-Hindemith,Honegger\02 - P. Hindemith , Harmonia Mundi - Musica Humana.wav
Peak level 77.0 %
Track quality 100.0 %
Test CRC 2899A484
Copy CRC 2899A484
Track not present in AccurateRip database
Copy OK
Track 3
Filename E:\1111\Evgeni_Mravinsky_Edition_2.5CD(Melodiya)\CD4-Hindemith,Honegger\03 - P. Hindemith , Harmonia Mundi - Musica Mundana.wav
Peak level 75.4 %
Track quality 99.9 %
Test CRC 63F811B0
Copy CRC 63F811B0
Track not present in AccurateRip database
Copy OK
Track 4
Filename E:\1111\Evgeni_Mravinsky_Edition_2.5CD(Melodiya)\CD4-Hindemith,Honegger\04 - A. Honegger , Symphonie Liturgy Dies Irae.wav
Pre-gap length 0:00:02.00
Peak level 96.3 %
Track quality 100.0 %
Test CRC 42B172A9
Copy CRC 42B172A9
Track not present in AccurateRip database
Copy OK
Track 5
Filename E:\1111\Evgeni_Mravinsky_Edition_2.5CD(Melodiya)\CD4-Hindemith,Honegger\05 - A. Honegger , Symphonie Liturgy De profundis.wav
Peak level 100.0 %
Track quality 99.9 %
Test CRC B99EF4C0
Copy CRC B99EF4C0
Track not present in AccurateRip database
Copy OK
Track 6
Filename E:\1111\Evgeni_Mravinsky_Edition_2.5CD(Melodiya)\CD4-Hindemith,Honegger\06 - A. Honegger , Symphonie Liturgy Dona nobis Pacem.wav
Peak level 100.0 %
Track quality 100.0 %
Test CRC A322B96E
Copy CRC A322B96E
Track not present in AccurateRip database
Copy OK
None of the tracks are present in the AccurateRip database
No errors occurred
End of status report

CD5

01. Claude Debussy. Prelude a l' 'Apres-midi d'un faun'
02 - 05. Bela Bartok. Music for string instruments, percussion and celesta Sz. 106 (1937)
06 - 22. Igor Stravinsky. Agon, ballet for twelve dancers (1954-57)
Записи с концертов в Большом зале Московской филармонии-28.12.1965 (01 - 05);
в Большом зале Ленинградской филармонии-30.10.1968 (06 - 22)

Log CD5

Exact Audio Copy V0.99 prebeta 5 from 4. May 2009
EAC extraction logfile from 30. October 2009, 14:28
Evgeny Mravinsky / Evgeny Mravinsky Edition (2) CD5-Bartok,Debussy,Stravinsky
Used drive : PLEXTOR DVDR PX-800A Adapter: 1 ID: 0
Read mode : Secure
Utilize accurate stream : Yes
Defeat audio cache : Yes
Make use of C2 pointers : No
Read offset correction : 48
Overread into Lead-In and Lead-Out : No
Fill up missing offset samples with silence : Yes
Delete leading and trailing silent blocks : No
Null samples used in CRC calculations : No
Used interface : Native Win32 interface for Win NT & 2000
Gap handling : Appended to previous track
Used output format : User Defined Encoder
Selected bitrate : 1024 kBit/s
Quality : High
Add ID3 tag : No
Command line compressor : C:\Program Files\Exact Audio Copy\FLAC\FLAC.EXE
Additional command line options : -6 -V -T "ARTIST=%a" -T "TITLE=%t" -T "ALBUM=%g" -T "DATE=%y" -T "TRACKNUMBER=%n" -T "GENRE=%m" -T "COMMENT=%e" %s -o %d
TOC of the extracted CD
Track | Start | Length | Start sector | End sector
---------------------------------------------------------
1 | 0:00.00 | 9:51.27 | 0 | 44351
2 | 9:51.27 | 7:21.53 | 44352 | 77479
3 | 17:13.05 | 7:54.29 | 77480 | 113058
4 | 25:07.34 | 6:59.49 | 113059 | 144532
5 | 32:07.08 | 7:27.04 | 144533 | 178061
6 | 39:34.12 | 1:48.23 | 178062 | 186184
7 | 41:22.35 | 1:36.22 | 186185 | 193406
8 | 42:58.57 | 1:09.23 | 193407 | 198604
9 | 44:08.05 | 0:57.30 | 198605 | 202909
10 | 45:05.35 | 1:18.48 | 202910 | 208807
11 | 46:24.08 | 1:19.44 | 208808 | 214776
12 | 47:43.52 | 1:27.54 | 214777 | 221355
13 | 49:11.31 | 0:55.10 | 221356 | 225490
14 | 50:06.41 | 0:59.33 | 225491 | 229948
15 | 51:05.74 | 0:53.37 | 229949 | 233960
16 | 51:59.36 | 1:26.59 | 233961 | 240469
17 | 53:26.20 | 0:56.52 | 240470 | 244721
18 | 54:22.72 | 4:15.51 | 244722 | 263897
19 | 58:38.48 | 1:35.47 | 263898 | 271069
20 | 60:14.20 | 0:32.04 | 271070 | 273473
21 | 60:46.24 | 0:39.24 | 273474 | 276422
22 | 61:25.48 | 2:03.29 | 276423 | 285676
Track 1
Filename E:\1111\Evgeni_Mravinsky_Edition_2.5CD(Melodiya)\CD5-Debussy,Bartok,Stravinsky\01 - Debussy. Prelude a l' 'Apres-midi d'un faun'.wav
Pre-gap length 0:00:02.00
Peak level 65.4 %
Track quality 100.0 %
Test CRC 155BDF50
Copy CRC 155BDF50
Track not present in AccurateRip database
Copy OK
Track 2
Filename E:\1111\Evgeni_Mravinsky_Edition_2.5CD(Melodiya)\CD5-Debussy,Bartok,Stravinsky\02 - Bartok. Music for string instruments, percussion and celesta Sz. 106 (1937). I. Andante tranquillo.wav
Peak level 92.3 %
Track quality 99.5 %
Test CRC 43C68D20
Copy CRC 43C68D20
Track not present in AccurateRip database
Copy OK
Track 3
Filename E:\1111\Evgeni_Mravinsky_Edition_2.5CD(Melodiya)\CD5-Debussy,Bartok,Stravinsky\03 - Bartok. Music for strings... II. Allegro.wav
Peak level 99.6 %
Track quality 100.0 %
Test CRC D3633A31
Copy CRC D3633A31
Track not present in AccurateRip database
Copy OK
Track 4
Filename E:\1111\Evgeni_Mravinsky_Edition_2.5CD(Melodiya)\CD5-Debussy,Bartok,Stravinsky\04 - Bartok. Music for strings... III. Adagio.wav
Peak level 92.2 %
Track quality 100.0 %
Test CRC 0A8AF180
Copy CRC 0A8AF180
Track not present in AccurateRip database
Copy OK
Track 5
Filename E:\1111\Evgeni_Mravinsky_Edition_2.5CD(Melodiya)\CD5-Debussy,Bartok,Stravinsky\05 - Bartok. Music for strings... IV. Allegro molto.wav
Peak level 97.9 %
Track quality 100.0 %
Test CRC BE4851B0
Copy CRC BE4851B0
Track not present in AccurateRip database
Copy OK
Track 6
Filename E:\1111\Evgeni_Mravinsky_Edition_2.5CD(Melodiya)\CD5-Debussy,Bartok,Stravinsky\06 - Stravinsky. Agon, ballet for twelve dancers (1954-57). Pas de Quatre.wav
Peak level 49.8 %
Track quality 100.0 %
Test CRC 157A6EB3
Copy CRC 157A6EB3
Track not present in AccurateRip database
Copy OK
Track 7
Filename E:\1111\Evgeni_Mravinsky_Edition_2.5CD(Melodiya)\CD5-Debussy,Bartok,Stravinsky\07 - Stravinsky. Agon. Double Pas de Quatre (8 female dancers).wav
Peak level 60.6 %
Track quality 99.8 %
Test CRC A35EF2CD
Copy CRC A35EF2CD
Track not present in AccurateRip database
Copy OK
Track 8
Filename E:\1111\Evgeni_Mravinsky_Edition_2.5CD(Melodiya)\CD5-Debussy,Bartok,Stravinsky\08 - Stravinsky. Agon. Triple Pas de Quatre (8 female dancers and 4 male dancers).wav
Peak level 54.3 %
Track quality 100.0 %
Test CRC E6A5FE53
Copy CRC E6A5FE53
Track not present in AccurateRip database
Copy OK
Track 9
Filename E:\1111\Evgeni_Mravinsky_Edition_2.5CD(Melodiya)\CD5-Debussy,Bartok,Stravinsky\09 - Stravinsky. Agon. Prelude.wav
Peak level 66.6 %
Track quality 100.0 %
Test CRC AF441D6D
Copy CRC AF441D6D
Track not present in AccurateRip database
Copy OK
Track 10
Filename E:\1111\Evgeni_Mravinsky_Edition_2.5CD(Melodiya)\CD5-Debussy,Bartok,Stravinsky\10 - Stravinsky. Agon. Saraband-step (male dance solo).wav
Peak level 52.3 %
Track quality 100.0 %
Test CRC A6758DF4
Copy CRC A6758DF4
Track not present in AccurateRip database
Copy OK
Track 11
Filename E:\1111\Evgeni_Mravinsky_Edition_2.5CD(Melodiya)\CD5-Debussy,Bartok,Stravinsky\11 - Stravinsky. Agon. Gaillliarde (2 female dancers).wav
Peak level 29.9 %
Track quality 100.0 %
Test CRC 92784322
Copy CRC 92784322
Track not present in AccurateRip database
Copy OK
Track 12
Filename E:\1111\Evgeni_Mravinsky_Edition_2.5CD(Melodiya)\CD5-Debussy,Bartok,Stravinsky\12 - Stravinsky. Agon. Coda (1 male and 2 female dancers).wav
Peak level 58.4 %
Track quality 100.0 %
Test CRC 908FFCB7
Copy CRC 908FFCB7
Track not present in AccurateRip database
Copy OK
Track 13
Filename E:\1111\Evgeni_Mravinsky_Edition_2.5CD(Melodiya)\CD5-Debussy,Bartok,Stravinsky\13 - Stravinsky. Agon. Interlude.wav
Peak level 52.7 %
Track quality 99.8 %
Test CRC 8F4752F1
Copy CRC 8F4752F1
Track not present in AccurateRip database
Copy OK
Track 14
Filename E:\1111\Evgeni_Mravinsky_Edition_2.5CD(Melodiya)\CD5-Debussy,Bartok,Stravinsky\14 - Stravinsky. Agon. Bransle simple (2 male dancers).wav
Peak level 53.9 %
Track quality 99.8 %
Test CRC F6CA6824
Copy CRC F6CA6824
Track not present in AccurateRip database
Copy OK
Track 15
Filename E:\1111\Evgeni_Mravinsky_Edition_2.5CD(Melodiya)\CD5-Debussy,Bartok,Stravinsky\15 - Stravinsky. Agon. Bransle Gay (1 female dancer).wav
Peak level 39.3 %
Track quality 100.0 %
Test CRC 774774CB
Copy CRC 774774CB
Track not present in AccurateRip database
Copy OK
Track 16
Filename E:\1111\Evgeni_Mravinsky_Edition_2.5CD(Melodiya)\CD5-Debussy,Bartok,Stravinsky\16 - Stravinsky. Agon. Bransle Double (2 male and 1female dancers).wav
Peak level 42.6 %
Track quality 100.0 %
Test CRC 03B325B7
Copy CRC 03B325B7
Track not present in AccurateRip database
Copy OK
Track 17
Filename E:\1111\Evgeni_Mravinsky_Edition_2.5CD(Melodiya)\CD5-Debussy,Bartok,Stravinsky\17 - Stravinsky. Agon. Interlude.wav
Peak level 54.1 %
Track quality 100.0 %
Test CRC 6F804440
Copy CRC 6F804440
Track not present in AccurateRip database
Copy OK
Track 18
Filename E:\1111\Evgeni_Mravinsky_Edition_2.5CD(Melodiya)\CD5-Debussy,Bartok,Stravinsky\18 - Stravinsky. Agon. Pas de deux (male dancer and female dancer).wav
Peak level 46.7 %
Track quality 99.9 %
Test CRC 4C92F119
Copy CRC 4C92F119
Track not present in AccurateRip database
Copy OK
Track 19
Filename E:\1111\Evgeni_Mravinsky_Edition_2.5CD(Melodiya)\CD5-Debussy,Bartok,Stravinsky\19 - Stravinsky. Agon. Coda.wav
Peak level 51.9 %
Track quality 99.8 %
Test CRC 8B3E41B9
Copy CRC 8B3E41B9
Track not present in AccurateRip database
Copy OK
Track 20
Filename E:\1111\Evgeni_Mravinsky_Edition_2.5CD(Melodiya)\CD5-Debussy,Bartok,Stravinsky\20 - Stravinsky. Agon. Four duos (male and female dancers).wav
Peak level 27.9 %
Track quality 100.0 %
Test CRC 9BBCCA52
Copy CRC 9BBCCA52
Track not present in AccurateRip database
Copy OK
Track 21
Filename E:\1111\Evgeni_Mravinsky_Edition_2.5CD(Melodiya)\CD5-Debussy,Bartok,Stravinsky\21 - Stravinsky. Agon. Four trios (male and 2 female dancers).wav
Peak level 55.3 %
Track quality 100.0 %
Test CRC 69E92AA8
Copy CRC 69E92AA8
Track not present in AccurateRip database
Copy OK
Track 22
Filename E:\1111\Evgeni_Mravinsky_Edition_2.5CD(Melodiya)\CD5-Debussy,Bartok,Stravinsky\22 - Stravinsky. Agon. Coda (all the dancers).wav
Peak level 57.8 %
Track quality 100.0 %
Test CRC 897FBE5F
Copy CRC 897FBE5F
Track not present in AccurateRip database
Copy OK
None of the tracks are present in the AccurateRip database
No errors occurred
End of status report
Доп. информация: ЗКР АСО Ленинградской филармонии.
Наименования треков, даты, логи под спойлером.
[teatrix.ru].t10055.torrent 
Торрент: Зарегистрирован [ 2015-10-25 20:37 ] · BCB8F66B61F7F78CDF8CE5DF25F2840EF6BDED27

Скачать .torrent

Скачать

28 KB

Статус: проверено
Скачан: 0 раз
Размер: 1.45 GB
terms.php



Быстрый ответ

Имя:

      
Для отправки сообщений необходимо включить JavaScript
Показать сообщения:    

Текущее время: 24-Янв 12:10

Часовой пояс: UTC + 3


Вы можете начинать темы
Вы можете отвечать на сообщения
Вы не можете редактировать свои сообщения
Вы не можете удалять свои сообщения
Вы не можете голосовать в опросах
Вы не можете прикреплять файлы к сообщениям
Вы можете скачивать файлы