(Симфоническая музыка) Евгений Мравинский 5CD (Моцарт, Вагнер, Бетховен, Шуберт, Сибелиус, Бизе, Равель, Дебюсси, Мусоргский, Римский-Корсаков)/Evgeni Mravinsky (Mozart, Wagner, Beethoven, Schubert, Sibelius) - 2003, FLAC (tracks+.cue), lossless


Статистика раздачи [Обновить пиров]
Размер:  1.31 GB   |    Зарегистрирован:  1 год 1 месяц   |    Скачан:  0 раз

Полного источника не было: Никогда

 
   
 
 
 

[Цитировать]

(Симфоническая музыка) Евгений Мравинский 5CD (Моцарт, Вагнер, Бетховен, Шуберт, Сибелиус, Бизе, Равель, Дебюсси, Мусоргский, Римский-Корсаков)/Evgeni Mravinsky (Mozart, Wagner, Beethoven, Schubert, Sibelius, Bizet, Ravel, Debussy, Mussorgsky, Rimsky-Korsakov)
Жанр: Симфоническая музыка
Год выпуска диска: 2003
Производитель диска: Россия
Аудио кодек: FLAC
Тип рипа: tracks+.cue
Битрейт аудио: lossless
Продолжительность: 5CD
Трэклист:

CD1

Wolfgang Amadeus Mozart
01 - 04. Symphony No.33 in B flat major, K.319
05 - 07. Concerto For Flute, Harp and Orchestra in C major, K.299
08 - 11. Symphony No.39 in E flat major, K.543
Recorded: Ленинград:
02.02.1950 (1-4), 15.03.1949 (5-7);
Большой зал Моск.фил. live:
21(23?).02.1965 (8-11)

Log CD1

Exact Audio Copy V0.99 prebeta 5 from 4. May 2009
EAC extraction logfile from 27. October 2009, 14:41
Evgeny Mravinsky & Leningrad Philharmonic Orchestra / 100th Anniversary Edition (CD1) - Mozart
Used drive : PLEXTOR DVDR PX-800A Adapter: 1 ID: 0
Read mode : Secure
Utilize accurate stream : Yes
Defeat audio cache : Yes
Make use of C2 pointers : No
Read offset correction : 48
Overread into Lead-In and Lead-Out : No
Fill up missing offset samples with silence : Yes
Delete leading and trailing silent blocks : No
Null samples used in CRC calculations : No
Used interface : Native Win32 interface for Win NT & 2000
Gap handling : Appended to previous track
Used output format : User Defined Encoder
Selected bitrate : 1024 kBit/s
Quality : High
Add ID3 tag : No
Command line compressor : C:\Program Files\Exact Audio Copy\FLAC\FLAC.EXE
Additional command line options : -6 -V -T "ARTIST=%a" -T "TITLE=%t" -T "ALBUM=%g" -T "DATE=%y" -T "TRACKNUMBER=%n" -T "GENRE=%m" -T "COMMENT=%e" %s -o %d
TOC of the extracted CD
Track | Start | Length | Start sector | End sector
---------------------------------------------------------
1 | 0:00.00 | 7:16.05 | 0 | 32704
2 | 7:16.05 | 5:12.45 | 32705 | 56149
3 | 12:28.50 | 3:19.07 | 56150 | 71081
4 | 15:47.57 | 9:36.53 | 71082 | 114334
5 | 25:24.35 | 9:44.47 | 114335 | 158181
6 | 35:09.07 | 7:30.30 | 158182 | 191961
7 | 42:39.37 | 8:29.63 | 191962 | 230199
8 | 51:09.25 | 8:01.37 | 230200 | 266311
9 | 59:10.62 | 8:39.65 | 266312 | 305301
10 | 67:50.52 | 3:48.03 | 305302 | 322404
11 | 71:38.55 | 5:23.25 | 322405 | 346654
Track 1
Filename E:\1111\Evgeni_Mravinsky-100th_Anniversary_Edition,Vol.1-5.5CD(Melodiya)\Vol.1-Mozart.Symphonies_Nos.33,39\01 - Symphony No.33 in B flat major, K.319 - I. Allegro assai.wav
Pre-gap length 0:00:02.00
Peak level 89.0 %
Track quality 100.0 %
Test CRC D79062CC
Copy CRC D79062CC
Track not present in AccurateRip database
Copy OK
Track 2
Filename E:\1111\Evgeni_Mravinsky-100th_Anniversary_Edition,Vol.1-5.5CD(Melodiya)\Vol.1-Mozart.Symphonies_Nos.33,39\02 - Symphony No.33 in B flat major, K.319 - II. Andante moderato.wav
Pre-gap length 0:00:04.08
Peak level 56.4 %
Track quality 100.0 %
Test CRC FCDE521D
Copy CRC FCDE521D
Track not present in AccurateRip database
Copy OK
Track 3
Filename E:\1111\Evgeni_Mravinsky-100th_Anniversary_Edition,Vol.1-5.5CD(Melodiya)\Vol.1-Mozart.Symphonies_Nos.33,39\03 - Symphony No.33 in B flat major, K.319 - III. Menuetto.wav
Pre-gap length 0:00:04.18
Peak level 71.5 %
Track quality 100.0 %
Test CRC EE7DA848
Copy CRC EE7DA848
Track not present in AccurateRip database
Copy OK
Track 4
Filename E:\1111\Evgeni_Mravinsky-100th_Anniversary_Edition,Vol.1-5.5CD(Melodiya)\Vol.1-Mozart.Symphonies_Nos.33,39\04 - Symphony No.33 in B flat major, K.319 - IV. Finale- Allegro assai.wav
Pre-gap length 0:00:03.72
Peak level 82.9 %
Track quality 100.0 %
Test CRC AAAD4469
Copy CRC AAAD4469
Track not present in AccurateRip database
Copy OK
Track 5
Filename E:\1111\Evgeni_Mravinsky-100th_Anniversary_Edition,Vol.1-5.5CD(Melodiya)\Vol.1-Mozart.Symphonies_Nos.33,39\05 - Concerto For Flute, Harp and Orchestra in C major, K.299 - I. Allegro.wav
Pre-gap length 0:00:04.45
Peak level 77.4 %
Track quality 100.0 %
Test CRC 0C125E4E
Copy CRC 0C125E4E
Track not present in AccurateRip database
Copy OK
Track 6
Filename E:\1111\Evgeni_Mravinsky-100th_Anniversary_Edition,Vol.1-5.5CD(Melodiya)\Vol.1-Mozart.Symphonies_Nos.33,39\06 - Concerto For Flute, Harp and Orchestra in C major, K.299 - II. Andantino.wav
Pre-gap length 0:00:04.10
Peak level 54.3 %
Track quality 100.0 %
Test CRC F9D446A9
Copy CRC F9D446A9
Track not present in AccurateRip database
Copy OK
Track 7
Filename E:\1111\Evgeni_Mravinsky-100th_Anniversary_Edition,Vol.1-5.5CD(Melodiya)\Vol.1-Mozart.Symphonies_Nos.33,39\07 - Concerto For Flute, Harp and Orchestra in C major, K.299 - III. Rondeau- Allegro.wav
Pre-gap length 0:00:04.07
Peak level 76.9 %
Track quality 100.0 %
Test CRC 42CC3C7E
Copy CRC 42CC3C7E
Track not present in AccurateRip database
Copy OK
Track 8
Filename E:\1111\Evgeni_Mravinsky-100th_Anniversary_Edition,Vol.1-5.5CD(Melodiya)\Vol.1-Mozart.Symphonies_Nos.33,39\08 - Symphony No.39 in E flat major, K.543 (65.2.23) - I. Adagio - Allegro.wav
Pre-gap length 0:00:04.38
Peak level 70.8 %
Track quality 99.9 %
Test CRC B31230C0
Copy CRC B31230C0
Track not present in AccurateRip database
Copy OK
Track 9
Filename E:\1111\Evgeni_Mravinsky-100th_Anniversary_Edition,Vol.1-5.5CD(Melodiya)\Vol.1-Mozart.Symphonies_Nos.33,39\09 - Symphony No.39 in E flat major, K.543 (65.2.23) - II. Andante con moto.wav
Pre-gap length 0:00:04.05
Peak level 48.3 %
Track quality 100.0 %
Test CRC 9C2B25B4
Copy CRC 9C2B25B4
Track not present in AccurateRip database
Copy OK
Track 10
Filename E:\1111\Evgeni_Mravinsky-100th_Anniversary_Edition,Vol.1-5.5CD(Melodiya)\Vol.1-Mozart.Symphonies_Nos.33,39\10 - Symphony No.39 in E flat major, K.543 (65.2.23) - III. Menuetto- Allegretto.wav
Peak level 73.7 %
Track quality 100.0 %
Test CRC F89797E6
Copy CRC F89797E6
Track not present in AccurateRip database
Copy OK
Track 11
Filename E:\1111\Evgeni_Mravinsky-100th_Anniversary_Edition,Vol.1-5.5CD(Melodiya)\Vol.1-Mozart.Symphonies_Nos.33,39\11 - Symphony No.39 in E flat major, K.543 (65.2.23) - IV. Finale- Allegro.wav
Peak level 77.1 %
Track quality 100.0 %
Test CRC 92F66062
Copy CRC 92F66062
Track not present in AccurateRip database
Copy OK
None of the tracks are present in the AccurateRip database
No errors occurred
End of status report

CD2

01 - Modest Mussorgsky. Down on the Moscow River
02 - 05. Nicolai Rimsky-Korsakov. Tale on the Invisible City of Kitezh,Suite - 1-4
06 - 08. Georges Bizet. Entr'actes from the Opera Carmen
09 - 10. Claude Debussy. Two Nocturnes
11 - Claude Debussy. L'apres-midi d'un faun
12 - Maurice Ravel. Bolero
Recorded: Ленинград:
1946 (6-8), 04.04.1949 (2-5), 28.12.1952 (9, 10), 30.12.1952 (12);
Большой зал Моск.фил. live:
21.02.1965 (1), 28.02.1965 (11)

Log CD2

Exact Audio Copy V0.99 prebeta 5 from 4. May 2009
EAC extraction logfile from 28. October 2009, 16:04
Evgeni Mravinsky / 100th Anniversary Edition (Vol.2)
Used drive : PLEXTOR DVDR PX-800A Adapter: 1 ID: 0
Read mode : Secure
Utilize accurate stream : Yes
Defeat audio cache : Yes
Make use of C2 pointers : No
Read offset correction : 48
Overread into Lead-In and Lead-Out : No
Fill up missing offset samples with silence : Yes
Delete leading and trailing silent blocks : No
Null samples used in CRC calculations : No
Used interface : Native Win32 interface for Win NT & 2000
Gap handling : Appended to previous track
Used output format : User Defined Encoder
Selected bitrate : 1024 kBit/s
Quality : High
Add ID3 tag : No
Command line compressor : C:\Program Files\Exact Audio Copy\FLAC\FLAC.EXE
Additional command line options : -6 -V -T "ARTIST=%a" -T "TITLE=%t" -T "ALBUM=%g" -T "DATE=%y" -T "TRACKNUMBER=%n" -T "GENRE=%m" -T "COMMENT=%e" %s -o %d
TOC of the extracted CD
Track | Start | Length | Start sector | End sector
---------------------------------------------------------
1 | 0:00.00 | 5:04.07 | 0 | 22806
2 | 5:04.07 | 4:31.13 | 22807 | 43144
3 | 9:35.20 | 3:27.20 | 43145 | 58689
4 | 13:02.40 | 4:28.35 | 58690 | 78824
5 | 17:31.00 | 10:53.02 | 78825 | 127801
6 | 28:24.02 | 1:43.50 | 127802 | 135576
7 | 30:07.52 | 2:56.05 | 135577 | 148781
8 | 33:03.57 | 2:10.60 | 148782 | 158591
9 | 35:14.42 | 8:15.00 | 158592 | 195716
10 | 43:29.42 | 6:46.33 | 195717 | 226199
11 | 50:16.00 | 9:43.60 | 226200 | 269984
12 | 59:59.60 | 17:02.57 | 269985 | 346691
Track 1
Filename E:\1111\Evgeni_Mravinsky-100th_Anniversary_Edition,Vol.1-5.5CD(Melodiya)\Vol.2-Mussorgsky,Rimsky-Korsakov,Bizet,Debussy,Ravel-6\01 - MUSSORGSKY - Down on the Moscow River.wav
Pre-gap length 0:00:02.00
Peak level 61.7 %
Track quality 100.0 %
Test CRC F3F07042
Copy CRC F3F07042
Track not present in AccurateRip database
Copy OK
Track 2
Filename E:\1111\Evgeni_Mravinsky-100th_Anniversary_Edition,Vol.1-5.5CD(Melodiya)\Vol.2-Mussorgsky,Rimsky-Korsakov,Bizet,Debussy,Ravel-6\02 - RIMSKY-KORSAKOV - Tale on the Invisible City of Kitezh,Suite - 1.wav
Pre-gap length 0:00:04.05
Peak level 81.9 %
Track quality 100.0 %
Test CRC 3E4C064D
Copy CRC 3E4C064D
Track not present in AccurateRip database
Copy OK
Track 3
Filename E:\1111\Evgeni_Mravinsky-100th_Anniversary_Edition,Vol.1-5.5CD(Melodiya)\Vol.2-Mussorgsky,Rimsky-Korsakov,Bizet,Debussy,Ravel-6\03 - RIMSKY-KORSAKOV - Tale on the Invisible City of Kitezh,Suite - 2.wav
Pre-gap length 0:00:04.05
Peak level 91.1 %
Track quality 100.0 %
Test CRC EAB42CD5
Copy CRC EAB42CD5
Track not present in AccurateRip database
Copy OK
Track 4
Filename E:\1111\Evgeni_Mravinsky-100th_Anniversary_Edition,Vol.1-5.5CD(Melodiya)\Vol.2-Mussorgsky,Rimsky-Korsakov,Bizet,Debussy,Ravel-6\04 - RIMSKY-KORSAKOV - Tale on the Invisible City of Kitezh,Suite - 3.wav
Peak level 91.4 %
Track quality 100.0 %
Test CRC 9BD5B535
Copy CRC 9BD5B535
Track not present in AccurateRip database
Copy OK
Track 5
Filename E:\1111\Evgeni_Mravinsky-100th_Anniversary_Edition,Vol.1-5.5CD(Melodiya)\Vol.2-Mussorgsky,Rimsky-Korsakov,Bizet,Debussy,Ravel-6\05 - RIMSKY-KORSAKOV - Tale on the Invisible City of Kitezh,Suite - 4.wav
Peak level 97.1 %
Track quality 100.0 %
Test CRC F5695A4B
Copy CRC F5695A4B
Track not present in AccurateRip database
Copy OK
Track 6
Filename E:\1111\Evgeni_Mravinsky-100th_Anniversary_Edition,Vol.1-5.5CD(Melodiya)\Vol.2-Mussorgsky,Rimsky-Korsakov,Bizet,Debussy,Ravel-6\06 - BIZET - Entr'actes from the Opera Carmen - 1.wav
Pre-gap length 0:00:04.45
Peak level 38.7 %
Track quality 100.0 %
Test CRC 8FC40A43
Copy CRC 8FC40A43
Track not present in AccurateRip database
Copy OK
Track 7
Filename E:\1111\Evgeni_Mravinsky-100th_Anniversary_Edition,Vol.1-5.5CD(Melodiya)\Vol.2-Mussorgsky,Rimsky-Korsakov,Bizet,Debussy,Ravel-6\07 - BIZET - Entr'actes from the Opera Carmen - 2.wav
Pre-gap length 0:00:04.00
Peak level 47.5 %
Track quality 100.0 %
Test CRC FAB2AD60
Copy CRC FAB2AD60
Track not present in AccurateRip database
Copy OK
Track 8
Filename E:\1111\Evgeni_Mravinsky-100th_Anniversary_Edition,Vol.1-5.5CD(Melodiya)\Vol.2-Mussorgsky,Rimsky-Korsakov,Bizet,Debussy,Ravel-6\08 - BIZET - Entr'actes from the Opera Carmen - 3.wav
Pre-gap length 0:00:03.72
Peak level 44.2 %
Track quality 100.0 %
Test CRC E0F56A89
Copy CRC E0F56A89
Track not present in AccurateRip database
Copy OK
Track 9
Filename E:\1111\Evgeni_Mravinsky-100th_Anniversary_Edition,Vol.1-5.5CD(Melodiya)\Vol.2-Mussorgsky,Rimsky-Korsakov,Bizet,Debussy,Ravel-6\09 - DEBUSSY - Two Nocturnes - 1.wav
Pre-gap length 0:00:04.45
Peak level 69.9 %
Track quality 100.0 %
Test CRC 9D4D1FBC
Copy CRC 9D4D1FBC
Track not present in AccurateRip database
Copy OK
Track 10
Filename E:\1111\Evgeni_Mravinsky-100th_Anniversary_Edition,Vol.1-5.5CD(Melodiya)\Vol.2-Mussorgsky,Rimsky-Korsakov,Bizet,Debussy,Ravel-6\10 - DEBUSSY - Two Nocturnes - 2.wav
Pre-gap length 0:00:04.00
Peak level 66.9 %
Track quality 99.9 %
Test CRC AB4A9E8C
Copy CRC AB4A9E8C
Track not present in AccurateRip database
Copy OK
Track 11
Filename E:\1111\Evgeni_Mravinsky-100th_Anniversary_Edition,Vol.1-5.5CD(Melodiya)\Vol.2-Mussorgsky,Rimsky-Korsakov,Bizet,Debussy,Ravel-6\11 - DEBUSSY - L'apres-midi d'un faun.wav
Pre-gap length 0:00:04.18
Peak level 73.5 %
Track quality 100.0 %
Test CRC 9A781DA7
Copy CRC 9A781DA7
Track not present in AccurateRip database
Copy OK
Track 12
Filename E:\1111\Evgeni_Mravinsky-100th_Anniversary_Edition,Vol.1-5.5CD(Melodiya)\Vol.2-Mussorgsky,Rimsky-Korsakov,Bizet,Debussy,Ravel-6\12 - RAVEL - Bolero.wav
Pre-gap length 0:00:04.08
Peak level 83.6 %
Track quality 99.9 %
Test CRC BAC000EA
Copy CRC BAC000EA
Track not present in AccurateRip database
Copy OK
None of the tracks are present in the AccurateRip database
No errors occurred
End of status report

CD3

Richard Wagner
01. Die Meistersinger von Nurnberg - Act I- Prelude
02. Lohengrin - Act I- Prelude
03. Lohengrin - Act III- Prelude
04. Tannhauser - Overture
05. Tristan and Isolde - Prelude und Isoldes Liebestod
06. Gotterdammerung - Siegfried's Funeral March
07. Die Walkurem - The Ride of the Valkyries
Recorded: 23.02.1965 (3-7)-Большой зал Моск.фил.;
30.03.1978 (2)-Большой зал Лен.фил.;
31.03.1978 (4-6)-Большой зал Лен.фил.;
31.02.1981(1982?) (1)-Большой зал Лен.фил.

Log CD3

Exact Audio Copy V0.99 prebeta 5 from 4. May 2009
EAC extraction logfile from 29. October 2009, 11:51
Evgeny Mravinsky & Leningrad Philharmonic Orchestra / 100th Anniversary Edition (CD3) - Wagner
Used drive : PLEXTOR DVDR PX-800A Adapter: 1 ID: 0
Read mode : Secure
Utilize accurate stream : Yes
Defeat audio cache : Yes
Make use of C2 pointers : No
Read offset correction : 48
Overread into Lead-In and Lead-Out : No
Fill up missing offset samples with silence : Yes
Delete leading and trailing silent blocks : No
Null samples used in CRC calculations : No
Used interface : Native Win32 interface for Win NT & 2000
Gap handling : Appended to previous track
Used output format : User Defined Encoder
Selected bitrate : 1024 kBit/s
Quality : High
Add ID3 tag : No
Command line compressor : C:\Program Files\Exact Audio Copy\FLAC\FLAC.EXE
Additional command line options : -6 -V -T "ARTIST=%a" -T "TITLE=%t" -T "ALBUM=%g" -T "DATE=%y" -T "TRACKNUMBER=%n" -T "GENRE=%m" -T "COMMENT=%e" %s -o %d
TOC of the extracted CD
Track | Start | Length | Start sector | End sector
---------------------------------------------------------
1 | 0:00.00 | 10:02.30 | 0 | 45179
2 | 10:02.30 | 8:05.13 | 45180 | 81567
3 | 18:07.43 | 2:47.20 | 81568 | 94112
4 | 20:54.63 | 13:31.72 | 94113 | 155009
5 | 34:26.60 | 16:55.00 | 155010 | 231134
6 | 51:21.60 | 7:45.68 | 231135 | 266077
7 | 59:07.53 | 4:41.02 | 266078 | 287154
Track 1
Filename E:\1111\Evgeni_Mravinsky-100th_Anniversary_Edition,Vol.1-5.5CD(Melodiya)\Vol.3-Wagner\01 - Die Meistersinger von Nurnberg - Act I- Prelude.wav
Pre-gap length 0:00:02.00
Peak level 52.9 %
Track quality 100.0 %
Test CRC 772E8EDB
Copy CRC 772E8EDB
Track not present in AccurateRip database
Copy OK
Track 2
Filename E:\1111\Evgeni_Mravinsky-100th_Anniversary_Edition,Vol.1-5.5CD(Melodiya)\Vol.3-Wagner\02 - Lohengrin - Act I- Prelude.wav
Peak level 59.1 %
Track quality 100.0 %
Test CRC B00B04EB
Copy CRC B00B04EB
Track not present in AccurateRip database
Copy OK
Track 3
Filename E:\1111\Evgeni_Mravinsky-100th_Anniversary_Edition,Vol.1-5.5CD(Melodiya)\Vol.3-Wagner\03 - Lohengrin - Act III- Prelude.wav
Peak level 69.6 %
Track quality 100.0 %
Test CRC BA9BD1ED
Copy CRC BA9BD1ED
Track not present in AccurateRip database
Copy OK
Track 4
Filename E:\1111\Evgeni_Mravinsky-100th_Anniversary_Edition,Vol.1-5.5CD(Melodiya)\Vol.3-Wagner\04 - Tannhauser - Overture.wav
Peak level 51.5 %
Track quality 100.0 %
Test CRC 98903CA8
Copy CRC 98903CA8
Track not present in AccurateRip database
Copy OK
Track 5
Filename E:\1111\Evgeni_Mravinsky-100th_Anniversary_Edition,Vol.1-5.5CD(Melodiya)\Vol.3-Wagner\05 - Tristan and Isolde - Prelude und Isoldes Liebestod.wav
Peak level 48.7 %
Track quality 100.0 %
Test CRC 12018A06
Copy CRC 12018A06
Track not present in AccurateRip database
Copy OK
Track 6
Filename E:\1111\Evgeni_Mravinsky-100th_Anniversary_Edition,Vol.1-5.5CD(Melodiya)\Vol.3-Wagner\06 - Gotterdammerung - Siegfried's Funeral March.wav
Peak level 69.9 %
Track quality 99.9 %
Test CRC 769BB40C
Copy CRC 769BB40C
Track not present in AccurateRip database
Copy OK
Track 7
Filename E:\1111\Evgeni_Mravinsky-100th_Anniversary_Edition,Vol.1-5.5CD(Melodiya)\Vol.3-Wagner\07 - Die Walkurem - The Ride of the Valkyries.wav
Peak level 46.4 %
Track quality 100.0 %
Test CRC EFE7F942
Copy CRC EFE7F942
Track not present in AccurateRip database
Copy OK
None of the tracks are present in the AccurateRip database
No errors occurred
End of status report

CD4

Ludwig van Beethoven
01 - 04. Symphony No.4 in B flat major, Op.60
05 - 08. Symphony No.5 in C minor, Op.67
Recorded: 21.01.1972-Большой зал Моск.фил.

Log CD4

Exact Audio Copy V0.99 prebeta 5 from 4. May 2009
EAC extraction logfile from 26. October 2009, 16:17
Evgeny Mravinsky & Leningrad Philharmonic Orchestra / 100th Anniversary Edition (CD4) - Beethoven. Symphonies Nos.4, 5
Used drive : PLEXTOR DVDR PX-800A Adapter: 1 ID: 0
Read mode : Secure
Utilize accurate stream : Yes
Defeat audio cache : Yes
Make use of C2 pointers : No
Read offset correction : 48
Overread into Lead-In and Lead-Out : No
Fill up missing offset samples with silence : Yes
Delete leading and trailing silent blocks : No
Null samples used in CRC calculations : No
Used interface : Native Win32 interface for Win NT & 2000
Gap handling : Appended to previous track
Used output format : User Defined Encoder
Selected bitrate : 1024 kBit/s
Quality : High
Add ID3 tag : No
Command line compressor : C:\Program Files\Exact Audio Copy\FLAC\FLAC.EXE
Additional command line options : -6 -V -T "ARTIST=%a" -T "TITLE=%t" -T "ALBUM=%g" -T "DATE=%y" -T "TRACKNUMBER=%n" -T "GENRE=%m" -T "COMMENT=%e" %s -o %d
TOC of the extracted CD
Track | Start | Length | Start sector | End sector
---------------------------------------------------------
1 | 0:00.00 | 9:10.40 | 0 | 41289
2 | 9:10.40 | 9:59.12 | 41290 | 86226
3 | 19:09.52 | 5:57.53 | 86227 | 113054
4 | 25:07.30 | 6:52.10 | 113055 | 143964
5 | 31:59.40 | 7:42.72 | 143965 | 178686
6 | 39:42.37 | 9:52.10 | 178687 | 223096
7 | 49:34.47 | 5:08.45 | 223097 | 246241
8 | 54:43.17 | 9:24.53 | 246242 | 288594
Track 1
Filename E:\1111\Evgeni_Mravinsky-100th_Anniversary_Edition,Vol.1-5.5CD(Melodiya)\Vol.4-Beethoven.Symphonies_Nos.4,5\01 - Symphony No.4 in B flat major, Op.60 - 1. Adagio. Allegro vivace.wav
Pre-gap length 0:00:02.00
Peak level 100.0 %
Track quality 100.0 %
Test CRC 00D69992
Copy CRC 00D69992
Track not present in AccurateRip database
Copy OK
Track 2
Filename E:\1111\Evgeni_Mravinsky-100th_Anniversary_Edition,Vol.1-5.5CD(Melodiya)\Vol.4-Beethoven.Symphonies_Nos.4,5\02 - Symphony No.4 in B flat major, Op.60 - 2. Adagio.wav
Pre-gap length 0:00:04.03
Peak level 100.0 %
Track quality 100.0 %
Test CRC 1D57142D
Copy CRC 1D57142D
Track not present in AccurateRip database
Copy OK
Track 3
Filename E:\1111\Evgeni_Mravinsky-100th_Anniversary_Edition,Vol.1-5.5CD(Melodiya)\Vol.4-Beethoven.Symphonies_Nos.4,5\03 - Symphony No.4 in B flat major, Op.60 - 3. Allegro vivace. Trio.wav
Pre-gap length 0:00:04.05
Peak level 91.0 %
Track quality 100.0 %
Test CRC 55088337
Copy CRC 55088337
Track not present in AccurateRip database
Copy OK
Track 4
Filename E:\1111\Evgeni_Mravinsky-100th_Anniversary_Edition,Vol.1-5.5CD(Melodiya)\Vol.4-Beethoven.Symphonies_Nos.4,5\04 - Symphony No.4 in B flat major, Op.60 - 4. Allegro ma non troppo.wav
Pre-gap length 0:00:03.73
Peak level 96.9 %
Track quality 100.0 %
Test CRC 7B59E8CE
Copy CRC 7B59E8CE
Track not present in AccurateRip database
Copy OK
Track 5
Filename E:\1111\Evgeni_Mravinsky-100th_Anniversary_Edition,Vol.1-5.5CD(Melodiya)\Vol.4-Beethoven.Symphonies_Nos.4,5\05 - Symphony No.5 in C minor, Op.67 - 1. Allegro con brio.wav
Pre-gap length 0:00:04.50
Peak level 100.0 %
Track quality 100.0 %
Test CRC A8CECC47
Copy CRC A8CECC47
Track not present in AccurateRip database
Copy OK
Track 6
Filename E:\1111\Evgeni_Mravinsky-100th_Anniversary_Edition,Vol.1-5.5CD(Melodiya)\Vol.4-Beethoven.Symphonies_Nos.4,5\06 - Symphony No.5 in C minor, Op.67 - 2. Andante con moto.wav
Pre-gap length 0:00:04.00
Peak level 100.0 %
Track quality 100.0 %
Test CRC 3E039E3E
Copy CRC 3E039E3E
Track not present in AccurateRip database
Copy OK
Track 7
Filename E:\1111\Evgeni_Mravinsky-100th_Anniversary_Edition,Vol.1-5.5CD(Melodiya)\Vol.4-Beethoven.Symphonies_Nos.4,5\07 - Symphony No.5 in C minor, Op.67 - 3. Allegro.wav
Pre-gap length 0:00:04.00
Peak level 100.0 %
Track quality 100.0 %
Test CRC DCFF3C40
Copy CRC DCFF3C40
Track not present in AccurateRip database
Copy OK
Track 8
Filename E:\1111\Evgeni_Mravinsky-100th_Anniversary_Edition,Vol.1-5.5CD(Melodiya)\Vol.4-Beethoven.Symphonies_Nos.4,5\08 - Symphony No.5 in C minor, Op.67 - 4. Allegro.wav
Peak level 100.0 %
Track quality 100.0 %
Test CRC 1762759E
Copy CRC 1762759E
Track not present in AccurateRip database
Copy OK
None of the tracks are present in the AccurateRip database
No errors occurred
End of status report

CD5

01 - 02. Franz Schubert - Symphony No.8 in B minor, D.759
03 - Jean Sibelius - The Swan of Tuonela, Legend for Orchestra, op.22 no.3
04 - 08. Jean Sibelius - Symphony No.7 in C major, op.105
Recorded: 23.02.1965 (3-8)-Большой зал Моск.фил.;
30.04.1978 (1-2)-Большой зал Лен.фил.

Log CD5

Exact Audio Copy V0.99 prebeta 5 from 4. May 2009
EAC extraction logfile from 26. October 2009, 14:41
Evgeny Mravinsky & Leningrad Philharmonic Orchestra / 100th Anniversary Edition (CD5) - Schubert, Sibelius
Used drive : PLEXTOR DVDR PX-800A Adapter: 1 ID: 0
Read mode : Secure
Utilize accurate stream : Yes
Defeat audio cache : Yes
Make use of C2 pointers : No
Read offset correction : 48
Overread into Lead-In and Lead-Out : No
Fill up missing offset samples with silence : Yes
Delete leading and trailing silent blocks : No
Null samples used in CRC calculations : No
Used interface : Native Win32 interface for Win NT & 2000
Gap handling : Appended to previous track
Used output format : User Defined Encoder
Selected bitrate : 1024 kBit/s
Quality : High
Add ID3 tag : No
Command line compressor : C:\Program Files\Exact Audio Copy\FLAC\FLAC.EXE
Additional command line options : -6 -V -T "ARTIST=%a" -T "TITLE=%t" -T "ALBUM=%g" -T "DATE=%y" -T "TRACKNUMBER=%n" -T "GENRE=%m" -T "COMMENT=%e" %s -o %d
TOC of the extracted CD
Track | Start | Length | Start sector | End sector
---------------------------------------------------------
1 | 0:00.00 | 14:55.32 | 0 | 67156
2 | 14:55.32 | 11:44.48 | 67157 | 120004
3 | 26:40.05 | 9:02.65 | 120005 | 160719
4 | 35:42.70 | 9:02.63 | 160720 | 201432
5 | 44:45.58 | 2:27.57 | 201433 | 212514
6 | 47:13.40 | 3:56.07 | 212515 | 230221
7 | 51:09.47 | 2:55.61 | 230222 | 243407
8 | 54:05.33 | 1:54.47 | 243408 | 252004
Track 1
Filename E:\1111\Evgeni_Mravinsky-100th_Anniversary_Edition,Vol.1-5.5CD(Melodiya)\Vol.5-Schubert.Symphony_8;Sibelius.The_Swan_of_Tuonela,Symphony_7\01 - Schubert - Symphony No.8 in B minor, D.759 - I. Allegro moderato.wav
Pre-gap length 0:00:02.00
Peak level 86.6 %
Track quality 100.0 %
Test CRC AEE91D72
Copy CRC AEE91D72
Track not present in AccurateRip database
Copy OK
Track 2
Filename E:\1111\Evgeni_Mravinsky-100th_Anniversary_Edition,Vol.1-5.5CD(Melodiya)\Vol.5-Schubert.Symphony_8;Sibelius.The_Swan_of_Tuonela,Symphony_7\02 - Schubert - Symphony No.8 in B minor, D.759 - II. Andante con moto.wav
Peak level 84.7 %
Track quality 99.9 %
Test CRC DDD17033
Copy CRC DDD17033
Track not present in AccurateRip database
Copy OK
Track 3
Filename E:\1111\Evgeni_Mravinsky-100th_Anniversary_Edition,Vol.1-5.5CD(Melodiya)\Vol.5-Schubert.Symphony_8;Sibelius.The_Swan_of_Tuonela,Symphony_7\03 - Sibelius - The Swan of Tuonela, Legend for Orchestra, op.22 no.3.wav
Pre-gap length 0:00:04.00
Peak level 47.5 %
Track quality 100.0 %
Test CRC E1365C20
Copy CRC E1365C20
Track not present in AccurateRip database
Copy OK
Track 4
Filename E:\1111\Evgeni_Mravinsky-100th_Anniversary_Edition,Vol.1-5.5CD(Melodiya)\Vol.5-Schubert.Symphony_8;Sibelius.The_Swan_of_Tuonela,Symphony_7\04 - Sibelius - Symphony No.7 in C major, op.105 - I. Adagio.wav
Pre-gap length 0:00:04.52
Peak level 97.4 %
Track quality 100.0 %
Test CRC C8EDC8E9
Copy CRC C8EDC8E9
Track not present in AccurateRip database
Copy OK
Track 5
Filename E:\1111\Evgeni_Mravinsky-100th_Anniversary_Edition,Vol.1-5.5CD(Melodiya)\Vol.5-Schubert.Symphony_8;Sibelius.The_Swan_of_Tuonela,Symphony_7\05 - Sibelius - Symphony No.7 in C major, op.105 - II. Vivacissimo - Adagio.wav
Peak level 77.9 %
Track quality 99.9 %
Test CRC 7E3F8910
Copy CRC 7E3F8910
Track not present in AccurateRip database
Copy OK
Track 6
Filename E:\1111\Evgeni_Mravinsky-100th_Anniversary_Edition,Vol.1-5.5CD(Melodiya)\Vol.5-Schubert.Symphony_8;Sibelius.The_Swan_of_Tuonela,Symphony_7\06 - Sibelius - Symphony No.7 in C major, op.105 - III. Allegro molto moderato - Allegro moderato.wav
Peak level 74.7 %
Track quality 99.9 %
Test CRC 390EB3F4
Copy CRC 390EB3F4
Track not present in AccurateRip database
Copy OK
Track 7
Filename E:\1111\Evgeni_Mravinsky-100th_Anniversary_Edition,Vol.1-5.5CD(Melodiya)\Vol.5-Schubert.Symphony_8;Sibelius.The_Swan_of_Tuonela,Symphony_7\07 - Sibelius - Symphony No.7 in C major, op.105 - IV. Vivace - Presto - Adagio - Largamente molto.wav
Peak level 80.9 %
Track quality 100.0 %
Test CRC 869A376C
Copy CRC 869A376C
Track not present in AccurateRip database
Copy OK
Track 8
Filename E:\1111\Evgeni_Mravinsky-100th_Anniversary_Edition,Vol.1-5.5CD(Melodiya)\Vol.5-Schubert.Symphony_8;Sibelius.The_Swan_of_Tuonela,Symphony_7\08 - Sibelius - Symphony No.7 in C major, op.105 - V. Affetuoso.wav
Peak level 77.9 %
Track quality 100.0 %
Test CRC D0A975DF
Copy CRC D0A975DF
Track not present in AccurateRip database
Copy OK
None of the tracks are present in the AccurateRip database
No errors occurred
End of status report
Доп. информация: ЗКР АСО Ленинградской филармонии.
Наименования треков, даты, логи под спойлером.
[teatrix.ru].t10056.torrent 
Торрент: Зарегистрирован [ 2015-10-25 20:37 ] · 3C0A248F6CE7A10713451EC686EDE9706F7F7717

Скачать .torrent

Скачать

24 KB

Статус: проверено
Скачан: 0 раз
Размер: 1.31 GB
terms.php



Быстрый ответ

Имя:

      
Для отправки сообщений необходимо включить JavaScript
Показать сообщения:    

Текущее время: 04-Дек 13:15

Часовой пояс: UTC + 3


Вы можете начинать темы
Вы можете отвечать на сообщения
Вы не можете редактировать свои сообщения
Вы не можете удалять свои сообщения
Вы не можете голосовать в опросах
Вы не можете прикреплять файлы к сообщениям
Вы можете скачивать файлы