(Classical, violin) Violin Masterworks - The world's favourite violin classics 35 CD - 2009, APE (image+.cue), lossless


Статистика раздачи [Обновить пиров]
Размер:  9.94 GB   |    Зарегистрирован:  1 год 1 месяц   |    Скачан:  1 раз

Полного источника не было: 3 дня

Личеров:  1  [  0 KB/s  ]   Подробная статистика пиров
 
   
 
 
 

[Цитировать]

Violin Masterworks - The world's favourite violin classics 35 CD
Жанр: Classical, violin
Год выпуска диска: 2009
Производитель диска: Decca Music Group Ltd., London
Аудио кодек: APE
Тип рипа: image+.cue
Битрейт аудио: lossless
Трэклист:

Violin Masterworks 35 CDCD1

CD 1 41:55
Johann Sebastian Bach 1685-1750
Concerto in D minor for two violins, BWV 1043
1 I Vivace 3:19
2 II Largo ma non tanto 7:15
3 III Allegro 4:38
Violin Concerto in A minor, BWV 1041
4 I Allegro moderato 3:08
5 II Andante 5:18
6 III Allegro assai 3:24
Violin Concerto in E major, BWV 1042
7 I Allegro 6:47
8 II Adagio 4:53
9 III Allegro assai 2:38
Gidon Kremer / Academy of St Martin in the Fields

CD2

CD 2: 68:47
J.S.Bach Sonata in B minor, BWV 1014
1 I Adagio 3:13
2 II Allegro 3:04
3 III Andante 2:44
4 IV Allegro 2:27
Sonata in A major, BWV 1015
5 I — 2:09
6 II Allegro 3:05
7 III Andante un poco 2:52
8 IV Presto 3:24
Sonata in E major, BWV 1016
9 I Adagio 4:11
10 II Allegro 3:06
11 III Adagio ma non tanto 4:26
12 IV Allegro 3:49
Sonata in C minor, BWV 1017
13 I Largo 2:20
14 II Allegro 4:36
15 III Adagio 3:08
16 IV Allegro 3:36
Sonata in F minor, BWV 1018
17 I — 5:37
18 II Allegro 3:20
19 III Adagio 3:18
20 IV Vivace 2:45

CD3

CD 3: 60:54
J.S. Bach Sonata in G major, BWV 1019
1 I Allegro 3:45
2 II Largo 1:24
3 III Allegro 3:28
4 IV Adagio 2:29
5 V Allegro 3:41
Alternative Movements, BWV 1019a
6 Cantabile, ma un poco adagio 4:57
7 Adagio 1:46
Sonata in G minor, BWV 1020
8 I — 3:39
9 II Adagio 2:33
10 III Allegro 3:32
Sonata in G major, BWV 1021*
11 I Adagio 3:18
12 II Vivace 1:04
13 III Largo 1:56
14 IV Presto 1:24
Sonata in F major, BWV 1022
15 I — 2:55
16 II Allegro e presto 2:04
17 III Adagio 1:56
18 IV Presto 1:27
Sonata in E minor, BWV 1023*
19 I Adagio ma non tanto 4:08
20 II Allemande 5:18
21 III Gigue 3:03
Arthur Grumiaux / Christiane Jaccottet harpsichord
Philippe Mermoud violoncello*

CD4

CD 4: 56:01
Sonata for Violin solo No.1 in G minor, BWV 1001
1 I Adagio 4:21
2 II Fuga Allegro 4:24
3 III Siciliana 3:03
4 IV Presto 3:07
Sonata for Violin solo No.2 in A minor, BWV 1003
5 I Grave 4:30
6 II Fuga 7:03
7 III Andante 5:09
8 IV Allegro 4:55
Sonata for Violin solo No.3 in C major, BWV 1005
9 I Adagio 4:06
10 II Fuga 8:34
11 III Largo 2:12
12 IV Allegro assai 4:37

CD5

CD 5 68:42
Partita for Violin solo No.1 in B minor, BWV 1002
1 I Allemande — Double 7:36
2 II Corrente — Double 6:22
3 III Sarabande — Double 5:51
4 IV Tempo di Borea — Double 6:10
Partita for Violin solo No.2 in D minor, BWV 1004
5 I Allemande 3:51
6 II Corrente 2:19
7 III Sarabande 3:38
8 IV Giga 3:47
9 V Ciaccona 12:43
Partita for Violin solo No.3 in E major, BWV 1006
10 I Preludio 3:17
11 II Loure 3:22
12 III Gavotte en Rondeau 2:43
13 IV Menuet I-II 3:51
14 V Bourree 1:15
15 VI Gigue 1:47
Gidon Kremer

CD6

CD 6: 68:00
Samuel Barber 1910-1981
Violin Concerto
1 I Allegro 10:14
2 II Andante 8:46
3 III Presto in moto perpetuo 3:42
Ernest Bloch 1880-1959
Baal Shem
4 I Vidui (Contrition) 3:03
5 II Nigun (Improvisation) 6:28
6 III Simchas Torah (Rejoicing) 4:35
William Walton 1902-1983
Violin Concerto
7 I Andante tranquillo 11:20
8 II Presto capriccioso alla napolitana 6:26
9 III Vivace 12:47
Joshua Bell / Baltimore Symphony Orchestra / David Zinman

CD7

CD 7: 59:05
Bela Bartok 1881-1945
Violin Concerto No.1
1 I Andante sostenuto 8:41
2 II Allegro giocoso 11:32
Violin Concerto No.2*
3 I Allegro non troppo 16:45
4 II Andante tranquilo — Allegro scherzando — Tempo I 9:33
5 III Allegro molto 12:29
Kyung Wha Chung / Chicago Symphony Orchestra /
London Philharmonic Orchestra* / Sir Georg Solti

CD8

CD 8: 63:36
Ludwig van Beethoven 1770-1827
Violin Concerto in D major, op.61
cadenzas: Joseph Joachim
1 I Allegro ma non troppo 26:02
2 II Larghetto 9:33
3 III Rondo: Allegro 10:14
4 Romance No.1 in G major, op.40 8:01
5 Romance No.2 in F major, op.50 9:27
Henryk Szeryng / Concertgebouw Orchestra /
Bernard Haitink

CD9

CD 9: 68:25
Beethoven Sonata No.1 in D major, op.12 no.1
1 I Allegro con brio 6:34
2 II Tema con variazioni: Andante con moto 6:46
3 III Rondo: Allegro 4:47
Sonata No.2 in A major, op.12 no.2
4 I Allegro vivace 4:30
5 II Andante piu tosto allegretto 5:40
6 III Allegro piacevole 4:26
Sonata No.3 in E flat major, op.12 no.3
7 I Allegro con spirito 8:04
8 II Adagio con molt’espressione 6:16
9 III Rondo: Allegro molto 4:13
Sonata No.4 in A minor, op.23
10 I Presto 5:18
11 II Andante scherzoso, piu allegretto 5:42
12 III Allegro molto 5:26

CD10

CD 10: 68:23
Sonata No.5 in F major, op.24 ‘Spring’
1 I Allegro 10:14
2 II Adagio molto espressivo 5:25
3 III Scherzo: Allegro molto 1:06
4 IV Rondo: Allegro ma non troppo 6:03
Sonata No.6 in A major, op.30 no.1
5 I Allegro 5:27
6 II Adagio 6:57
7 III Allegretto con variazioni 7:32
Sonata No.7 in C minor, op.30 no.2
8 I Allegro con brio 7:32
9 II Adagio cantabile 9:21
10 III Scherzo: Allegro 3:10
11 IV Finale: Allegro 5:00

CD11

CD 11: 76:34
Sonata No.8 in G major, op.30 no.3
1 I Allegro assai 6:05
2 II Tempo di menuetto ma molto moderato e grazioso 7:49
3 III Allegro vivace 3:21
Sonata No.9 in A major, op.47 “Kreutzer”
4 I Adagio sostenuto – Presto 10:53
5 II Andante con variazioni 2:54
6 Variation I 2:09
7 Variation II 1:53
8 Variation III 3:11
9 Variation IV 3:19
10 Coda: Molto adagio 2:41
11 III Finale: Presto 6:38
Sonata No.10 in G major, op.96
12 I Allegro moderato 9:27
13 II Adagio espressivo 5:41
14 III Scherzo: Allegro 1:36
15 IV Poco allegretto 8:24
Arthur Grumiaux/ Clara Haskil piano

CD12

CD 12: 44:51
Alban Berg 1885-1935
Violin Concerto
1 I Andante — Allegretto 10:16
2 II Allegro — Adagio 14:11
Igor Stravinsky 1882-1971
Violin Concerto in D*
3 I Toccata 5:40
4 II Aria I 4:04
5 III Aria II 4:29
6 IV Capriccio 5:43
Arthur Grumiaux / Concertgebouw Orchestra
Igor Markevitch / Ernest Bour*

CD13

CD 13: 68:00
Johannes Brahms 1833-1897
Violin Concerto in D major, op.77
1 I Allegro non troppo (cadenza: Joshua Bell) 22:45
2 II Adagio 9:09
3 III Allegro giocoso, ma non troppo vivace 8:03
Robert Schumann 1810-1856
Violin Concerto in D minor
4 I In kraftigem, nicht zu schnellem Tempo 13:30
5 II Langsam — 5:55
6 III Lebhaft, doch nicht schnell 8:14
Joshua Bell / The Cleveland Orchestra /
Christoph von Dohnanyi

CD14

CD 14: 74:55
Johannes Brahms
1 Scherzo in C minor (‘F-A-E’) 5:17
Sonata No.1 in G major, op.78
2 I Vivace ma non troppo 10:43
3 II Adagio 8:02
4 III Allegro molto moderato 8:21
Sonata No.2 in A major, op.100
5 I Allegro amabile 8:22
6 II Andante tranquillo 6:26
7 III Allegretto grazioso (quasi andante) 5:29
Sonata No.3 in D minor, op.108
8 I Allegro 8:11
9 II Adagio 4:36
10 III Un poco presto e con sentimento 2:59
11IV Presto agitato 5:51
Pierre Amoyal / Pascal Roge piano

CD15

CD 15: 53:06
Max Bruch 1838-1920
Violin Concerto No.1 in G minor, op.26
1 I Vorspiel (Allegro moderato) 8:35
2 II Adagio 8:28
3 III Finale: Allegro energico — Stringendo poco a poco — Presto 7:10
Scottish Fantasy, op.46
4 Einleitung (Grave) 3:36
5 I Adagio cantabile 4:42
6 II Scherzo (Allegro) — Adagio 5:57
7 III Andante sostenuto 5:56
8 IV Finale: Allegro guerriero 8:14
Akiko Suwanai / Academy of St Martin in the Fields /
Sir Neville Marriner

CD16

CD 16: 55:27
Pablo de Sarasate 1844-1908
1 Zigeunerweisen, op.20 7:46
2 Carmen Fantasy, op.25 11:37
Antonin Dvorak 1841-1904
3 Mazurek, op.49 6:00
Violin Concerto in A minor, op.53
4 I Allegro ma non troppo 11:03
5 II Adagio ma non troppo 9:12
6 III Finale: Allegro giocoso, ma non troppo 9:17
Akiko Suwanai / Budapest Festival Orchestra / Ivan Fischer

CD17

CD 17: 57:10
Edward Elgar 1857-1934
Violin Concerto in B minor, op.61
1 I Allegro 18:01
2 II Andante 12:30
3 III Allegro molto 18:54
4 Salut d’amour, op.12* 2:55
5 La Capricieuse, op.17* 4:30
Kyung Wha Chung / London Philharmonic Orchestra /
Sir Georg Solti / Philip Moll piano*

CD18

CD 18: 72:44
Gabriel Faure 1845-1924
Violin Sonata in A major, op.13
1 I Allegro molto 7:16
2 II Andante 6:50
3 III Allegro vivo 3:43
4 IV Allegro quasi presto 5:11
Violin Sonata in E minor, op.108
5 I Allegro non troppo 8:14
6 II Andante 7:20
7 III Finale: Allegro non troppo 6:06
Cesar Franck 1822-1890
Sonata in A major*
8 I Allegretto ben moderato 5:52
9 II Allegro — quasi lento — Tempo I Allegro 8:11
10 III Recitativo — Fantasia: Ben moderato — Largamente — Molto vivace 6:50
11 IV Allegretto poco mosso 6:18
Arthur Grumiaux / Paul Crossley piano / Gyorgy Sebok piano*

CD19

CD 19: 54:26
Fritz Kreisler 1875-1962
1 Caprice Viennois 4:19
2 Schon Rosmarin 1:55
3 Liebesleid 3:37
4 Liebesfreud 3:43
5 Recitativo and Scherzo (solo violin) 4:56
6 Tempo di Minuetto 3:32
7 Praeludium and Allegro 5:22
8 Chanson Louis XIII and Pavane 3:42
9 Tambourin Chinois 3:44
10 Menuet 3:26
11 The Old Refrain 3:40
12 Rondino (on a Theme of Beethoven) 2:32
13 Allegretto (in the Style of Boccherini) 2:30
Jean-Marie Leclair (1697-1764)
Sonata No.3 in D major
14 I Un poco andante 3:38
15 II Allegro 2:03
16 III Sarabande: Largo 2:27
17 IV Tambourin: Presto 3:05
Christoph Willibald Gluck 1714-1787
18 Melodie (arr.Kreisler) 3:05
Pietro Antonio Locatelli 1695-1764
19 The Labyrinth 3:01
Henryk Szeryng / Charles Reiner piano

CD20

CD 20 57:38
Felix Mendelssohn 1809-1847
Violin Concerto in E minor, op.64
1 I Allegro molto appassionato 14:07
2 II Andante 8:41
3 III Allegretto non troppo — Allegro molto vivace 6:57
Pyotr Tchaikovsky 1840-1893
4 Valse-scherzo, op.34 6:09
Alexander Glazunov 1865-1936
Violin Concerto in A minor, op.82
5 I Moderato — 4:39
6 II Andante sostenuto — Tempo I — 11:01
7 III Allegro 5:48
Leila Josefowicz / Orchestre symphonique de Montreal /
Charles Dutoit

CD21

CD 21: 76:25
Wolfgang Amadeus Mozart 1756-1791
Violin Concerto No.1 in B flat major, K207
1I Allegro moderato 6:31
2 II Adagio 6:55
3 III Presto 5:08
Violin Concerto No.3 in G major, K216
4 I Allegro 8:38
5 II Adagio 7:33
6 III Rondeau: Allegro 5:33
Violin Concerto No.4 in D major, K218
7 I Allegro 8:57
8 II Andante cantabile 6:55
9 III Rondeau: Andante grazioso — Allegro ma non troppo 6:51
10 Adagio in E major, K261* (cadenza: Arthur Grumiaux)
7:20
11 Rondo in C major, K 373* 5:00

CD22

CD 22: 77:03
Violin Concerto No.2 in D major, K211
1 I Allegro 8:13
2 II Andante 6:29
3 III Rondeau: Allegro 3:54
Violin Concerto No.5 in A, K219
4 I Allegro aperto 9:13
5 II Adagio 9:39
6 III Rondeau: Tempo di menuetto 8:03
Sinfonia Concertante in E flat, K364 for Violin, Viola and Orchestra
7 I Allegro maestoso 13:07
8 II Andante 11:14
9 III Presto 6:18
Arthur Grumiaux / Arrigo Pellicia viola /
London Symphony Orchestra/ Sir Colin Davis
New Philharmonia Orchestra/ Raymond Leppard*

CD23

CD 23: 78:52
Sonata for Piano and Violin in C major, K296
1 I Allegro vivace 6:35
2 II Andante sostenuto 5:35
3 III Rondo: Allegro 4:34
Sonata for Piano and Violin in G major, K301
4I Allegro con spirito 8:01
5II Allegro 5:08
Sonata for Piano and Violin in E flat major, K302
6 I Allegro 5:34
7 II Rondeau: Andante grazioso 6:40
Sonata for Piano and Violin in C major, K303
8 I Adagio — molto allegro 5:12
9 II Tempo di minuetto 4:30
Sonata for Piano and Violin in E minor, K304
10 I Allegro 6:42
11 II Tempo di minuetto 5:06
12 12 Variations for Piano and Violin in G major, K359 on “La bergere Celimene” 14:15

CD24

CD 24: 71:51
Sonata for Piano and Violin in A major, K305
1 I Allegro di molto 4:40
2 II Tema con variazioni 9:35
Sonata for Piano and Violin in D major, K308
3 I Allegro con spirito 7:39
4 II Andantino cantabile 7:15
5 III Allegretto 6:59
Sonata for Piano and Violin in F major, K376
6 I Allegro 4:47
7 II Andante 4:58
8 III Rondo: Allegretto grazioso 6:00
Sonata for Piano and Violin in F major, K377
9 I Allegro 4:29
10 II Andante con variazioni 9:07
11 III Tempo di menuetto 5:38

CD25

CD 25 77:43
Sonata for Violin and Piano in B flat major, K378
1 I Allegro moderato 8:56
2 II Andantino sostenuto e cantabile 5:51
3 III Rondeau: Allegro 4:15
Sonata for Violin and Piano in G major, K379
4 I Adagio — Allegro 8:10
5 II Tema con variazioni 9:12
Sonata for Violin and Piano in E flat major, K380
6 I Allegro 6:39
7 II Andante con moto 7:31
8 III Rondeau: Allegro 4:23
Sonata for Violin and Piano in B flat major, K454
9 I Largo — Allegro 7:30
10 II Andante 7:40
11 III Allegretto 6:47

CD26

CD 26: 76:44
Sonata for Violin and Piano in E flat, K481
1 I Molto allegro 7:15
2 II Adagio 7:12
3 III Allegretto con variazioni 8:12
Sonata for Violin and Piano in A major, K526
4 I Allegro molto 6:42
5 II Andante 10:52
6 III Presto 7:06
Sonata for Violin and Piano in F major, K547
7 I Andante cantabile 4:03
8 II Allegro 6:30
9 III Andante con variazioni 7:32
10 Six Variations in G minor, K360 on
“Helas, j’ai perdu mon amant” 10:33
Henryk Szeryng / Ingrid Haebler piano

CD27

CD 27: 62:09
Nicolo Paganini 1782-1840
Violin Concerto No.1 in D major, op.6
1 I Allegro maestoso (cadenza: August Wilhelmi)18:32
2 II Adagio 5:13
3 III Rondo: Allegro spirituoso 7:38
Violin Concerto No.4 in D minor
4 I Allegro maestoso (cadenza: Henryk Szeryng) 16:11
5 II Adagio flebile con sentimento 5:30
6 III Rondo galante: Andantino gaio 8:33
Henryk Szeryng / London Symphony Orchestra /
Sir Alexander Gibson

CD28

CD 28: 70:19
Paganini 24 Caprices for solo violin
1 No.1 in E major 1:42
2 No.2 in B minor 2:51
3 No.3 in E minor 2:48
4 No.4 in C minor 5:27
5 No.5 in A minor 2:19
6 No.6 in G minor 5:29
7 No.7 in A minor 2:53
8 No.8 in E flat major 2:34
9 No.9 in E major 2:22
10 No.10 in G minor 1:55
11 No.11 in C major 4:03
12 No.12 in A flat major 2:34
13 No.13 in B flat major 2:19
14 No.14 in E flat major 1:32
15 No.15 in E minor 2:22
16 No.16 in G minor 1:13
17 No.17 in E flat major 2:42
18 No.18 in C major 1:51
19 No.19 in E flat major 2:35
20 No.20 in D major 3:36
21 No.21 in A major 2:57
22 No.22 in F major 2:39
23 No.23 in E flat major 3:25
24 No.24 in A minor 5:27
Ruggiero Ricci

CD29

CD 29: 60:27
Sergei Prokofiev 1891-1953
Violin Concerto No.1 in D major, op.19
1 I Andantino 9:37
2 II Scherzo: Vivacissimo 4:00
3 III Finale: Moderato 8:53
Pyotr Tchaikovsky 1840-1893
4 Serenade melancolique, op.26 9:16
Prokofiev Violin Concerto No.2 in G minor, op.63
5 I Allegro moderato 11:02
6 II Andante assai 10:53
7 III Allegro ben marcato 6:22
Leila Josefowicz / Orchestre symphonique de Montreal /
Charles Dutoit

CD30

CD 30: 78:17
Maurice Ravel 1875-1937
1 Tzigane* 10:21
2 Piece en forme de habanera 3:29
3 Sonate posthume pour violon et piano (1897) 15:57
4 Berceuse sur le nom de Gabriel Faure 2:54
Sonate pour violon et violoncello
5 I Allegro 5:23
6 II Tres vif 3:22
7 III Lent 6:34
8 IV Vif, avec entrain 5:40
9 Kaddish (transcr.Lucien Garban) 5:30
Sonate pour violon et piano (1927)
10 I Allegretto 8:29
11 II Blues: Moderato 5:25
12 III Perpetuum mobile: Allegro 3:58
Chantal Juillet / Pascal Roge piano, piano lutheal* /
Truls Mork cello

CD31

CD 31: 78:59
Camille Saint-Saens 1835-1921
Violin Concerto No.1 in A minor, op.20*
1 I Allegro — 4:25
2 II Andante espressivo — 2:11
3 III Tempo I 5:09
Violin Concerto No.3 in B minor, op.61#
4 I Allegro non troppo 9:54
5 II Andantino quasi allegretto 9:11
6 III Molto moderato e maestoso — Allegro non troppo 11:29
Henri Vieuxtemps 1820-1881
Violin Concerto No.5 in A minor, op.37#
7 I Allegro non troppo 14:41
8 II Adagio 3:44
9 III Allegro con fuoco 1:06
Ernest Chausson 1855-1899
10 Poeme pour violon et orchestre, op.25+ 16:30
Kyung Wha Chung / Orchestre symphonique de Montreal* /Royal Philharmonic Orchestra+ / Charles Dutoit
London Symphony Orchestra/ Lawrence Foster#

CD32

CD 32: 65:52
Pyotr Tchaikovsky Violin Concerto in D major, op.35
1 I Allegro moderato 17:34
2 II Canzonetta: Andante 6:54
3 III Finale: Allegro vivacissimo 9:17
Jean Sibelius 1865-1957
Violin Concerto in D minor, op.47
4 I Allegro moderato 15:16
5 II Adagio di molto 9:04
6 III Allegro, ma non tanto 7:10
Leila Josefowicz / Academy of St Martin in the Fields /
Sir Neville Marriner

CD33

CD 33: 63:57
Antonio Vivaldi 1678-1741
Le quattro stagioni / The Four Seasons
Concerto No.1 in E major, RV 269 “La primavera”
1 I Allegro 3:49
2 II Largo 2:38
3 III Allegro: Danza pastorale 4:24
Concerto No.2 in G mminor, RV 315 “L’estate”
4 I Allegro non molto 1:07
5II Allegro 4:21
6 III Adagio — Presto — Adagio 2:22
7 IV Presto (Tempo impetuoso d’estate) 2:44
Concerto No.3 in F major, RV 293 “L’autumno”
8 I Allegro (Ballo, e canto de’ villanelle) 5:33
9 II Adagio molto (Ubriachi dormienti) 2:45
10 III Allegro (La caccia) 3:33
Concerto No.4 in F minor, RV 297 “L’inverno”
11 I Allegro non molto 3:13
12 II Largo 2:26
13 III Allegro 2:59
Concerto in B minor, RV 580 for 4 violins*
14 I Allegro 4:14
15 II Largo 1:13
16 III Larghetto — Adagio — Largo — Allegro 5:00
Concerto in F major, RV 551 for 3 violins#
17 I Allegro 5:24
18 II Andante 2:25
19 III Allegro 3:13
Salvatore Accardo / I solisti di Napoli
Mariana Sirbu, Sylvie Gazeau,Victor Martin violins*
Ida Levin, Margaret Batjer violins#

CD34

CD 34: 76:48
Encores I
1 von Paradis: Sicilienne 1:47
2 Mozart: Rondo: Allegro (Serenade in D, K250 “Haffner”, arr.Kreisler) 7:23
3 Gluck: Melodie (arr.Kreisler) 2:42
4 Granados: Spanish Dance, op.37 no.5 “Andaluza” 3:53
5 Kreisler: Schon Rosmarin 2:06
6 Kreisler: Liebesleid 3:27
7 Kreisler: Liebesfreud 3:23
8 Veracini: Allegro 2:11
9 Vivaldi: Siciliano (Concerto grosso in D minor, Op.3 no.11) 2:46
10 Leclair: Tambourin 2:14
11 Beethoven: Minuet in G 2:34
12 Schubert: Ave Maria, “Ellens Gesang III”, D839 4:12
13 Dvorak: Humoresque in G flat 3:18
14 Massenet: Meditation de Thais 4:17
15 Tchaikovsky: Valse sentimentale, op.51 no.6 2:04
16 Veracini: Largo 3:20
17 Kreisler: Rondino on a Theme by Beethoven 2:49
18 Kreisler: Andantino in the style of Padre Martini 1:54
19 Elgar: La Capricieuse, op.17 3:49
20 Faure: Apres un reve 2:49
21 Albeniz: Tango, op.165 no.2 2:31
22 Vecsey: Valse Triste 2:29
23 Ponce: Estrellita, arr.Heifetz 3:02
24 Sibelius: Nocturne, op.51 no.3 3:24

CD35

CD 35: 75:02
Encores II
1 Pergolesi: Andantino 2:34
2Schubert: Standchen 2:37
3 Mozart: Menuetto — Trio — Menuetto
(Divertimento in D major, K334) 4:21
4 Schumann: Traumerei (Kinderszenen, op.15) 2:32
5 Dvorak: Larghetto (Sonatina in G major, op.100) 3:18
6 Bach, arr.Gounod: Ave Maria 4:15
7 Paganini: Sonata No.12, op.3 no.6 4:19
8 Dvorak: Gypsy Melodies, op.55 no.4 Songs My Mother Taught Me 2:07
9 Wieniawski: Souvenir de Moscou, op.6 7:43
10 Ravel: Piece en forme de habanera, arr. G. Catherine 2:44
11 Sarasate: Zigeunerweisen, op.20 8:04
12 Fiocco: Allegro (Pieces de clavecin, op.1 arr.O’Neill) 2:52
13 Faure: Les berceaux, op.23 no.1 2:43
14 Ravel: Tzigane 10:13
15 Bloch: Baal Shem (Nigun) 5:55
16 Kodaly: Adagio for Violin and piano 7:47
Arthur Grumiaux / Istvan Hajdu piano
soloists:
Gidon Kremer
Arthur Grumiaux
Joshua Bell
Kyung Wha Chung
Henryk Szeryng
Pierre Amoyal
Akiko Suwanai
Leila Josefowicz
Ruggiero Ricci
Chantal Juillet
Salvatore Accardo
pianos: Clara Haskil/ Pascal Roge/ Philip Moll/ Paul Crossley/ Gyorgy Sebok/ Charles Reiner/ Ingrid Haebler/ Istvan Hajdu/ Christiane Jaccottet harpsichord
violins: Mariana Sirbu, Sylvie Gazeau, Victor Martin, Ida Levin, Margaret Batjern
cellos: Philippe Mermoud/ Truls Mork
orchestras: Academy of St Martin in the Fields/ Baltimore Symphony Orchestra/ Chicago Symphony Orchestra/ London Philharmonic Orchestra/ Concertgebouw Orchestra/ The Cleveland Orchestra/ Budapest Festival Orchestra/ Orchestre symphonique de Montreal/ New Philharmonia Orchestra/ London Symphony Orchestra/ Royal Philharmonic Orchestra
conductors: Igor Markevitch/ Ernest Bour/ Christoph von Dohnanyi/ Sir Neville Marriner/ Ivan Fischer/ Charles Dutoit/ Sir Colin Davis/ Raymond Leppard/ Sir Alexander Gibson/ David Zinman/ Sir Georg Solti/ Bernard Haitink/ Lawrence Foster
Доп. информация:

logsотчет EAC CD1

Exact Audio Copy V0.99 prebeta 4 from 23. January 2008
Отчёт EAC об извлечении, выполненном 24. сентября 2009, 9:27
Gidon Kremer, Academy of St Martin in the Field / J.S Bach
- Violin Concertos
Дисковод: _NEC DVD_RW ND-4550A Adapter: 3 ID: 0
Режим чтения : Достоверность
Использование точного потока : Да
Отключение кэша аудио : Да
Использование указателей C2 : Нет
Коррекция смещения при чтении : 48
Способность читать области Lead-in и Lead-out : Нет
Заполнение пропущенных сэмплов тишиной : Да
Удаление блоков с тишиной в начале и конце : Нет
При вычислениях CRC использовались нулевые сэмплы : Да
Интерфейс :
Встроенный Win32-интерфейс для Win NT/2000
Выходной формат : Внутренние WAV-операции
Формат сэмплов : 44.100 Гц; 16 бит; стерео
TOC извлечённого CD
Трек | Старт | Длительность | Начальный сектор |
Конечный сектор
------------------------------------------------------
---------------
1 | 0:00.33 | 3:20.58 | 33 |
15090
2 | 3:21.16 | 7:17.62 | 15091 |
47927
3 | 10:39.03 | 4:46.08 | 47928 |
69385
4 | 15:25.11 | 3:10.66 | 69386 |
83701
5 | 18:36.02 | 5:20.43 | 83702 |
107744
6 | 23:56.45 | 3:35.27 | 107745 |
123896
7 | 27:31.72 | 6:48.60 | 123897 |
154556
8 | 34:20.57 | 4:55.38 | 154557 |
176719
9 | 39:16.20 | 2:37.50 | 176720 |
188544
Характеристики диапазона извлечения и сообщения об ошибках
Выбранный диапазон
Имя файла C:\Documents and Settings\Директор\Мои
документы\Моя музыка\Gidon Kremer, Academy of St Martin in
the Field - J.S Bach - Violin Concertos.wav
Пиковый уровень 95.5 %
Качество диапазона 100.0 %
CRC копии 7D8FFC62
Копирование... OK
Ошибок не произошло
Конец отчёта

отчет EAC CD2

Exact Audio Copy V0.99 prebeta 4 from 23. January 2008
Отчёт EAC об извлечении, выполненном 24. сентября 2009,
9:47
Grumiaux, Jaccottet / J.S Bach - Violin Sonatas BWV.1014-
1018
Дисковод: _NEC DVD_RW ND-4550A Adapter: 3 ID: 0
Режим чтения : Достоверность
Использование точного потока : Да
Отключение кэша аудио : Да
Использование указателей C2 : Нет
Коррекция смещения при чтении : 48
Способность читать области Lead-in и Lead-out : Нет
Заполнение пропущенных сэмплов тишиной : Да
Удаление блоков с тишиной в начале и конце : Нет
При вычислениях CRC использовались нулевые сэмплы : Да
Интерфейс :
Встроенный Win32-интерфейс для Win NT/2000
Выходной формат : Внутренние WAV-операции
Формат сэмплов : 44.100 Гц; 16 бит; стерео
TOC извлечённого CD
Трек | Старт | Длительность | Начальный сектор |
Конечный сектор
------------------------------------------------------
---------------
1 | 0:00.33 | 3:18.00 | 33 |
14882
2 | 3:18.33 | 3:07.00 | 14883 |
28907
3 | 6:25.33 | 2:46.00 | 28908 |
41357
4 | 9:11.33 | 2:34.00 | 41358 |
52907
5 | 11:45.33 | 2:16.00 | 52908 |
63107
6 | 14:01.33 | 3:07.00 | 63108 |
77132
7 | 17:08.33 | 2:54.00 | 77133 |
90182
8 | 20:02.33 | 3:33.00 | 90183 |
106157
9 | 23:35.33 | 4:17.00 | 106158 |
125432
10 | 27:52.33 | 3:10.00 | 125433 |
139682
11 | 31:02.33 | 4:28.00 | 139683 |
159782
12 | 35:30.33 | 4:00.00 | 159783 |
177782
13 | 39:30.33 | 2:25.00 | 177783 |
188657
14 | 41:55.33 | 4:39.00 | 188658 |
209582
15 | 46:34.33 | 3:09.00 | 209583 |
223757
16 | 49:43.33 | 3:47.00 | 223758 |
240782
17 | 53:30.33 | 5:39.00 | 240783 |
266207
18 | 59:09.33 | 3:23.00 | 266208 |
281432
19 | 62:32.33 | 3:21.00 | 281433 |
296507
20 | 65:53.33 | 2:52.00 | 296508 |
309407
Характеристики диапазона извлечения и сообщения об ошибках
Выбранный диапазон
Имя файла C:\Documents and Settings\Директор\Мои
документы\Моя музыка\Grumiaux, Jaccottet - J.S Bach -
Violin Sonatas BWV.1014-1018.wav
Пиковый уровень 95.4 %
Качество диапазона 100.0 %
CRC копии 8F1D8868
Копирование... OK
Ошибок не произошло
Конец отчёта

отчет EAC CD3

Exact Audio Copy V0.99 prebeta 4 from 23. January 2008
Отчёт EAC об извлечении, выполненном 24. сентября 2009,
10:08
Grumiaux, Jaccottet / J.S Bach - Violin Sonatas BWV.1019-
1023
Дисковод: _NEC DVD_RW ND-4550A Adapter: 3 ID: 0
Режим чтения : Достоверность
Использование точного потока : Да
Отключение кэша аудио : Да
Использование указателей C2 : Нет
Коррекция смещения при чтении : 48
Способность читать области Lead-in и Lead-out : Нет
Заполнение пропущенных сэмплов тишиной : Да
Удаление блоков с тишиной в начале и конце : Нет
При вычислениях CRC использовались нулевые сэмплы : Да
Интерфейс :
Встроенный Win32-интерфейс для Win NT/2000
Выходной формат : Внутренние WAV-операции
Формат сэмплов : 44.100 Гц; 16 бит; стерео
TOC извлечённого CD
Трек | Старт | Длительность | Начальный сектор |
Конечный сектор
------------------------------------------------------
---------------
1 | 0:00.33 | 3:49.00 | 33 |
17207
2 | 3:49.33 | 1:25.00 | 17208 |
23582
3 | 5:14.33 | 3:30.00 | 23583 |
39332
4 | 8:44.33 | 2:30.00 | 39333 |
50582
5 | 11:14.33 | 3:51.00 | 50583 |
67907
6 | 15:05.33 | 4:57.00 | 67908 |
90182
7 | 20:02.33 | 1:57.00 | 90183 |
98957
8 | 21:59.33 | 3:39.00 | 98958 |
115382
9 | 25:38.33 | 2:34.00 | 115383 |
126932
10 | 28:12.33 | 3:39.00 | 126933 |
143357
11 | 31:51.33 | 3:19.00 | 143358 |
158282
12 | 35:10.33 | 1:04.00 | 158283 |
163082
13 | 36:14.33 | 1:59.00 | 163083 |
172007
14 | 38:13.33 | 1:30.00 | 172008 |
178757
15 | 39:43.33 | 2:57.00 | 178758 |
192032
16 | 42:40.33 | 2:03.00 | 192033 |
201257
17 | 44:43.33 | 1:58.00 | 201258 |
210107
18 | 46:41.33 | 1:34.00 | 210108 |
217157
19 | 48:15.33 | 4:12.00 | 217158 |
236057
20 | 52:27.33 | 5:18.00 | 236058 |
259907
21 | 57:45.33 | 3:07.00 | 259908 |
273932
Характеристики диапазона извлечения и сообщения об ошибках
Выбранный диапазон
Имя файла C:\Documents and Settings\Директор\Мои
документы\Моя музыка\Grumiaux, Jaccottet - J.S Bach -
Violin Sonatas BWV.1019-1023.wav
Пиковый уровень 93.7 %
Качество диапазона 100.0 %
CRC копии BC5E0C78
Копирование... OK
Ошибок не произошло
Конец отчёта

отчет EAC CD4

Exact Audio Copy V0.99 prebeta 4 from 23. January 2008
Отчёт EAC об извлечении, выполненном 24. сентября 2009,
10:31
Gidon Kremer / J.S Bach - Sonatas for Solo Violin BWV
1001,1003,1005
Дисковод: _NEC DVD_RW ND-4550A Adapter: 3 ID: 0
Режим чтения : Достоверность
Использование точного потока : Да
Отключение кэша аудио : Да
Использование указателей C2 : Нет
Коррекция смещения при чтении : 48
Способность читать области Lead-in и Lead-out : Нет
Заполнение пропущенных сэмплов тишиной : Да
Удаление блоков с тишиной в начале и конце : Нет
При вычислениях CRC использовались нулевые сэмплы : Да
Интерфейс :
Встроенный Win32-интерфейс для Win NT/2000
Выходной формат : Внутренние WAV-операции
Формат сэмплов : 44.100 Гц; 16 бит; стерео
TOC извлечённого CD
Трек | Старт | Длительность | Начальный сектор |
Конечный сектор
------------------------------------------------------
---------------
1 | 0:00.00 | 4:23.00 | 0 |
19724
2 | 4:23.00 | 4:26.00 | 19725 |
39674
3 | 8:49.00 | 3:04.00 | 39675 |
53474
4 | 11:53.00 | 3:15.00 | 53475 |
68099
5 | 15:08.00 | 4:30.00 | 68100 |
88349
6 | 19:38.00 | 7:06.00 | 88350 |
120299
7 | 26:44.00 | 5:09.00 | 120300 |
143474
8 | 31:53.00 | 5:00.00 | 143475 |
165974
9 | 36:53.00 | 4:05.50 | 165975 |
184399
10 | 40:58.50 | 8:36.25 | 184400 |
223124
11 | 49:35.00 | 2:14.00 | 223125 |
233174
12 | 51:49.00 | 4:37.00 | 233175 |
253949
Характеристики диапазона извлечения и сообщения об ошибках
Выбранный диапазон
Имя файла C:\Documents and Settings\Директор\Мои
документы\Моя музыка\Gidon Kremer - J.S Bach - Sonatas for
Solo Violin BWV 1001,1003,1005.wav
Пиковый уровень 93.7 %
Качество диапазона 100.0 %
CRC копии 12B4A73F
Копирование... OK
Ошибок не произошло
Конец отчёта

отчет EAC CD5

Exact Audio Copy V0.99 prebeta 4 from 23. January 2008
Отчёт EAC об извлечении, выполненном 24. сентября 2009,
10:53
Gidon Kremer / J.S Bach - Partitas for Solo Violin BWV
1002, 1004, 1006
Дисковод: _NEC DVD_RW ND-4550A Adapter: 3 ID: 0
Режим чтения : Достоверность
Использование точного потока : Да
Отключение кэша аудио : Да
Использование указателей C2 : Нет
Коррекция смещения при чтении : 48
Способность читать области Lead-in и Lead-out : Нет
Заполнение пропущенных сэмплов тишиной : Да
Удаление блоков с тишиной в начале и конце : Нет
При вычислениях CRC использовались нулевые сэмплы : Да
Интерфейс :
Встроенный Win32-интерфейс для Win NT/2000
Выходной формат : Внутренние WAV-операции
Формат сэмплов : 44.100 Гц; 16 бит; стерео
TOC извлечённого CD
Трек | Старт | Длительность | Начальный сектор |
Конечный сектор
------------------------------------------------------
---------------
1 | 0:00.33 | 7:35.50 | 33 |
34207
2 | 7:36.08 | 6:24.25 | 34208 |
63032
3 | 14:00.33 | 5:52.00 | 63033 |
89432
4 | 19:52.33 | 6:17.00 | 89433 |
117707
5 | 26:09.33 | 3:52.00 | 117708 |
135107
6 | 30:01.33 | 2:23.00 | 135108 |
145832
7 | 32:24.33 | 3:39.00 | 145833 |
162257
8 | 36:03.33 | 3:51.00 | 162258 |
179582
9 | 39:54.33 | 12:55.00 | 179583 |
237707
10 | 52:49.33 | 3:19.00 | 237708 |
252632
11 | 56:08.33 | 3:34.00 | 252633 |
268682
12 | 59:42.33 | 2:46.00 | 268683 |
281132
13 | 62:28.33 | 3:53.00 | 281133 |
298607
14 | 66:21.33 | 1:17.00 | 298608 |
304382
15 | 67:38.33 | 1:47.00 | 304383 |
312407
Характеристики диапазона извлечения и сообщения об ошибках
Выбранный диапазон
Имя файла C:\Documents and Settings\Директор\Мои
документы\Моя музыка\Gidon Kremer - J.S Bach - Partitas for
Solo Violin BWV 1002, 1004, 1006.wav
Пиковый уровень 95.5 %
Качество диапазона 100.0 %
CRC копии 0137EAF3
Копирование... OK
Ошибок не произошло
Конец отчёта

отчет EAC CD6

Exact Audio Copy V0.99 prebeta 4 from 23. January 2008
Отчёт EAC об извлечении, выполненном 24. сентября 2009,
11:40
Bell, Zinman, Baltimore Symphony Orch. / Barber, Walton -
Violin Concertos, Bloch - Baal Shem
Дисковод: _NEC DVD_RW ND-4550A Adapter: 3 ID: 0
Режим чтения : Достоверность
Использование точного потока : Да
Отключение кэша аудио : Да
Использование указателей C2 : Нет
Коррекция смещения при чтении : 48
Способность читать области Lead-in и Lead-out : Нет
Заполнение пропущенных сэмплов тишиной : Да
Удаление блоков с тишиной в начале и конце : Нет
При вычислениях CRC использовались нулевые сэмплы : Да
Интерфейс :
Встроенный Win32-интерфейс для Win NT/2000
Выходной формат : Внутренние WAV-операции
Формат сэмплов : 44.100 Гц; 16 бит; стерео
TOC извлечённого CD
Трек | Старт | Длительность | Начальный сектор |
Конечный сектор
------------------------------------------------------
---------------
1 | 0:00.32 | 10:18.13 | 32 |
46394
2 | 10:18.45 | 8:49.12 | 46395 |
86081
3 | 19:07.57 | 3:50.00 | 86082 |
103331
4 | 22:57.57 | 3:06.63 | 103332 |
117344
5 | 26:04.45 | 6:32.12 | 117345 |
146756
6 | 32:36.57 | 4:44.38 | 146757 |
168094
7 | 37:21.20 | 11:22.50 | 168095 |
219294
8 | 48:43.70 | 6:29.25 | 219295 |
248494
9 | 55:13.20 | 12:47.00 | 248495 |
306019
Характеристики диапазона извлечения и сообщения об ошибках
Выбранный диапазон
Имя файла C:\Documents and Settings\Директор\Мои
документы\Моя музыка\Bell, Zinman, Baltimore Symphony Orch.
- Barber, Walton - Violin Concertos, Bloch - Baal Shem.wav
Пиковый уровень 100.0 %
Качество диапазона 100.0 %
CRC копии 28302964
Копирование... OK
Ошибок не произошло
Конец отчёта

отчет EAC CD7

Exact Audio Copy V0.99 prebeta 4 from 23. January 2008
Отчёт EAC об извлечении, выполненном 24. сентября 2009,
11:59
Kyung Wha Chung, Solti / Bartok - Violin Concertos No.1 & 2
Дисковод: _NEC DVD_RW ND-4550A Adapter: 3 ID: 0
Режим чтения : Достоверность
Использование точного потока : Да
Отключение кэша аудио : Да
Использование указателей C2 : Нет
Коррекция смещения при чтении : 48
Способность читать области Lead-in и Lead-out : Нет
Заполнение пропущенных сэмплов тишиной : Да
Удаление блоков с тишиной в начале и конце : Нет
При вычислениях CRC использовались нулевые сэмплы : Да
Интерфейс :
Встроенный Win32-интерфейс для Win NT/2000
Выходной формат : Внутренние WAV-операции
Формат сэмплов : 44.100 Гц; 16 бит; стерео
TOC извлечённого CD
Трек | Старт | Длительность | Начальный сектор |
Конечный сектор
------------------------------------------------------
---------------
1 | 0:00.33 | 8:40.67 | 33 |
39099
2 | 8:41.25 | 11:34.45 | 39100 |
91194
3 | 20:15.70 | 16:45.63 | 91195 |
166632
4 | 37:01.58 | 9:35.00 | 166633 |
209757
5 | 46:36.58 | 12:28.50 | 209758 |
265907
Характеристики диапазона извлечения и сообщения об ошибках
Выбранный диапазон
Имя файла C:\Documents and Settings\Директор\Мои
документы\Моя музыка\Kyung Wha Chung, Solti - Bartok -
Violin Concertos No.1 & 2.wav
Пиковый уровень 91.9 %
Качество диапазона 99.9 %
CRC копии C69BE0CD
Копирование... OK
Ошибок не произошло
Конец отчёта

отчет EAC CD8

Exact Audio Copy V0.99 prebeta 4 from 23. January 2008
Отчёт EAC об извлечении, выполненном 24. сентября 2009,
15:25
Szeryng, Haitink, Royal Concertgebouw Orchestra / Beethoven
- Violin Concerto
Дисковод: _NEC DVD_RW ND-4550A Adapter: 3 ID: 0
Режим чтения : Достоверность
Использование точного потока : Да
Отключение кэша аудио : Да
Использование указателей C2 : Нет
Коррекция смещения при чтении : 48
Способность читать области Lead-in и Lead-out : Нет
Заполнение пропущенных сэмплов тишиной : Да
Удаление блоков с тишиной в начале и конце : Нет
При вычислениях CRC использовались нулевые сэмплы : Да
Интерфейс :
Встроенный Win32-интерфейс для Win NT/2000
Выходной формат : Внутренние WAV-операции
Формат сэмплов : 44.100 Гц; 16 бит; стерео
TOC извлечённого CD
Трек | Старт | Длительность | Начальный сектор |
Конечный сектор
------------------------------------------------------
---------------
1 | 0:00.32 | 26:06.00 | 32 |
117481
2 | 26:06.32 | 9:32.50 | 117482 |
160431
3 | 35:39.07 | 10:23.25 | 160432 |
207181
4 | 46:02.32 | 8:05.00 | 207182 |
243556
5 | 54:07.32 | 9:27.00 | 243557 |
286081
Характеристики диапазона извлечения и сообщения об ошибках
Выбранный диапазон
Имя файла C:\Documents and Settings\Директор\Мои
документы\Моя музыка\Szeryng, Haitink, Royal Concertgebouw
Orchestra - Beethoven - Violin Concerto.wav
Пиковый уровень 98.6 %
Качество диапазона 99.9 %
CRC копии 3829A193
Копирование... OK
Ошибок не произошло
Конец отчёта

отчет EAC CD9

Exact Audio Copy V0.99 prebeta 4 from 23. January 2008
Отчёт EAC об извлечении, выполненном 24. сентября 2009,
15:52
Grumiaux, Haskill / Beethoven - Violin Sonatas No.1-4
Дисковод: _NEC DVD_RW ND-4550A Adapter: 3 ID: 0
Режим чтения : Достоверность
Использование точного потока : Да
Отключение кэша аудио : Да
Использование указателей C2 : Нет
Коррекция смещения при чтении : 48
Способность читать области Lead-in и Lead-out : Нет
Заполнение пропущенных сэмплов тишиной : Да
Удаление блоков с тишиной в начале и конце : Нет
При вычислениях CRC использовались нулевые сэмплы : Да
Интерфейс :
Встроенный Win32-интерфейс для Win NT/2000
Выходной формат : Внутренние WAV-операции
Формат сэмплов : 44.100 Гц; 16 бит; стерео
TOC извлечённого CD
Трек | Старт | Длительность | Начальный сектор |
Конечный сектор
------------------------------------------------------
---------------
1 | 0:00.33 | 6:38.00 | 33 |
29882
2 | 6:38.33 | 6:47.00 | 29883 |
60407
3 | 13:25.33 | 4:57.00 | 60408 |
82682
4 | 18:22.33 | 4:33.00 | 82683 |
103157
5 | 22:55.33 | 5:41.00 | 103158 |
128732
6 | 28:36.33 | 4:32.00 | 128733 |
149132
7 | 33:08.33 | 8:06.00 | 149133 |
185582
8 | 41:14.33 | 6:17.00 | 185583 |
213857
9 | 47:31.33 | 4:22.00 | 213858 |
233507
10 | 51:53.33 | 5:21.00 | 233508 |
257582
11 | 57:14.33 | 5:45.00 | 257583 |
283457
12 | 62:59.33 | 5:26.00 | 283458 |
307907
Характеристики диапазона извлечения и сообщения об ошибках
Выбранный диапазон
Имя файла C:\Documents and Settings\Директор\Мои
документы\Моя музыка\Grumiaux, Haskill - Beethoven - Violin
Sonatas No.wav
Пиковый уровень 94.9 %
Качество диапазона 100.0 %
CRC копии 0FF4B55D
Копирование... OK
Ошибок не произошло
Конец отчёта

отчет EAC CD10

Exact Audio Copy V0.99 prebeta 4 from 23. January 2008
Отчёт EAC об извлечении, выполненном 24. сентября 2009,
16:14
Grumiaux, Haskill / Beethoven - Violin Sonatas No.5-7
Дисковод: _NEC DVD_RW ND-4550A Adapter: 3 ID: 0
Режим чтения : Достоверность
Использование точного потока : Да
Отключение кэша аудио : Да
Использование указателей C2 : Нет
Коррекция смещения при чтении : 48
Способность читать области Lead-in и Lead-out : Нет
Заполнение пропущенных сэмплов тишиной : Да
Удаление блоков с тишиной в начале и конце : Нет
При вычислениях CRC использовались нулевые сэмплы : Да
Интерфейс :
Встроенный Win32-интерфейс для Win NT/2000
Выходной формат : Внутренние WAV-операции
Формат сэмплов : 44.100 Гц; 16 бит; стерео
TOC извлечённого CD
Трек | Старт | Длительность | Начальный сектор |
Конечный сектор
------------------------------------------------------
---------------
1 | 0:00.33 | 10:15.00 | 33 |
46157
2 | 10:15.33 | 5:29.00 | 46158 |
70832
3 | 15:44.33 | 1:06.00 | 70833 |
75782
4 | 16:50.33 | 6:10.00 | 75783 |
103532
5 | 23:00.33 | 5:30.00 | 103533 |
128282
6 | 28:30.33 | 7:00.00 | 128283 |
159782
7 | 35:30.33 | 7:41.00 | 159783 |
194357
8 | 43:11.33 | 7:37.00 | 194358 |
228632
9 | 50:48.33 | 9:23.00 | 228633 |
270857
10 | 60:11.33 | 3:12.00 | 270858 |
285257
11 | 63:23.33 | 5:00.00 | 285258 |
307757
Характеристики диапазона извлечения и сообщения об ошибках
Выбранный диапазон
Имя файла C:\Documents and Settings\Директор\Мои
документы\Моя музыка\Grumiaux, Haskill - Beethoven - Violin
Sonatas No.wav
Пиковый уровень 97.2 %
Качество диапазона 100.0 %
CRC копии E4857F04
Копирование... OK
Ошибок не произошло
Конец отчёта

отчет EAC CD11

Exact Audio Copy V0.99 prebeta 4 from 23. January 2008
Отчёт EAC об извлечении, выполненном 24. сентября 2009,
16:40
Grumiaux, Haskil / Beethoven - Violin Sonatas No.8-10
Дисковод: _NEC DVD_RW ND-4550A Adapter: 3 ID: 0
Режим чтения : Достоверность
Использование точного потока : Да
Отключение кэша аудио : Да
Использование указателей C2 : Нет
Коррекция смещения при чтении : 48
Способность читать области Lead-in и Lead-out : Нет
Заполнение пропущенных сэмплов тишиной : Да
Удаление блоков с тишиной в начале и конце : Нет
При вычислениях CRC использовались нулевые сэмплы : Да
Интерфейс :
Встроенный Win32-интерфейс для Win NT/2000
Выходной формат : Внутренние WAV-операции
Формат сэмплов : 44.100 Гц; 16 бит; стерео
TOC извлечённого CD
Трек | Старт | Длительность | Начальный сектор |
Конечный сектор
------------------------------------------------------
---------------
1 | 0:00.33 | 6:06.37 | 33 |
27519
2 | 6:06.70 | 7:50.38 | 27520 |
62807
3 | 13:57.33 | 3:29.00 | 62808 |
78482
4 | 17:26.33 | 10:57.50 | 78483 |
127807
5 | 28:24.08 | 2:54.25 | 127808 |
140882
6 | 31:18.33 | 2:09.10 | 140883 |
150567
7 | 33:27.43 | 1:52.65 | 150568 |
159032
8 | 35:20.33 | 3:11.12 | 159033 |
173369
9 | 38:31.45 | 3:19.50 | 173370 |
188344
10 | 41:51.20 | 2:42.13 | 188345 |
200507
11 | 44:33.33 | 6:46.50 | 200508 |
231007
12 | 51:20.08 | 9:29.25 | 231008 |
273707
13 | 60:49.33 | 5:41.25 | 273708 |
299307
14 | 66:30.58 | 1:39.00 | 299308 |
306732
15 | 68:09.58 | 8:24.50 | 306733 |
344582
Характеристики диапазона извлечения и сообщения об ошибках
Выбранный диапазон
Имя файла C:\Documents and Settings\Директор\Мои
документы\Моя музыка\Grumiaux, Haskil - Beethoven - Violin
Sonatas No.8-10.wav
Пиковый уровень 97.1 %
Качество диапазона 99.9 %
CRC копии 1E7FA8A0
Копирование... OK
Ошибок не произошло
Конец отчёта

отчет EAC CD12

Exact Audio Copy V0.99 prebeta 4 from 23. January 2008
Отчёт EAC об извлечении, выполненном 24. сентября 2009,
16:51
Grumiaux, Markevitch, Bout, Concertgebouw Orchestra / Berg,
Stravinsky - Violin Concertos
Дисковод: _NEC DVD_RW ND-4550A Adapter: 3 ID: 0
Режим чтения : Достоверность
Использование точного потока : Да
Отключение кэша аудио : Да
Использование указателей C2 : Нет
Коррекция смещения при чтении : 48
Способность читать области Lead-in и Lead-out : Нет
Заполнение пропущенных сэмплов тишиной : Да
Удаление блоков с тишиной в начале и конце : Нет
При вычислениях CRC использовались нулевые сэмплы : Да
Интерфейс :
Встроенный Win32-интерфейс для Win NT/2000
Выходной формат : Внутренние WAV-операции
Формат сэмплов : 44.100 Гц; 16 бит; стерео
TOC извлечённого CD
Трек | Старт | Длительность | Начальный сектор |
Конечный сектор
------------------------------------------------------
---------------
1 | 0:00.33 | 10:24.37 | 33 |
46869
2 | 10:24.70 | 14:21.38 | 46870 |
111482
3 | 24:46.33 | 5:45.00 | 111483 |
137357
4 | 30:31.33 | 4:07.00 | 137358 |
155882
5 | 34:38.33 | 4:33.00 | 155883 |
176357
6 | 39:11.33 | 5:46.00 | 176358 |
202307
Характеристики диапазона извлечения и сообщения об ошибках
Выбранный диапазон
Имя файла C:\Documents and Settings\Директор\Мои
документы\Моя музыка\Grumiaux, Markevitch, Bout,
Concertgebouw Orchestra - Berg, Stravinsky - Violin
Concertos.wav
Пиковый уровень 93.7 %
Качество диапазона 100.0 %
CRC копии D2C2959E
Копирование... OK
Ошибок не произошло
Конец отчёта

отчет EAC CD13

Exact Audio Copy V0.99 prebeta 4 from 23. January 2008
Отчёт EAC об извлечении, выполненном 25. сентября 2009,
9:37
Bell, Dohnanyi, Cleveland Orchestra / Brahms, Schumann -
Violin Concertos
Дисковод: _NEC DVD_RW ND-4550A Adapter: 3 ID: 0
Режим чтения : Достоверность
Использование точного потока : Да
Отключение кэша аудио : Да
Использование указателей C2 : Нет
Коррекция смещения при чтении : 48
Способность читать области Lead-in и Lead-out : Нет
Заполнение пропущенных сэмплов тишиной : Да
Удаление блоков с тишиной в начале и конце : Нет
При вычислениях CRC использовались нулевые сэмплы : Да
Интерфейс :
Встроенный Win32-интерфейс для Win NT/2000
Выходной формат : Внутренние WAV-операции
Формат сэмплов : 44.100 Гц; 16 бит; стерео
TOC извлечённого CD
Трек | Старт | Длительность | Начальный сектор |
Конечный сектор
------------------------------------------------------
---------------
1 | 0:00.33 | 22:50.25 | 33 |
102807
2 | 22:50.58 | 9:15.00 | 102808 |
144432
3 | 32:05.58 | 8:14.12 | 144433 |
181494
4 | 40:19.70 | 13:31.38 | 181495 |
242357
5 | 53:51.33 | 5:55.05 | 242358 |
268987
6 | 59:46.38 | 8:14.08 | 268988 |
306045
Характеристики диапазона извлечения и сообщения об ошибках
Выбранный диапазон
Имя файла C:\Documents and Settings\Директор\Мои
документы\Моя музыка\Bell, Dohnanyi, Cleveland Orchestra -
Brahms, Schumann - Violin Concertos.wav
Пиковый уровень 100.0 %
Качество диапазона 100.0 %
CRC копии BDCAA95C
Копирование... OK
Ошибок не произошло
Конец отчёта

отчет EAC CD14

Exact Audio Copy V0.99 prebeta 4 from 23. January 2008
Отчёт EAC об извлечении, выполненном 25. сентября 2009,
9:59
Amoyal, Roge / Brahms - 3 Violin Sonatas
Дисковод: _NEC DVD_RW ND-4550A Adapter: 3 ID: 0
Режим чтения : Достоверность
Использование точного потока : Да
Отключение кэша аудио : Да
Использование указателей C2 : Нет
Коррекция смещения при чтении : 48
Способность читать области Lead-in и Lead-out : Нет
Заполнение пропущенных сэмплов тишиной : Да
Удаление блоков с тишиной в начале и конце : Нет
При вычислениях CRC использовались нулевые сэмплы : Да
Интерфейс :
Встроенный Win32-интерфейс для Win NT/2000
Выходной формат : Внутренние WAV-операции
Формат сэмплов : 44.100 Гц; 16 бит; стерео
TOC извлечённого CD
Трек | Старт | Длительность | Начальный сектор |
Конечный сектор
------------------------------------------------------
---------------
1 | 0:00.33 | 5:23.12 | 33 |
24269
2 | 5:23.45 | 10:45.63 | 24270 |
72707
3 | 16:09.33 | 8:03.62 | 72708 |
108994
4 | 24:13.20 | 8:31.25 | 108995 |
147344
5 | 32:44.45 | 8:25.13 | 147345 |
185232
6 | 41:09.58 | 6:28.12 | 185233 |
214344
7 | 47:37.70 | 5:35.25 | 214345 |
239494
8 | 53:13.20 | 8:13.63 | 239495 |
276532
9 | 61:27.08 | 4:37.25 | 276533 |
297332
10 | 66:04.33 | 3:00.12 | 297333 |
310844
11 | 69:04.45 | 5:50.50 | 310845 |
337144
Характеристики диапазона извлечения и сообщения об ошибках
Выбранный диапазон
Имя файла C:\Documents and Settings\Директор\Мои
документы\Моя музыка\Amoyal, Roge - Brahms - 3 Violin
Sonatas.wav
Пиковый уровень 82.4 %
Качество диапазона 100.0 %
CRC копии A5CF7111
Копирование... OK
Ошибок не произошло
Конец отчёта

отчет EAC CD15

Exact Audio Copy V0.99 prebeta 4 from 23. January 2008
Отчёт EAC об извлечении, выполненном 25. сентября 2009,
10:28
Suwanai, Marriner, Academy of St Martin in the Fields /
Bruch - Violin Concerto No.1, Scottish Fantasy
Дисковод: _NEC DVD_RW ND-4550A Adapter: 3 ID: 0
Режим чтения : Достоверность
Использование точного потока : Да
Отключение кэша аудио : Да
Использование указателей C2 : Нет
Коррекция смещения при чтении : 48
Способность читать области Lead-in и Lead-out : Нет
Заполнение пропущенных сэмплов тишиной : Да
Удаление блоков с тишиной в начале и конце : Нет
При вычислениях CRC использовались нулевые сэмплы : Да
Интерфейс :
Встроенный Win32-интерфейс для Win NT/2000
Выходной формат : Внутренние WAV-операции
Формат сэмплов : 44.100 Гц; 16 бит; стерео
TOC извлечённого CD
Трек | Старт | Длительность | Начальный сектор |
Конечный сектор
------------------------------------------------------
---------------
1 | 0:00.32 | 8:35.68 | 32 |
38724
2 | 8:36.25 | 8:29.45 | 38725 |
76944
3 | 17:05.70 | 7:19.00 | 76945 |
109869
4 | 24:24.70 | 3:36.67 | 109870 |
126136
5 | 28:01.62 | 4:45.08 | 126137 |
147519
6 | 32:46.70 | 5:57.50 | 147520 |
174344
7 | 38:44.45 | 5:58.25 | 174345 |
201219
8 | 44:42.70 | 8:16.00 | 201220 |
238419
Характеристики диапазона извлечения и сообщения об ошибках
Выбранный диапазон
Имя файла C:\Documents and Settings\Директор\Мои
документы\Моя музыка\Suwanai, Marriner, Academy of St
Martin in the Fields - Bruch - Violin Concerto No.1,
Scottish Fantasy.wav
Пиковый уровень 99.1 %
Качество диапазона 100.0 %
CRC копии 54A3ECB9
Копирование... OK
Ошибок не произошло
Конец отчёта

отчет EAC CD16

Exact Audio Copy V0.99 prebeta 4 from 23. January 2008
Отчёт EAC об извлечении, выполненном 25. сентября 2009,
10:47
Suwanai, Fischer, Budapest Festival Orch. / Dvorak - Violin
Concerto, Sarasate - Carmen Fantasy
Дисковод: _NEC DVD_RW ND-4550A Adapter: 3 ID: 0
Режим чтения : Достоверность
Использование точного потока : Да
Отключение кэша аудио : Да
Использование указателей C2 : Нет
Коррекция смещения при чтении : 48
Способность читать области Lead-in и Lead-out : Нет
Заполнение пропущенных сэмплов тишиной : Да
Удаление блоков с тишиной в начале и конце : Нет
При вычислениях CRC использовались нулевые сэмплы : Да
Интерфейс :
Встроенный Win32-интерфейс для Win NT/2000
Выходной формат : Внутренние WAV-операции
Формат сэмплов : 44.100 Гц; 16 бит; стерео
TOC извлечённого CD
Трек | Старт | Длительность | Начальный сектор |
Конечный сектор
------------------------------------------------------
---------------
1 | 0:00.42 | 7:55.00 | 42 |
35666
2 | 7:55.42 | 11:46.00 | 35667 |
88616
3 | 19:41.42 | 6:09.00 | 88617 |
116291
4 | 25:50.42 | 11:03.08 | 116292 |
166024
5 | 36:53.50 | 9:16.67 | 166025 |
207791
6 | 46:10.42 | 9:17.00 | 207792 |
249566
Характеристики диапазона извлечения и сообщения об ошибках
Выбранный диапазон
Имя файла C:\Documents and Settings\Директор\Мои
документы\Моя музыка\Suwanai, Fischer, Budapest Festival
Orch. - Dvorak - Violin Concerto, Sarasate - Carmen
Fantasy.wav
Пиковый уровень 100.0 %
Качество диапазона 100.0 %
CRC копии 52FA5E1C
Копирование... OK
Ошибок не произошло
Конец отчёта

отчет EAC CD17

Exact Audio Copy V0.99 prebeta 4 from 23. January 2008
Отчёт EAC об извлечении, выполненном 25. сентября 2009,
11:08
Kyung Wha Chung, Solti, London PhilhOrch / Elgar - Violin
Concerto
Дисковод: _NEC DVD_RW ND-4550A Adapter: 3 ID: 0
Режим чтения : Достоверность
Использование точного потока : Да
Отключение кэша аудио : Да
Использование указателей C2 : Нет
Коррекция смещения при чтении : 48
Способность читать области Lead-in и Lead-out : Нет
Заполнение пропущенных сэмплов тишиной : Да
Удаление блоков с тишиной в начале и конце : Нет
При вычислениях CRC использовались нулевые сэмплы : Да
Интерфейс :
Встроенный Win32-интерфейс для Win NT/2000
Выходной формат : Внутренние WAV-операции
Формат сэмплов : 44.100 Гц; 16 бит; стерео
TOC извлечённого CD
Трек | Старт | Длительность | Начальный сектор |
Конечный сектор
------------------------------------------------------
---------------
1 | 0:00.33 | 18:05.25 | 33 |
81432
2 | 18:05.58 | 12:32.50 | 81433 |
137882
3 | 30:38.33 | 19:02.50 | 137883 |
223582
4 | 49:41.08 | 2:58.62 | 223583 |
236994
5 | 52:39.70 | 4:30.38 | 236995 |
257282
Характеристики диапазона извлечения и сообщения об ошибках
Выбранный диапазон
Имя файла C:\Documents and Settings\Директор\Мои
документы\Моя музыка\Kyung Wha Chung, Solti, London
PhilhOrch - Elgar - Violin Concerto.wav
Пиковый уровень 90.9 %
Качество диапазона 100.0 %
CRC копии 6488210B
Копирование... OK
Ошибок не произошло
Конец отчёта

отчет EAC CD18

Exact Audio Copy V0.99 prebeta 4 from 23. January 2008
Отчёт EAC об извлечении, выполненном 25. сентября 2009,
11:29
Grumiaux, Sebok / Faure, Franck - Violin Sonatas
Дисковод: _NEC DVD_RW ND-4550A Adapter: 3 ID: 0
Режим чтения : Достоверность
Использование точного потока : Да
Отключение кэша аудио : Да
Использование указателей C2 : Нет
Коррекция смещения при чтении : 48
Способность читать области Lead-in и Lead-out : Нет
Заполнение пропущенных сэмплов тишиной : Да
Удаление блоков с тишиной в начале и конце : Нет
При вычислениях CRC использовались нулевые сэмплы : Да
Интерфейс :
Встроенный Win32-интерфейс для Win NT/2000
Выходной формат : Внутренние WAV-операции
Формат сэмплов : 44.100 Гц; 16 бит; стерео
TOC извлечённого CD
Трек | Старт | Длительность | Начальный сектор |
Конечный сектор
------------------------------------------------------
---------------
1 | 0:00.33 | 7:26.00 | 33 |
33482
2 | 7:26.33 | 6:51.00 | 33483 |
64307
3 | 14:17.33 | 3:49.00 | 64308 |
81482
4 | 18:06.33 | 5:18.00 | 81483 |
105332
5 | 23:24.33 | 8:20.00 | 105333 |
142832
6 | 31:44.33 | 7:26.00 | 142833 |
176282
7 | 39:10.33 | 6:14.00 | 176283 |
204332
8 | 45:24.33 | 5:55.00 | 204333 |
230957
9 | 51:19.33 | 8:12.00 | 230958 |
267857
10 | 59:31.33 | 6:52.00 | 267858 |
298757
11 | 66:23.33 | 6:19.00 | 298758 |
327182
Характеристики диапазона извлечения и сообщения об ошибках
Выбранный диапазон
Имя файла C:\Documents and Settings\Директор\Мои
документы\Моя музыка\Grumiaux, Sebok - Faure, Franck -
Violin Sonatas.wav
Пиковый уровень 96.0 %
Качество диапазона 100.0 %
CRC копии D9FFDDE5
Копирование... OK
Ошибок не произошло
Конец отчёта

отчет EAC CD19

Exact Audio Copy V0.99 prebeta 4 from 23. January 2008
Отчёт EAC об извлечении, выполненном 25. сентября 2009,
11:53
Henryk Szeryng / Kreisler - Violin Favourites
Дисковод: _NEC DVD_RW ND-4550A Adapter: 3 ID: 0
Режим чтения : Достоверность
Использование точного потока : Да
Отключение кэша аудио : Да
Использование указателей C2 : Нет
Коррекция смещения при чтении : 48
Способность читать области Lead-in и Lead-out : Нет
Заполнение пропущенных сэмплов тишиной : Да
Удаление блоков с тишиной в начале и конце : Нет
При вычислениях CRC использовались нулевые сэмплы : Да
Интерфейс :
Встроенный Win32-интерфейс для Win NT/2000
Выходной формат : Внутренние WAV-операции
Формат сэмплов : 44.100 Гц; 16 бит; стерео
TOC извлечённого CD
Трек | Старт | Длительность | Начальный сектор |
Конечный сектор
------------------------------------------------------
---------------
1 | 0:00.33 | 4:19.12 | 33 |
19469
2 | 4:19.45 | 1:55.55 | 19470 |
28149
3 | 6:15.25 | 3:37.18 | 28150 |
44442
4 | 9:52.43 | 3:43.52 | 44443 |
61219
5 | 13:36.20 | 4:56.13 | 61220 |
83432
6 | 18:32.33 | 3:32.00 | 83433 |
99332
7 | 22:04.33 | 5:22.35 | 99333 |
123517
8 | 27:26.68 | 3:42.15 | 123518 |
140182
9 | 31:09.08 | 3:44.10 | 140183 |
156992
10 | 34:53.18 | 3:26.70 | 156993 |
172512
11 | 38:20.13 | 3:40.57 | 172513 |
189069
12 | 42:00.70 | 2:32.50 | 189070 |
200519
13 | 44:33.45 | 2:30.35 | 200520 |
211804
14 | 47:04.05 | 3:38.45 | 211805 |
228199
15 | 50:42.50 | 2:03.35 | 228200 |
237459
16 | 52:46.10 | 2:27.70 | 237460 |
248554
17 | 55:14.05 | 3:05.25 | 248555 |
262454
18 | 58:19.30 | 3:05.18 | 262455 |
276347
19 | 61:24.48 | 3:01.70 | 276348 |
289992
Характеристики диапазона извлечения и сообщения об ошибках
Выбранный диапазон
Имя файла C:\Documents and Settings\Директор\Мои
документы\Моя музыка\Henryk Szeryng - Kreisler - Violin
Favourites.wav
Пиковый уровень 83.2 %
Качество диапазона 99.9 %
CRC копии ECEB4134
Копирование... OK
Ошибок не произошло
Конец отчёта

отчет EAC CD20

Exact Audio Copy V0.99 prebeta 4 from 23. January 2008
Отчёт EAC об извлечении, выполненном 25. сентября 2009,
12:14
Josefowicz, Dutoit, Orchestre Symphonique de Montreal /
Mendelssohn, Glazunov - Violin Concertos
Дисковод: _NEC DVD_RW ND-4550A Adapter: 3 ID: 0
Режим чтения : Достоверность
Использование точного потока : Да
Отключение кэша аудио : Да
Использование указателей C2 : Нет
Коррекция смещения при чтении : 48
Способность читать области Lead-in и Lead-out : Нет
Заполнение пропущенных сэмплов тишиной : Да
Удаление блоков с тишиной в начале и конце : Нет
При вычислениях CRC использовались нулевые сэмплы : Да
Интерфейс :
Встроенный Win32-интерфейс для Win NT/2000
Выходной формат : Внутренние WAV-операции
Формат сэмплов : 44.100 Гц; 16 бит; стерео
TOC извлечённого CD
Трек | Старт | Длительность | Начальный сектор |
Конечный сектор
------------------------------------------------------
---------------
1 | 0:00.33 | 14:07.30 | 33 |
63587
2 | 14:07.63 | 8:41.20 | 63588 |
102682
3 | 22:49.08 | 7:04.62 | 102683 |
134544
4 | 29:53.70 | 6:16.00 | 134545 |
162744
5 | 36:09.70 | 4:39.25 | 162745 |
183694
6 | 40:49.20 | 11:00.68 | 183695 |
233262
7 | 51:50.13 | 5:48.20 | 233263 |
259382
Характеристики диапазона извлечения и сообщения об ошибках
Выбранный диапазон
Имя файла C:\Documents and Settings\Директор\Мои
документы\Моя музыка\Josefowicz, Dutoit, Orchestre
Symphonique de Montreal - Mendelssohn, Glazunov - Violin
Concertos.wav
Пиковый уровень 97.9 %
Качество диапазона 99.9 %
CRC копии 6D4882C6
Копирование... OK
Ошибок не произошло
Конец отчёта

отчет EAC CD21

Exact Audio Copy V0.99 prebeta 4 from 23. January 2008
Отчёт EAC об извлечении, выполненном 25. сентября 2009,
12:35
Grumiaux, Davis, LSO / Mozart - Violin Concertos No.1-3
Дисковод: _NEC DVD_RW ND-4550A Adapter: 3 ID: 0
Режим чтения : Достоверность
Использование точного потока : Да
Отключение кэша аудио : Да
Использование указателей C2 : Нет
Коррекция смещения при чтении : 48
Способность читать области Lead-in и Lead-out : Нет
Заполнение пропущенных сэмплов тишиной : Да
Удаление блоков с тишиной в начале и конце : Нет
При вычислениях CRC использовались нулевые сэмплы : Да
Интерфейс :
Встроенный Win32-интерфейс для Win NT/2000
Выходной формат : Внутренние WAV-операции
Формат сэмплов : 44.100 Гц; 16 бит; стерео
TOC извлечённого CD
Трек | Старт | Длительность | Начальный сектор |
Конечный сектор
------------------------------------------------------
---------------
1 | 0:00.33 | 6:35.25 | 33 |
29682
2 | 6:35.58 | 6:57.00 | 29683 |
60957
3 | 13:32.58 | 5:20.00 | 60958 |
84957
4 | 18:52.58 | 8:43.00 | 84958 |
124182
5 | 27:35.58 | 7:37.00 | 124183 |
158457
6 | 35:12.58 | 5:45.00 | 158458 |
184332
7 | 40:57.58 | 9:01.00 | 184333 |
224907
8 | 49:58.58 | 6:54.00 | 224908 |
255957
9 | 56:52.58 | 7:01.00 | 255958 |
287532
10 | 63:53.58 | 7:28.00 | 287533 |
321132
11 | 71:21.58 | 5:02.00 | 321133 |
343782
Характеристики диапазона извлечения и сообщения об ошибках
Выбранный диапазон
Имя файла C:\Documents and Settings\Директор\Мои
документы\Моя музыка\Grumiaux, Davis, LSO - Mozart - Violin
Concertos No.wav
Пиковый уровень 100.0 %
Качество диапазона 100.0 %
CRC копии 3DDBCF86
Копирование... OK
Ошибок не произошло
Конец отчёта

отчет EAC CD22

Exact Audio Copy V0.99 prebeta 4 from 23. January 2008
Отчёт EAC об извлечении, выполненном 25. сентября 2009,
12:59
Grumiaux, Davis, LSO / Mozart - Violin Concertos No.2 & 5,
Sinfonia concertante
Дисковод: _NEC DVD_RW ND-4550A Adapter: 3 ID: 0
Режим чтения : Достоверность
Использование точного потока : Да
Отключение кэша аудио : Да
Использование указателей C2 : Нет
Коррекция смещения при чтении : 48
Способность читать области Lead-in и Lead-out : Нет
Заполнение пропущенных сэмплов тишиной : Да
Удаление блоков с тишиной в начале и конце : Нет
При вычислениях CRC использовались нулевые сэмплы : Да
Интерфейс :
Встроенный Win32-интерфейс для Win NT/2000
Выходной формат : Внутренние WAV-операции
Формат сэмплов : 44.100 Гц; 16 бит; стерео
TOC извлечённого CD
Трек | Старт | Длительность | Начальный сектор |
Конечный сектор
------------------------------------------------------
---------------
1 | 0:00.33 | 8:17.37 | 33 |
37344
2 | 8:17.70 | 6:34.00 | 37345 |
66894
3 | 14:51.70 | 4:05.00 | 66895 |
85269
4 | 18:56.70 | 9:18.00 | 85270 |
127119
5 | 28:14.70 | 9:42.00 | 127120 |
170769
6 | 37:56.70 | 8:15.00 | 170770 |
207894
7 | 46:11.70 | 13:13.00 | 207895 |
267369
8 | 59:24.70 | 11:18.00 | 267370 |
318219
9 | 70:42.70 | 6:19.00 | 318220 |
346644
Характеристики диапазона извлечения и сообщения об ошибках
Выбранный диапазон
Имя файла C:\Documents and Settings\Директор\Мои
документы\Моя музыка\Grumiaux, Davis, LSO - Mozart - Violin
Concertos No.2 & 5, Sinfonia concertante.wav
Пиковый уровень 97.3 %
Качество диапазона 100.0 %
CRC копии 2FE77F0D
Копирование... OK
Ошибок не произошло
Конец отчёта

отчет EAC CD23

Exact Audio Copy V0.99 prebeta 4 from 23. January 2008
Отчёт EAC об извлечении, выполненном 25. сентября 2009,
13:24
Szeryng, Haebler / Mozart - Violin Sonatas1
Дисковод: _NEC DVD_RW ND-4550A Adapter: 3 ID: 0
Режим чтения : Достоверность
Использование точного потока : Да
Отключение кэша аудио : Да
Использование указателей C2 : Нет
Коррекция смещения при чтении : 48
Способность читать области Lead-in и Lead-out : Нет
Заполнение пропущенных сэмплов тишиной : Да
Удаление блоков с тишиной в начале и конце : Нет
При вычислениях CRC использовались нулевые сэмплы : Да
Интерфейс :
Встроенный Win32-интерфейс для Win NT/2000
Выходной формат : Внутренние WAV-операции
Формат сэмплов : 44.100 Гц; 16 бит; стерео
TOC извлечённого CD
Трек | Старт | Длительность | Начальный сектор |
Конечный сектор
------------------------------------------------------
---------------
1 | 0:00.33 | 6:41.00 | 33 |
30107
2 | 6:41.33 | 5:36.00 | 30108 |
55307
3 | 12:17.33 | 4:42.00 | 55308 |
76457
4 | 16:59.33 | 8:04.00 | 76458 |
112757
5 | 25:03.33 | 5:15.00 | 112758 |
136382
6 | 30:18.33 | 5:38.00 | 136383 |
161732
7 | 35:56.33 | 6:46.00 | 161733 |
192182
8 | 42:42.33 | 5:15.00 | 192183 |
215807
9 | 47:57.33 | 4:37.00 | 215808 |
236582
10 | 52:34.33 | 6:45.00 | 236583 |
266957
11 | 59:19.33 | 5:13.00 | 266958 |
290432
12 | 64:32.33 | 14:20.00 | 290433 |
354932
Характеристики диапазона извлечения и сообщения об ошибках
Выбранный диапазон
Имя файла C:\Documents and Settings\Директор\Мои
документы\Моя музыка\Szeryng, Haebler - Mozart - Violin
Sonatas1.wav
Пиковый уровень 100.0 %
Качество диапазона 100.0 %
CRC копии 0A44A56B
Копирование... OK
Ошибок не произошло
Конец отчёта

отчет EAC CD24

Exact Audio Copy V0.99 prebeta 4 from 23. January 2008
Отчёт EAC об извлечении, выполненном 28. сентября 2009,
9:37
Szeryng, Haebler / Mozart - Violin Sonatas2
Дисковод: _NEC DVD_RW ND-4550A Adapter: 3 ID: 0
Режим чтения : Достоверность
Использование точного потока : Да
Отключение кэша аудио : Да
Использование указателей C2 : Нет
Коррекция смещения при чтении : 48
Способность читать области Lead-in и Lead-out : Нет
Заполнение пропущенных сэмплов тишиной : Да
Удаление блоков с тишиной в начале и конце : Нет
При вычислениях CRC использовались нулевые сэмплы : Да
Интерфейс :
Встроенный Win32-интерфейс для Win NT/2000
Выходной формат : Внутренние WAV-операции
Формат сэмплов : 44.100 Гц; 16 бит; стерео
TOC извлечённого CD
Трек | Старт | Длительность | Начальный сектор |
Конечный сектор
------------------------------------------------------
---------------
1 | 0:00.33 | 4:47.00 | 33 |
21557
2 | 4:47.33 | 9:41.00 | 21558 |
65132
3 | 14:28.33 | 7:45.00 | 65133 |
100007
4 | 22:13.33 | 7:17.00 | 100008 |
132782
5 | 29:30.33 | 7:03.00 | 132783 |
164507
6 | 36:33.33 | 4:50.00 | 164508 |
186257
7 | 41:23.33 | 4:58.00 | 186258 |
208607
8 | 46:21.33 | 6:06.00 | 208608 |
236057
9 | 52:27.33 | 4:32.00 | 236058 |
256457
10 | 56:59.33 | 9:06.00 | 256458 |
297407
11 | 66:05.33 | 5:43.00 | 297408 |
323132
Характеристики диапазона извлечения и сообщения об ошибках
Выбранный диапазон
Имя файла C:\Documents and Settings\Директор\Мои
документы\Моя музыка\Szeryng, Haebler - Mozart - Violin
Sonatas2.wav
Пиковый уровень 92.9 %
Качество диапазона 100.0 %
CRC копии 0AA755DF
Копирование... OK
Ошибок не произошло
Конец отчёта

отчет EAC CD25

Exact Audio Copy V0.99 prebeta 4 from 23. January 2008
Отчёт EAC об извлечении, выполненном 28. сентября 2009,
9:59
Szeryng, Haebler / Mozart - Violin Sonatas3
Дисковод: _NEC DVD_RW ND-4550A Adapter: 3 ID: 0
Режим чтения : Достоверность
Использование точного потока : Да
Отключение кэша аудио : Да
Использование указателей C2 : Нет
Коррекция смещения при чтении : 48
Способность читать области Lead-in и Lead-out : Нет
Заполнение пропущенных сэмплов тишиной : Да
Удаление блоков с тишиной в начале и конце : Нет
При вычислениях CRC использовались нулевые сэмплы : Да
Интерфейс :
Встроенный Win32-интерфейс для Win NT/2000
Выходной формат : Внутренние WAV-операции
Формат сэмплов : 44.100 Гц; 16 бит; стерео
TOC извлечённого CD
Трек | Старт | Длительность | Начальный сектор |
Конечный сектор
------------------------------------------------------
---------------
1 | 0:00.32 | 9:03.00 | 32 |
40756
2 | 9:03.32 | 5:51.00 | 40757 |
67081
3 | 14:54.32 | 4:23.00 | 67082 |
86806
4 | 19:17.32 | 8:15.00 | 86807 |
123931
5 | 27:32.32 | 9:20.00 | 123932 |
165931
6 | 36:52.32 | 6:45.00 | 165932 |
196306
7 | 43:37.32 | 7:34.00 | 196307 |
230356
8 | 51:11.32 | 4:30.00 | 230357 |
250606
9 | 55:41.32 | 7:33.00 | 250607 |
284581
10 | 63:14.32 | 7:42.00 | 284582 |
319231
11 | 70:56.32 | 6:47.00 | 319232 |
349756
Характеристики диапазона извлечения и сообщения об ошибках
Выбранный диапазон
Имя файла C:\Documents and Settings\Директор\Мои
документы\Моя музыка\Szeryng, Haebler - Mozart - Violin
Sonatas3.wav
Пиковый уровень 93.7 %
Качество диапазона 100.0 %
CRC копии B959777D
Копирование... OK
Ошибок не произошло
Конец отчёта

отчет EAC CD26

Exact Audio Copy V0.99 prebeta 4 from 23. January 2008
Отчёт EAC об извлечении, выполненном 28. сентября 2009,
10:47
Szeryng, Haebler / Mozart - The Violin Sonatas4
Дисковод: _NEC DVD_RW ND-4550A Adapter: 3 ID: 0
Режим чтения : Достоверность
Использование точного потока : Да
Отключение кэша аудио : Да
Использование указателей C2 : Нет
Коррекция смещения при чтении : 48
Способность читать области Lead-in и Lead-out : Нет
Заполнение пропущенных сэмплов тишиной : Да
Удаление блоков с тишиной в начале и конце : Нет
При вычислениях CRC использовались нулевые сэмплы : Да
Интерфейс :
Встроенный Win32-интерфейс для Win NT/2000
Выходной формат : Внутренние WAV-операции
Формат сэмплов : 44.100 Гц; 16 бит; стерео
TOC извлечённого CD
Трек | Старт | Длительность | Начальный сектор |
Конечный сектор
------------------------------------------------------
---------------
1 | 0:00.32 | 7:21.00 | 32 |
33106
2 | 7:21.32 | 7:17.00 | 33107 |
65881
3 | 14:38.32 | 8:15.00 | 65882 |
103006
4 | 22:53.32 | 6:44.00 | 103007 |
133306
5 | 29:37.32 | 10:52.00 | 133307 |
182206
6 | 40:29.32 | 7:15.00 | 182207 |
214831
7 | 47:44.32 | 4:07.00 | 214832 |
233356
8 | 51:51.32 | 6:36.00 | 233357 |
263056
9 | 58:27.32 | 7:40.00 | 263057 |
297556
10 | 66:07.32 | 10:38.00 | 297557 |
345406
Характеристики диапазона извлечения и сообщения об ошибках
Выбранный диапазон
Имя файла C:\Documents and Settings\Директор\Мои
документы\Моя музыка\Szeryng, Haebler - Mozart - The Violin
Sonatas4.wav
Пиковый уровень 100.0 %
Качество диапазона 100.0 %
CRC копии D98BADCA
Копирование... OK
Ошибок не произошло
Конец отчёта

отчет EAC CD27

Exact Audio Copy V0.99 prebeta 4 from 23. January 2008
Отчёт EAC об извлечении, выполненном 28. сентября 2009,
11:15
Szeryng, Gibson, London SO / Paganini - Violin Concertos
Nos.1,4
Дисковод: _NEC DVD_RW ND-4550A Adapter: 3 ID: 0
Режим чтения : Достоверность
Использование точного потока : Да
Отключение кэша аудио : Да
Использование указателей C2 : Нет
Коррекция смещения при чтении : 48
Способность читать области Lead-in и Lead-out : Нет
Заполнение пропущенных сэмплов тишиной : Да
Удаление блоков с тишиной в начале и конце : Нет
При вычислениях CRC использовались нулевые сэмплы : Да
Интерфейс :
Встроенный Win32-интерфейс для Win NT/2000
Выходной формат : Внутренние WAV-операции
Формат сэмплов : 44.100 Гц; 16 бит; стерео
TOC извлечённого CD
Трек | Старт | Длительность | Начальный сектор |
Конечный сектор
------------------------------------------------------
---------------
1 | 0:00.33 | 18:37.00 | 33 |
83807
2 | 18:37.33 | 5:16.00 | 83808 |
107507
3 | 23:53.33 | 7:48.00 | 107508 |
142607
4 | 31:41.33 | 16:17.00 | 142608 |
215882
5 | 47:58.33 | 5:34.00 | 215883 |
240932
6 | 53:32.33 | 8:35.00 | 240933 |
279557
Характеристики диапазона извлечения и сообщения об ошибках
Выбранный диапазон
Имя файла C:\Documents and Settings\Директор\Мои
документы\Моя музыка\Szeryng, Gibson, London SO - Paganini
- Violin Concertos Nos.wav
Пиковый уровень 95.0 %
Качество диапазона 99.9 %
CRC копии 8CE986E2
Копирование... OK
Ошибок не произошло
Конец отчёта

отчет EAC CD28

Exact Audio Copy V0.99 prebeta 4 from 23. January 2008
Отчёт EAC об извлечении, выполненном 28. сентября 2009,
11:37
Ricci / Paganini - 24 Caprices for solo violin
Дисковод: _NEC DVD_RW ND-4550A Adapter: 3 ID: 0
Режим чтения : Достоверность
Использование точного потока : Да
Отключение кэша аудио : Да
Использование указателей C2 : Нет
Коррекция смещения при чтении : 48
Способность читать области Lead-in и Lead-out : Нет
Заполнение пропущенных сэмплов тишиной : Да
Удаление блоков с тишиной в начале и конце : Нет
При вычислениях CRC использовались нулевые сэмплы : Да
Интерфейс :
Встроенный Win32-интерфейс для Win NT/2000
Выходной формат : Внутренние WAV-операции
Формат сэмплов : 44.100 Гц; 16 бит; стерео
TOC извлечённого CD
Трек | Старт | Длительность | Начальный сектор |
Конечный сектор
------------------------------------------------------
---------------
1 | 0:00.32 | 1:44.70 | 32 |
7901
2 | 1:45.27 | 2:53.55 | 7902 |
20931
3 | 4:39.07 | 2:50.25 | 20932 |
33706
4 | 7:29.32 | 5:29.00 | 33707 |
58381
5 | 12:58.32 | 2:20.70 | 58382 |
68951
6 | 15:19.27 | 5:31.10 | 68952 |
93786
7 | 20:50.37 | 2:54.15 | 93787 |
106851
8 | 23:44.52 | 2:35.33 | 106852 |
118509
9 | 26:20.10 | 2:24.35 | 118510 |
129344
10 | 28:44.45 | 1:56.42 | 129345 |
138086
11 | 30:41.12 | 4:04.45 | 138087 |
156431
12 | 34:45.57 | 2:37.60 | 156432 |
168266
13 | 37:23.42 | 2:21.00 | 168267 |
178841
14 | 39:44.42 | 1:32.60 | 178842 |
185801
15 | 41:17.27 | 2:22.68 | 185802 |
196519
16 | 43:40.20 | 1:14.55 | 196520 |
202124
17 | 44:55.00 | 2:43.55 | 202125 |
214404
18 | 47:38.55 | 1:53.37 | 214405 |
222916
19 | 49:32.17 | 2:36.60 | 222917 |
234676
20 | 52:09.02 | 3:37.30 | 234677 |
250981
21 | 55:46.32 | 2:59.28 | 250982 |
264434
22 | 58:45.60 | 2:40.40 | 264435 |
276474
23 | 61:26.25 | 3:26.45 | 276475 |
291969
24 | 64:52.70 | 5:26.57 | 291970 |
316476
Характеристики диапазона извлечения и сообщения об ошибках
Выбранный диапазон
Имя файла C:\Documents and Settings\Директор\Мои
документы\Моя музыка\Ricci - Paganini - 24 Caprices for
solo violin.wav
Пиковый уровень 92.8 %
Качество диапазона 100.0 %
CRC копии 2B3E0146
Копирование... OK
Ошибок не произошло
Конец отчёта

отчет EAC CD29

Exact Audio Copy V0.99 prebeta 4 from 23. January 2008
Отчёт EAC об извлечении, выполненном 28. сентября 2009,
14:06
Josefowicz / Prokofiev - Violin Concertos No.1, 2
Дисковод: _NEC DVD_RW ND-4550A Adapter: 3 ID: 0
Режим чтения : Достоверность
Использование точного потока : Да
Отключение кэша аудио : Да
Использование указателей C2 : Нет
Коррекция смещения при чтении : 48
Способность читать области Lead-in и Lead-out : Нет
Заполнение пропущенных сэмплов тишиной : Да
Удаление блоков с тишиной в начале и конце : Нет
При вычислениях CRC использовались нулевые сэмплы : Да
Интерфейс :
Встроенный Win32-интерфейс для Win NT/2000
Выходной формат : Внутренние WAV-операции
Формат сэмплов : 44.100 Гц; 16 бит; стерео
TOC извлечённого CD
Трек | Старт | Длительность | Начальный сектор |
Конечный сектор
------------------------------------------------------
---------------
1 | 0:00.00 | 9:39.46 | 0 |
43470
2 | 9:39.46 | 4:01.14 | 43471 |
61559
3 | 13:40.60 | 9:01.23 | 61560 |
102157
4 | 22:42.08 | 9:24.05 | 102158 |
144462
5 | 32:06.13 | 11:01.22 | 144463 |
194059
6 | 43:07.35 | 10:56.73 | 194060 |
243332
7 | 54:04.33 | 6:21.35 | 243333 |
271942
Характеристики диапазона извлечения и сообщения об ошибках
Выбранный диапазон
Имя файла C:\Documents and Settings\Директор\Мои
документы\Моя музыка\Josefowicz - Prokofiev - Violin
Concertos No.1, 2.wav
Пиковый уровень 100.0 %
Качество диапазона 100.0 %
CRC копии 7DD72764
Копирование... OK
Ошибок не произошло
Конец отчёта

отчет EAC CD30

Exact Audio Copy V0.99 prebeta 4 from 23. January 2008
Отчёт EAC об извлечении, выполненном 28. сентября 2009,
14:25
Juillet-Roge-Mork / Ravel
Дисковод: _NEC DVD_RW ND-4550A Adapter: 3 ID: 0
Режим чтения : Достоверность
Использование точного потока : Да
Отключение кэша аудио : Да
Использование указателей C2 : Нет
Коррекция смещения при чтении : 48
Способность читать области Lead-in и Lead-out : Нет
Заполнение пропущенных сэмплов тишиной : Да
Удаление блоков с тишиной в начале и конце : Нет
При вычислениях CRC использовались нулевые сэмплы : Да
Интерфейс :
Встроенный Win32-интерфейс для Win NT/2000
Выходной формат : Внутренние WAV-операции
Формат сэмплов : 44.100 Гц; 16 бит; стерео
TOC извлечённого CD
Трек | Старт | Длительность | Начальный сектор |
Конечный сектор
------------------------------------------------------
---------------
1 | 0:00.00 | 10:29.62 | 0 |
47236
2 | 10:29.62 | 3:36.13 | 47237 |
63449
3 | 14:06.00 | 16:04.50 | 63450 |
135799
4 | 30:10.50 | 3:03.12 | 135800 |
149536
5 | 33:13.62 | 5:27.13 | 149537 |
174074
6 | 38:41.00 | 3:28.00 | 174075 |
189674
7 | 42:09.00 | 6:40.37 | 189675 |
219711
8 | 48:49.37 | 5:47.25 | 219712 |
245761
9 | 54:36.62 | 5:38.63 | 245762 |
271174
10 | 60:15.50 | 8:33.61 | 271175 |
309710
11 | 68:49.36 | 5:29.51 | 309711 |
334436
12 | 74:19.12 | 3:57.63 | 334437 |
352274
Характеристики диапазона извлечения и сообщения об ошибках
Выбранный диапазон
Имя файла C:\Documents and Settings\Директор\Мои
документы\Моя музыка\Juillet-Roge-Mork - Ravel.wav
Пиковый уровень 98.4 %
Качество диапазона 100.0 %
CRC копии 64BA8AED
Копирование... OK
Ошибок не произошло
Конец отчёта

отчет EAC CD31

Exact Audio Copy V0.99 prebeta 4 from 23. January 2008
Отчёт EAC об извлечении, выполненном 28. сентября 2009,
14:46
Kyung Wha Chung, Foster, Dutoit, LSO / Saint-Saens,
Viuextemps - Violin Concertos
Дисковод: _NEC DVD_RW ND-4550A Adapter: 3 ID: 0
Режим чтения : Достоверность
Использование точного потока : Да
Отключение кэша аудио : Да
Использование указателей C2 : Нет
Коррекция смещения при чтении : 48
Способность читать области Lead-in и Lead-out : Нет
Заполнение пропущенных сэмплов тишиной : Да
Удаление блоков с тишиной в начале и конце : Нет
При вычислениях CRC использовались нулевые сэмплы : Да
Интерфейс :
Встроенный Win32-интерфейс для Win NT/2000
Выходной формат : Внутренние WAV-операции
Формат сэмплов : 44.100 Гц; 16 бит; стерео
TOC извлечённого CD
Трек | Старт | Длительность | Начальный сектор |
Конечный сектор
------------------------------------------------------
---------------
1 | 0:00.33 | 4:25.00 | 33 |
19907
2 | 4:25.33 | 2:10.62 | 19908 |
29719
3 | 6:36.20 | 5:19.33 | 29720 |
53677
4 | 11:55.53 | 9:58.65 | 53678 |
98592
5 | 21:54.43 | 9:16.02 | 98593 |
140294
6 | 31:10.45 | 11:39.00 | 140295 |
192719
7 | 42:49.45 | 14:40.55 | 192720 |
258774
8 | 57:30.25 | 3:43.40 | 258775 |
275539
9 | 61:13.65 | 1:15.55 | 275540 |
281219
10 | 62:29.45 | 16:29.63 | 281220 |
355457
Характеристики диапазона извлечения и сообщения об ошибках
Выбранный диапазон
Имя файла C:\Documents and Settings\Директор\Мои
документы\Моя музыка\Kyung Wha Chung, Foster, Dutoit, LSO -
Saint-Saens, Viuextemps - Violin Concertos.wav
Пиковый уровень 100.0 %
Качество диапазона 100.0 %
CRC копии F01EE9DC
Копирование... OK
Ошибок не произошло
Конец отчёта

отчет EAC CD32

Exact Audio Copy V0.99 prebeta 4 from 23. January 2008
Отчёт EAC об извлечении, выполненном 28. сентября 2009,
15:07
Josefowicz, Marriner, Academy St Martin / Tchaikovsky,
Sibelius - Violin Concertos
Дисковод: _NEC DVD_RW ND-4550A Adapter: 3 ID: 0
Режим чтения : Достоверность
Использование точного потока : Да
Отключение кэша аудио : Да
Использование указателей C2 : Нет
Коррекция смещения при чтении : 48
Способность читать области Lead-in и Lead-out : Нет
Заполнение пропущенных сэмплов тишиной : Да
Удаление блоков с тишиной в начале и конце : Нет
При вычислениях CRC использовались нулевые сэмплы : Да
Интерфейс :
Встроенный Win32-интерфейс для Win NT/2000
Выходной формат : Внутренние WAV-операции
Формат сэмплов : 44.100 Гц; 16 бит; стерео
TOC извлечённого CD
Трек | Старт | Длительность | Начальный сектор |
Конечный сектор
------------------------------------------------------
---------------
1 | 0:00.33 | 17:46.00 | 33 |
79982
2 | 17:46.33 | 6:56.62 | 79983 |
111244
3 | 24:43.20 | 9:29.13 | 111245 |
153932
4 | 34:12.33 | 15:24.00 | 153933 |
223232
5 | 49:36.33 | 9:11.00 | 223233 |
264557
6 | 58:47.33 | 7:12.00 | 264558 |
296957
Характеристики диапазона извлечения и сообщения об ошибках
Выбранный диапазон
Имя файла C:\Documents and Settings\Директор\Мои
документы\Моя музыка\Josefowicz, Marriner, Academy St
Martin - Tchaikovsky, Sibelius - Violin Concertos.wav
Пиковый уровень 100.0 %
Качество диапазона 99.9 %
CRC копии 1577DF8B
Копирование... OK
Ошибок не произошло
Конец отчёта

отчет EAC CD33

Exact Audio Copy V0.99 prebeta 4 from 23. January 2008
Отчёт EAC об извлечении, выполненном 28. сентября 2009,
15:28
Accardo, I Solisti di Napoli / Vivaldi - Le Quattro
Stagioni, Concertos RV 580 & 551
Дисковод: _NEC DVD_RW ND-4550A Adapter: 3 ID: 0
Режим чтения : Достоверность
Использование точного потока : Да
Отключение кэша аудио : Да
Использование указателей C2 : Нет
Коррекция смещения при чтении : 48
Способность читать области Lead-in и Lead-out : Нет
Заполнение пропущенных сэмплов тишиной : Да
Удаление блоков с тишиной в начале и конце : Нет
При вычислениях CRC использовались нулевые сэмплы : Да
Интерфейс :
Встроенный Win32-интерфейс для Win NT/2000
Выходной формат : Внутренние WAV-операции
Формат сэмплов : 44.100 Гц; 16 бит; стерео
TOC извлечённого CD
Трек | Старт | Длительность | Начальный сектор |
Конечный сектор
------------------------------------------------------
---------------
1 | 0:00.32 | 3:49.38 | 32 |
17244
2 | 3:49.70 | 2:39.00 | 17245 |
29169
3 | 6:28.70 | 4:30.37 | 29170 |
49456
4 | 10:59.32 | 1:06.40 | 49457 |
54446
5 | 12:05.72 | 4:21.35 | 54447 |
74056
6 | 16:27.32 | 2:22.38 | 74057 |
84744
7 | 18:49.70 | 2:51.37 | 84745 |
97606
8 | 21:41.32 | 5:34.38 | 97607 |
122694
9 | 27:15.70 | 2:45.37 | 122695 |
135106
10 | 30:01.32 | 3:38.00 | 135107 |
151456
11 | 33:39.32 | 3:13.00 | 151457 |
165931
12 | 36:52.32 | 2:25.50 | 165932 |
176856
13 | 39:18.07 | 3:06.25 | 176857 |
190831
14 | 42:24.32 | 4:14.00 | 190832 |
209881
15 | 46:38.32 | 1:13.00 | 209882 |
215356
16 | 47:51.32 | 5:06.00 | 215357 |
238306
17 | 52:57.32 | 5:25.00 | 238307 |
262681
18 | 58:22.32 | 2:25.00 | 262682 |
273556
19 | 60:47.32 | 3:13.00 | 273557 |
288031
Характеристики диапазона извлечения и сообщения об ошибках
Выбранный диапазон
Имя файла C:\Documents and Settings\Директор\Мои
документы\Моя музыка\Accardo, I Solisti di Napoli - Vivaldi
- Le Quattro Stagioni, Concertos RV 580 & 551.wav
Пиковый уровень 93.0 %
Качество диапазона 100.0 %
CRC копии FBB8C2EF
Копирование... OK
Ошибок не произошло
Конец отчёта

отчет EAC CD34

Exact Audio Copy V0.99 prebeta 4 from 23. January 2008
Отчёт EAC об извлечении, выполненном 28. сентября 2009,
15:49
Grumiaux, Hajdu / Favourite Violin Encores I
Дисковод: _NEC DVD_RW ND-4550A Adapter: 3 ID: 0
Режим чтения : Достоверность
Использование точного потока : Да
Отключение кэша аудио : Да
Использование указателей C2 : Нет
Коррекция смещения при чтении : 48
Способность читать области Lead-in и Lead-out : Нет
Заполнение пропущенных сэмплов тишиной : Да
Удаление блоков с тишиной в начале и конце : Нет
При вычислениях CRC использовались нулевые сэмплы : Да
Интерфейс :
Встроенный Win32-интерфейс для Win NT/2000
Выходной формат : Внутренние WAV-операции
Формат сэмплов : 44.100 Гц; 16 бит; стерео
TOC извлечённого CD
Трек | Старт | Длительность | Начальный сектор |
Конечный сектор
------------------------------------------------------
---------------
1 | 0:00.32 | 1:58.00 | 32 |
8881
2 | 1:58.32 | 7:28.00 | 8882 |
42481
3 | 9:26.32 | 2:50.00 | 42482 |
55231
4 | 12:16.32 | 4:01.00 | 55232 |
73306
5 | 16:17.32 | 2:10.00 | 73307 |
83056
6 | 18:27.32 | 3:31.00 | 83057 |
98881
7 | 21:58.32 | 3:26.00 | 98882 |
114331
8 | 25:24.32 | 2:20.00 | 114332 |
124831
9 | 27:44.32 | 2:55.00 | 124832 |
137956
10 | 30:39.32 | 2:20.00 | 137957 |
148456
11 | 32:59.32 | 2:40.00 | 148457 |
160456
12 | 35:39.32 | 4:21.00 | 160457 |
180031
13 | 40:00.32 | 3:26.00 | 180032 |
195481
14 | 43:26.32 | 4:25.00 | 195482 |
215356
15 | 47:51.32 | 2:08.00 | 215357 |
224956
16 | 49:59.32 | 3:33.00 | 224957 |
240931
17 | 53:32.32 | 2:57.00 | 240932 |
254206
18 | 56:29.32 | 2:01.00 | 254207 |
263281
19 | 58:30.32 | 3:56.00 | 263282 |
280981
20 | 62:26.32 | 2:56.00 | 280982 |
294181
21 | 65:22.32 | 2:38.00 | 294182 |
306031
22 | 68:00.32 | 2:37.00 | 306032 |
317806
23 | 70:37.32 | 3:08.00 | 317807 |
331906
24 | 73:45.32 | 3:30.00 | 331907 |
347656
Характеристики диапазона извлечения и сообщения об ошибках
Выбранный диапазон
Имя файла C:\Documents and Settings\Директор\Мои
документы\Моя музыка\Grumiaux, Hajdu - Favourite Violin
Encores I.wav
Пиковый уровень 98.3 %
Качество диапазона 100.0 %
CRC копии 5729BFCD
Копирование... OK
Ошибок не произошло
Конец отчёта

отчет EAC CD35

Exact Audio Copy V0.99 prebeta 4 from 23. January 2008
Отчёт EAC об извлечении, выполненном 28. сентября 2009,
16:19
Grumiaux, Hajdu / Favourite Violin Encores II
Дисковод: _NEC DVD_RW ND-4550A Adapter: 3 ID: 0
Режим чтения : Достоверность
Использование точного потока : Да
Отключение кэша аудио : Да
Использование указателей C2 : Нет
Коррекция смещения при чтении : 48
Способность читать области Lead-in и Lead-out : Нет
Заполнение пропущенных сэмплов тишиной : Да
Удаление блоков с тишиной в начале и конце : Нет
При вычислениях CRC использовались нулевые сэмплы : Да
Интерфейс :
Встроенный Win32-интерфейс для Win NT/2000
Выходной формат : Внутренние WAV-операции
Формат сэмплов : 44.100 Гц; 16 бит; стерео
TOC извлечённого CD
Трек | Старт | Длительность | Начальный сектор |
Конечный сектор
------------------------------------------------------
---------------
1 | 0:00.32 | 2:43.00 | 32 |
12256
2 | 2:43.32 | 2:46.00 | 12257 |
24706
3 | 5:29.32 | 4:29.00 | 24707 |
44881
4 | 9:58.32 | 2:39.00 | 44882 |
56806
5 | 12:37.32 | 3:25.00 | 56807 |
72181
6 | 16:02.32 | 4:22.00 | 72182 |
91831
7 | 20:24.32 | 4:27.00 | 91832 |
111856
8 | 24:51.32 | 2:10.00 | 111857 |
121606
9 | 27:01.32 | 7:50.00 | 121607 |
156856
10 | 34:51.32 | 2:53.00 | 156857 |
169831
11 | 37:44.32 | 8:11.00 | 169832 |
206656
12 | 45:55.32 | 2:57.00 | 206657 |
219931
13 | 48:52.32 | 2:52.00 | 219932 |
232831
14 | 51:44.32 | 10:22.00 | 232832 |
279481
15 | 62:06.32 | 6:01.00 | 279482 |
306556
16 | 68:07.32 | 7:52.00 | 306557 |
341956
Характеристики диапазона извлечения и сообщения об ошибках
Выбранный диапазон
Имя файла C:\Documents and Settings\Директор\Мои
документы\Моя музыка\Grumiaux, Hajdu - Favourite Violin
Encores II.wav
Пиковый уровень 94.7 %
Качество диапазона 100.0 %
CRC копии 40D89154
Копирование... OK
Ошибок не произошло
Конец отчёта
К сожалению буклет не удалось сканировать: страницы буклета склеены между собой и сам он довольно таки приличной толщины - попробовав несколько раз и даже сканировав одну страницу с датами и местами записи обнаружил что склеенные страницы начинают расходиться и буклет попросту рвется - однако обложка буклета и сканы коробки присутствуют вместе со вышеуказанной страницей)
[teatrix.ru].t10058.torrent 
Торрент: Зарегистрирован [ 2015-10-25 20:37 ] · 569AFC07D7AC4DF874C53430CF373EA81904903E

Скачать .torrent

Скачать

70 KB

Статус: проверено
Скачан: 1 раз
Размер: 9.94 GB
terms.php



Быстрый ответ

Имя:

      
Для отправки сообщений необходимо включить JavaScript
Показать сообщения:    

Текущее время: 03-Дек 01:18

Часовой пояс: UTC + 3


Вы можете начинать темы
Вы можете отвечать на сообщения
Вы не можете редактировать свои сообщения
Вы не можете удалять свои сообщения
Вы не можете голосовать в опросах
Вы не можете прикреплять файлы к сообщениям
Вы можете скачивать файлы