(Classical) Дьердь Цифра (Gyhorgy Cziffra - Franz Liszt / Ференц Лист - Ouvres pour piano. 5 CD. - 1957-86, FLAC (tracks+.cue), lossless


Статистика раздачи [Обновить пиров]
Размер:  980 MB   |    Зарегистрирован:  1 год 1 месяц   |    Скачан:  0 раз

Полного источника не было: Никогда

 
   
 
 
 

[Цитировать]


-
-
-
--G.Cziffra (piano) - Franz Liszt / Ференц Лист. Œuvres pour piano. 5 CD.
Жанр: Classical/Piano
Годы записи: 1957-86
Формат: FLAC (tracks+.cue)
Битрейт аудио: lossless
Продолжительность: 5:27:46
Трэклист:
CD1
Hungarian Rhapsodies
01 - No 1 in E Major
02 - No 2 in C Sharp Minor
03 - No 3 in B Flat Major
04 - No 4 in E Flat Major
05 - No 5 in E Minor
06 - No 6 in D Flat Major
07 - No 7 in D Minor
08 - No 8 in F Sharp Minor
09 - No 9 in E Flat Major
CD2
01 - No 10 in E Major
02 - No 11 in A Minor
03 - No 12 in C Sharp Minor
04 - No 13 in A Minor
05 - No 14 in F Minor
06 - No 15 in A Minor
07 - Rhapsody Espagnole
CD3
12 etudes d'execution transcendante
01 - N1 en ut majeur 'Preludio'
02 - N2 en la mineur 'Fusees'
03 - N3 en fa majeur 'Paysage'
04 - N4 en re mineur 'Mazeppa'
05 - N5 en si bemol majeur 'Feux follets'
06 - N6 en sol mineur 'Vision'
07 - N7 en mi bemol majeur 'Eroica'
08 - N8 en ut mineur 'Wilde Jagd'
09 - N9 en la bemol majeur 'Ricordanza'
10 - N10 en fa mineur 'Appassionata'
11 - N11 en re bemol majeur 'Harmonies du soir'
12 - N12 en si bemol mineur 'Chasse neige'
CD4
01 - Mephisto Valse, d'apres le Faust de Lenau, 'Der Tanz in der Dorfschenke'
02 - Les Jeux d'eau а la Ville d'Este (annees de pelerinage, III - L'Italie)
03 - Valse oubliee No.1 en fa diиse majeur
04 - Valse Impromptu en la bemol majeur
05 - Reve d'Amour, nocturne No.3 en la bemol majeur
06 - Grand Galop Chromatique
07 - La Campella, en mi majeur (Grande etude de Paganini, No.3)
08 - La Chasse, en mi majeur (Grande etude de Paganini, No.5)
09 - Etude de Concert No.1 - La Ronde des Lutins
10 - Etude de Concert No.2 - Dans les Bois
11 - Funerailles (Harmonies poetiques et religieuses, No.7)
CD5
01 - Ballade n.2 en si mineur (1956)
02 - Polonaise n.1 en ut mineur (1956)
03 - Saint Francois d'Assise- la predication aux oiseaux (1956)
04 - Saint Francois de Paule marchant sur les flots (1985)
05 - Sonate en si mineur (1968)

Биография G.Cziffra

Дьердь Ци́фра (венг. György Cziffra; 5 ноября 1921 — 17 ноября 1994) — венгерский пианист-виртуоз, знаменитый оригинальными трактовками классических произведений.
Дьердь Цифра родился в Будапеште в семье бедных венгерских цыган. Его отец, также Дьердь, играл на цимбалах в кабаре-холлах и ресторанах Парижа в 1910-х годах. Однако с началом Первой мировой войны он был заключён в тюрьму как гражданин враждебного государства, а его жена и две дочери депортированы в Венгрию с пятью килограммами багажа. Семья воссоединилась после войны.
Дьердь-младший научился играть, наблюдая за занятиями своей сестры. Уже в пять лет хрупкий болезненный мальчик стал сенсацией баров и цирков, где исполнял импровизации на популярные музыкальные мелодии. Кроме того, он на слух подбирал и аранжировал любую мелодию, напеваемую клиентом. Заработки малыша помогали нищенствующей семье выживать, но впоследствии эти выступления стали объектом насмешки со стороны критиков. В девять лет Цифра поступил в Академию Ференца Листа и таким образом стал самым младшим студентом за всю её историю. Среди его учителей был Эрнё Донаньи.
В 1942 году Цифра был призван на фронт. Венгрия воевала на стороне национал-социалистической Германии; несмотря на идеи национал-социализма, все страны-сюзники Германии, в т. ч. она сама, активно использовали евреев и цыган на поле боя, используя в качестве заложников их семьи. У Дьердя были жена и маленький сын. Сначала он был пехотинцем, потом — танкистом, но при удобном случае дезертировал и в результате стал единственным выжившим человеком из своего батальона.
После войны Дьердь вернулся к карьере пианиста. Но в 1950 году он был арестован по политическим мотивам. В тюрьме его подвергали издевательствам: зная, что Цифра музыкант, надзиратели били его по рукам, по пальцам, во время исполнения работ подбирали такую, которая давала большую нагрузку на кисть. После освобождения в 1953 году Дьердю пришлось затратить немало усилий, чтобы восстановить нормальную работу кистей и пальцев. В 1956 году пианист сбежал с семьёй в Вену. Вскоре он стал широко известным музыкантом, разъезжал с гастролями по всей Европе.
Сын виртуоза, Дьердь Цифра-младший, стал профессиональным дирижёром. Несколько раз он выступал и записывался с отцом. Его карьеру называли обещающей, но в 1981 году он умер во время пожара. После этой трагедии Цифра-пианист никогда больше не работал с оркестрами.
Дьердь Цифра умер в возрасте 72 лет, мучимый раком лёгких, от сердечного приступа.

Отчёты EACОтчёт EAC CD1

EAC extraction logfile from 14. October 2007, 4:06 for CD
Franz Liszt [1811-1886] / Piano Works cd1_5 Hungarian Rhapsodies 1-9 [Georges Cziffra 1957-1986]
Used drive : TOSHIBA DVD-ROM SD-M1712 Adapter: 0 ID: 1
Read mode : Secure with NO C2, accurate stream, disable cache
Read offset correction : -472
Overread into Lead-In and Lead-Out : No
Used output format : C:\Program Files\FLAC\flac.exe (User Defined Encoder)
128 kBit/s
Additional command line options : -V -8 -T "artist=%a" -T "title=%t" -T "album=%g" -T "date=%y" -T "tracknumber=%n" -T "genre=%m" %s
Other options :
Fill up missing offset samples with silence : Yes
Delete leading and trailing silent blocks : No
Native Win32 interface for Win NT & 2000
Track 1
Filename D:\My documents\Моя музыка\rutracker.org\Cziffra\CD1\01 - Hungarian Rhapsodies-No 1 in E Major.wav
Pre-gap length 0:00:02.00
Peak level 99.4 %
Track quality 99.9 %
Test CRC 9EF7E840
Copy CRC 9EF7E840
Copy OK
Track 2
Filename D:\My documents\Моя музыка\rutracker.org\Cziffra\CD1\02 - No 2 in C Sharp Minor.wav
Pre-gap length 0:00:07.77
Peak level 99.6 %
Track quality 100.0 %
Test CRC 817678D8
Copy CRC 817678D8
Copy OK
Track 3
Filename D:\My documents\Моя музыка\rutracker.org\Cziffra\CD1\03 - No 3 in B Flat Major.wav
Pre-gap length 0:00:04.40
Peak level 99.4 %
Track quality 99.9 %
Test CRC 66F3A21A
Copy CRC 66F3A21A
Copy OK
Track 4
Filename D:\My documents\Моя музыка\rutracker.org\Cziffra\CD1\04 - No 4 in E Flat Major.wav
Pre-gap length 0:00:03.96
Peak level 88.0 %
Track quality 100.0 %
Test CRC DCDE9E29
Copy CRC DCDE9E29
Copy OK
Track 5
Filename D:\My documents\Моя музыка\rutracker.org\Cziffra\CD1\05 - No 5 in E Minor.wav
Pre-gap length 0:00:04.04
Peak level 99.4 %
Track quality 100.0 %
Test CRC 438C13C6
Copy CRC 438C13C6
Copy OK
Track 6
Filename D:\My documents\Моя музыка\rutracker.org\Cziffra\CD1\06 - No 6 in D Flat Major.wav
Pre-gap length 0:00:03.88
Peak level 99.5 %
Track quality 100.0 %
Test CRC E6F192C0
Copy CRC E6F192C0
Copy OK
Track 7
Filename D:\My documents\Моя музыка\rutracker.org\Cziffra\CD1\07 - No 7 in D Minor.wav
Pre-gap length 0:00:05.69
Peak level 97.0 %
Track quality 100.0 %
Test CRC 4E88C590
Copy CRC 4E88C590
Copy OK
Track 8
Filename D:\My documents\Моя музыка\rutracker.org\Cziffra\CD1\08 - No 8 in F Sharp Minor.wav
Pre-gap length 0:00:04.28
Peak level 82.3 %
Track quality 100.0 %
Test CRC 66E1866F
Copy CRC 66E1866F
Copy OK
Track 9
Filename D:\My documents\Моя музыка\rutracker.org\Cziffra\CD1\09 - No 9 in E Flat Major.wav
Pre-gap length 0:00:05.70
Suspicious position 0:10:20
Peak level 99.4 %
Track quality 99.8 %
Test CRC 411E37EE
Copy CRC 411E37EE
Copy OK
No errors occured
End of status report

Отчёт EAC CD2

EAC extraction logfile from 14. October 2007, 4:31 for CD
Franz Liszt / Hungarian Rhapsodies - Disk 2
Used drive : TOSHIBA DVD-ROM SD-M1712 Adapter: 0 ID: 1
Read mode : Secure with NO C2, accurate stream, disable cache
Read offset correction : -472
Overread into Lead-In and Lead-Out : No
Used output format : C:\Program Files\FLAC\flac.exe (User Defined Encoder)
128 kBit/s
Additional command line options : -V -8 -T "artist=%a" -T "title=%t" -T "album=%g" -T "date=%y" -T "tracknumber=%n" -T "genre=%m" %s
Other options :
Fill up missing offset samples with silence : Yes
Delete leading and trailing silent blocks : No
Native Win32 interface for Win NT & 2000
Track 1
Filename D:\My documents\Моя музыка\rutracker.org\Cziffra\CD2\01 - No 10 in E Major.wav
Pre-gap length 0:00:02.00
Peak level 81.0 %
Track quality 100.0 %
Test CRC 5E62BEC9
Copy CRC 5E62BEC9
Copy OK
Track 2
Filename D:\My documents\Моя музыка\rutracker.org\Cziffra\CD2\02 - No 11 in A Minor.wav
Pre-gap length 0:00:01.52
Peak level 99.4 %
Track quality 99.9 %
Test CRC FD8AC198
Copy CRC FD8AC198
Copy OK
Track 3
Filename D:\My documents\Моя музыка\rutracker.org\Cziffra\CD2\03 - No 12 in C Sharp Minor.wav
Pre-gap length 0:00:04.00
Peak level 98.5 %
Track quality 100.0 %
Test CRC 0A5C6E04
Copy CRC 0A5C6E04
Copy OK
Track 4
Filename D:\My documents\Моя музыка\rutracker.org\Cziffra\CD2\04 - No 13 in A Minor.wav
Pre-gap length 0:00:06.98
Peak level 99.6 %
Track quality 100.0 %
Test CRC 1654D9B6
Copy CRC 1654D9B6
Copy OK
Track 5
Filename D:\My documents\Моя музыка\rutracker.org\Cziffra\CD2\05 - No 14 in F Minor.wav
Pre-gap length 0:00:02.80
Peak level 99.7 %
Track quality 100.0 %
Test CRC EC9E499E
Copy CRC EC9E499E
Copy OK
Track 6
Filename D:\My documents\Моя музыка\rutracker.org\Cziffra\CD2\06 - No 15 in A Minor.wav
Pre-gap length 0:00:03.52
Peak level 98.7 %
Track quality 100.0 %
Test CRC 8584C2D3
Copy CRC 8584C2D3
Copy OK
Track 7
Filename D:\My documents\Моя музыка\rutracker.org\Cziffra\CD2\07 - Rhapsody Espagnole.wav
Pre-gap length 0:00:04.04
Peak level 99.7 %
Track quality 100.0 %
Test CRC A4593DDE
Copy CRC A4593DDE
Copy OK
No errors occured
End of status report

Отчёт EAC CD3

EAC extraction logfile from 14. October 2007, 14:34 for CD
Franz Liszt / 12 etudes d'execution transcendante
Used drive : TOSHIBA DVD-ROM SD-M1712 Adapter: 0 ID: 1
Read mode : Secure with NO C2, accurate stream, disable cache
Read offset correction : -472
Overread into Lead-In and Lead-Out : No
Used output format : C:\Program Files\FLAC\flac.exe (User Defined Encoder)
128 kBit/s
Additional command line options : -V -8 -T "artist=%a" -T "title=%t" -T "album=%g" -T "date=%y" -T "tracknumber=%n" -T "genre=%m" %s
Other options :
Fill up missing offset samples with silence : Yes
Delete leading and trailing silent blocks : No
Native Win32 interface for Win NT & 2000
Track 1
Filename D:\My documents\Моя музыка\rutracker.org\Cziffra\CD3\01 - N1 en ut majeur 'Preludio'.wav
Pre-gap length 0:00:02.42
Peak level 70.1 %
Track quality 100.0 %
Test CRC 5BB00E93
Copy CRC 5BB00E93
Copy OK
Track 2
Filename D:\My documents\Моя музыка\rutracker.org\Cziffra\CD3\02 - N2 en la mineur 'Fusees'.wav
Pre-gap length 0:00:02.00
Peak level 89.7 %
Track quality 100.0 %
Test CRC BE03FC70
Copy CRC BE03FC70
Copy OK
Track 3
Filename D:\My documents\Моя музыка\rutracker.org\Cziffra\CD3\03 - N3 en fa majeur 'Paysage'.wav
Pre-gap length 0:00:01.66
Peak level 74.0 %
Track quality 100.0 %
Test CRC F6516C74
Copy CRC F6516C74
Copy OK
Track 4
Filename D:\My documents\Моя музыка\rutracker.org\Cziffra\CD3\04 - N4 en re mineur 'Mazeppa'.wav
Pre-gap length 0:00:02.00
Peak level 98.3 %
Track quality 100.0 %
Test CRC CF75C691
Copy CRC CF75C691
Copy OK
Track 5
Filename D:\My documents\Моя музыка\rutracker.org\Cziffra\CD3\05 - N5 en si bemol majeur ''Feux follets''.wav
Pre-gap length 0:00:02.66
Peak level 82.7 %
Track quality 100.0 %
Test CRC 78067DC4
Copy CRC 78067DC4
Copy OK
Track 6
Filename D:\My documents\Моя музыка\rutracker.org\Cziffra\CD3\06 - N6 en sol mineur 'Vision'.wav
Pre-gap length 0:00:02.00
Peak level 89.7 %
Track quality 100.0 %
Test CRC 04153A8C
Copy CRC 04153A8C
Copy OK
Track 7
Filename D:\My documents\Моя музыка\rutracker.org\Cziffra\CD3\07 - N7 en mi bemol majeur 'Eroica'.wav
Pre-gap length 0:00:03.00
Peak level 93.7 %
Track quality 99.9 %
Test CRC 76E4FF08
Copy CRC 76E4FF08
Copy OK
Track 8
Filename D:\My documents\Моя музыка\rutracker.org\Cziffra\CD3\08 - N8 en ut mineur 'Wilde Jagd'.wav
Pre-gap length 0:00:02.66
Peak level 98.5 %
Track quality 100.0 %
Test CRC 3D0D05CC
Copy CRC 3D0D05CC
Copy OK
Track 9
Filename D:\My documents\Моя музыка\rutracker.org\Cziffra\CD3\09 - N9 en la bemol majeur 'Ricordanza'.wav
Pre-gap length 0:00:02.68
Peak level 82.1 %
Track quality 100.0 %
Test CRC FB261050
Copy CRC FB261050
Copy OK
Track 10
Filename D:\My documents\Моя музыка\rutracker.org\Cziffra\CD3\10 - N10 en fa mineur 'Appassionata'.wav
Pre-gap length 0:00:02.01
Peak level 78.5 %
Track quality 100.0 %
Test CRC CB23721B
Copy CRC CB23721B
Copy OK
Track 11
Filename D:\My documents\Моя музыка\rutracker.org\Cziffra\CD3\11 - N11 en re bemol majeur 'Harmonies du soir'.wav
Pre-gap length 0:00:02.34
Peak level 76.1 %
Track quality 99.9 %
Test CRC 4FED4402
Copy CRC 4FED4402
Copy OK
Track 12
Filename D:\My documents\Моя музыка\rutracker.org\Cziffra\CD3\12 - N12 en si bemol mineur 'Chasse neige'.wav
Pre-gap length 0:00:02.01
Peak level 94.3 %
Track quality 100.0 %
Test CRC 7FE06E6E
Copy CRC 7FE06E6E
Copy OK
No errors occured
End of status report

Отчёт EAC CD4

Exact Audio Copy V0.99 prebeta 4 from 23. January 2008
EAC extraction logfile from 5. August 2009, 20:30
Cziffra, Georges / Oeuvres pour Piano Disc IV
Used drive : PLEXTOR CD-R PX-240A Adapter: 3 ID: 1
Read mode : Secure
Utilize accurate stream : Yes
Defeat audio cache : Yes
Make use of C2 pointers : No
Read offset correction : 6
Overread into Lead-In and Lead-Out : No
Fill up missing offset samples with silence : Yes
Delete leading and trailing silent blocks : No
Null samples used in CRC calculations : Yes
Used interface : Installed external ASPI interface
Gap handling : Appended to previous track
Used output format : User Defined Encoder
Selected bitrate : 128 kBit/s
Quality : High
Add ID3 tag : No
Command line compressor : C:\Program Files\FLAC\flac.exe
Additional command line options : -V -8 -T "artist=%a" -T "title=%t" -T "album=%g" -T "date=%y" -T "tracknumber=%n" -T "genre=%m" %s
TOC of the extracted CD
Track | Start | Length | Start sector | End sector
---------------------------------------------------------
1 | 0:00.00 | 11:24.13 | 0 | 51312
2 | 11:24.13 | 7:22.44 | 51313 | 84506
3 | 18:46.57 | 2:55.12 | 84507 | 97643
4 | 21:41.69 | 6:49.31 | 97644 | 128349
5 | 28:31.25 | 4:51.25 | 128350 | 150199
6 | 33:22.50 | 3:24.02 | 150200 | 165501
7 | 36:46.52 | 4:14.54 | 165502 | 184605
8 | 41:01.31 | 3:01.61 | 184606 | 198241
9 | 44:03.17 | 2:48.44 | 198242 | 210885
10 | 46:51.61 | 3:47.39 | 210886 | 227949
11 | 50:39.25 | 12:00.17 | 227950 | 281966
Track 1
Filename D:\Раздачи\Текущие\Cziffra\Cziffra\CD4\01 - Mephisto Valse, d'apres le Faust de Lenau, 'Der Tanz in der Dorfschenke'.wav
Pre-gap length 0:00:02.00
Peak level 99.8 %
Track quality 100.0 %
Test CRC B5666B67
Copy CRC B5666B67
Accurately ripped (confidence 7) [09350DED]
Copy OK
Track 2
Filename D:\Раздачи\Текущие\Cziffra\Cziffra\CD4\02 - Les Jeux d'eau а la Ville d'Este (annes de pиlerinage, III - L'Italie).wav
Pre-gap length 0:00:04.21
Peak level 99.8 %
Track quality 100.0 %
Test CRC C93CD269
Copy CRC C93CD269
Accurately ripped (confidence 8) [7F776A14]
Copy OK
Track 3
Filename D:\Раздачи\Текущие\Cziffra\Cziffra\CD4\03 - Valse oubliee No.1 en fa diese majeur.wav
Pre-gap length 0:00:02.38
Peak level 100.0 %
Track quality 100.0 %
Test CRC AFBB2FCA
Copy CRC AFBB2FCA
Accurately ripped (confidence 7) [DA33F8C3]
Copy OK
Track 4
Filename D:\Раздачи\Текущие\Cziffra\Cziffra\CD4\04 - Valse Impromptu en la bemol majeur.wav
Pre-gap length 0:00:03.64
Peak level 84.6 %
Track quality 99.9 %
Test CRC AA01631A
Copy CRC AA01631A
Accurately ripped (confidence 7) [0B0F1F00]
Copy OK
Track 5
Filename D:\Раздачи\Текущие\Cziffra\Cziffra\CD4\05 - Rкve d'Amour, nocturne No.3 en la bemol majeur.wav
Pre-gap length 0:00:07.04
Peak level 80.5 %
Track quality 100.0 %
Test CRC C5213C30
Copy CRC C5213C30
Accurately ripped (confidence 7) [84526C24]
Copy OK
Track 6
Filename D:\Раздачи\Текущие\Cziffra\Cziffra\CD4\06 - Grand Galop Chromatique.wav
Pre-gap length 0:00:03.73
Peak level 99.8 %
Track quality 100.0 %
Test CRC 00E603DB
Copy CRC 00E603DB
Accurately ripped (confidence 7) [F83D165A]
Copy OK
Track 7
Filename D:\Раздачи\Текущие\Cziffra\Cziffra\CD4\07 - La Campella, en mi majeur (Grande etude de Paganini, No.3).wav
Pre-gap length 0:00:04.48
Peak level 82.8 %
Track quality 100.0 %
Test CRC 8D83C1E3
Copy CRC 8D83C1E3
Accurately ripped (confidence 7) [6F89CB02]
Copy OK
Track 8
Filename D:\Раздачи\Текущие\Cziffra\Cziffra\CD4\08 - La Chasse, en mi majeur (Grande etude de Paganini, No.5).wav
Pre-gap length 0:00:04.02
Peak level 97.7 %
Track quality 100.0 %
Test CRC F93E181A
Copy CRC F93E181A
Accurately ripped (confidence 7) [26E721F0]
Copy OK
Track 9
Filename D:\Раздачи\Текущие\Cziffra\Cziffra\CD4\09 - Etude de Concert No.1 - La Ronde des Lutins.wav
Pre-gap length 0:00:02.30
Peak level 99.6 %
Track quality 100.0 %
Test CRC 6489AB5F
Copy CRC 6489AB5F
Accurately ripped (confidence 7) [3A88EB8F]
Copy OK
Track 10
Filename D:\Раздачи\Текущие\Cziffra\Cziffra\CD4\10 - Etude de Concert No.2 - Dans les Bois.wav
Pre-gap length 0:00:03.20
Peak level 91.4 %
Track quality 100.0 %
Test CRC 17DBBAFA
Copy CRC 17DBBAFA
Accurately ripped (confidence 7) [1343899D]
Copy OK
Track 11
Filename D:\Раздачи\Текущие\Cziffra\Cziffra\CD4\11 - Funerailles (Harmonies poetiques et religieuses, No.7).wav
Pre-gap length 0:00:04.98
Peak level 99.5 %
Track quality 99.9 %
Test CRC 63BF2E11
Copy CRC 63BF2E11
Accurately ripped (confidence 7) [D6E69DD1]
Copy OK
All tracks accurately ripped
No errors occurred
End of status report

Отчёт EAC CD5

Exact Audio Copy V0.99 prebeta 4 from 23. January 2008
EAC extraction logfile from 5. August 2009, 20:48
Franz Liszt [1811-1886] / Piano Works cd5_5 [Georges Cziffra]
Used drive : PLEXTOR CD-R PX-240A Adapter: 3 ID: 1
Read mode : Secure
Utilize accurate stream : Yes
Defeat audio cache : Yes
Make use of C2 pointers : No
Read offset correction : 6
Overread into Lead-In and Lead-Out : No
Fill up missing offset samples with silence : Yes
Delete leading and trailing silent blocks : No
Null samples used in CRC calculations : Yes
Used interface : Installed external ASPI interface
Gap handling : Appended to previous track
Used output format : User Defined Encoder
Selected bitrate : 128 kBit/s
Quality : High
Add ID3 tag : No
Command line compressor : C:\Program Files\FLAC\flac.exe
Additional command line options : -V -8 -T "artist=%a" -T "title=%t" -T "album=%g" -T "date=%y" -T "tracknumber=%n" -T "genre=%m" %s
TOC of the extracted CD
Track | Start | Length | Start sector | End sector
---------------------------------------------------------
1 | 0:00.00 | 13:16.41 | 0 | 59740
2 | 13:16.41 | 10:04.35 | 59741 | 105075
3 | 23:21.01 | 7:54.00 | 105076 | 140625
4 | 31:15.01 | 9:03.63 | 140626 | 181413
5 | 40:18.64 | 29:16.67 | 181414 | 313180
Track 1
Filename D:\Раздачи\Текущие\Cziffra\Cziffra\CD5\01 - Ballade n.2 en si mineur (1956).wav
Pre-gap length 0:00:02.00
Peak level 99.7 %
Track quality 100.0 %
Test CRC BECB9992
Copy CRC BECB9992
Accurately ripped (confidence 7) [279F3F77]
Copy OK
Track 2
Filename D:\Раздачи\Текущие\Cziffra\Cziffra\CD5\02 - Polonaise n.1 en ut mineur (1956).wav
Pre-gap length 0:00:04.06
Peak level 99.7 %
Track quality 100.0 %
Test CRC 29118EA8
Copy CRC 29118EA8
Accurately ripped (confidence 7) [B998C6DB]
Copy OK
Track 3
Filename D:\Раздачи\Текущие\Cziffra\Cziffra\CD5\03 - Saint Francois d'Assise- la predication aux oiseaux (1956).wav
Pre-gap length 0:00:02.18
Peak level 99.6 %
Track quality 100.0 %
Test CRC EB8C5D14
Copy CRC EB8C5D14
Accurately ripped (confidence 7) [39132788]
Copy OK
Track 4
Filename D:\Раздачи\Текущие\Cziffra\Cziffra\CD5\04 - Saint Francois de Paule marchant sur les flots (1985).wav
Pre-gap length 0:00:03.64
Peak level 99.8 %
Track quality 100.0 %
Test CRC 5BF2B778
Copy CRC 5BF2B778
Accurately ripped (confidence 7) [EEA2B07F]
Copy OK
Track 5
Filename D:\Раздачи\Текущие\Cziffra\Cziffra\CD5\05 - Sonate en si mineur (1968).wav
Pre-gap length 0:00:05.84
Peak level 98.8 %
Track quality 100.0 %
Test CRC 005B710D
Copy CRC 005B710D
Accurately ripped (confidence 6) [B26218CA]
Copy OK
All tracks accurately ripped
No errors occurred
End of status report

CUECUE CD1

REM GENRE ClassicalREM DATE 2001REM DISCID 82110709REM COMMENT "ExactAudioCopy v0.95b4"PERFORMER "Franz Liszt [1811-1886]"TITLE "Piano Works cd1_5 Hungarian Rhapsodies 1-9 [Georges Cziffra 1957-1986]"FILE "01 - Hungarian Rhapsodies-No 1 in E Major.wav" WAVE TRACK 01 AUDIO TITLE "Hungarian Rhapsodies-No 1 in E Major" PERFORMER "Franz Liszt [1811-1886]" INDEX 01 00:00:00 TRACK 02 AUDIO TITLE "No 2 in C Sharp Minor" PERFORMER "Franz Liszt [1811-1886]" INDEX 00 12:41:72FILE "02 - No 2 in C Sharp Minor.wav" WAVE INDEX 01 00:00:00 TRACK 03 AUDIO TITLE "No 3 in B Flat Major" PERFORMER "Franz Liszt [1811-1886]" INDEX 00 10:10:38FILE "03 - No 3 in B Flat Major.wav" WAVE INDEX 01 00:00:00 TRACK 04 AUDIO TITLE "No 4 in E Flat Major" PERFORMER "Franz Liszt [1811-1886]" INDEX 00 04:20:51FILE "04 - No 4 in E Flat Major.wav" WAVE INDEX 01 00:00:00 TRACK 05 AUDIO TITLE "No 5 in E Minor" PERFORMER "Franz Liszt [1811-1886]" INDEX 00 05:18:46FILE "05 - No 5 in E Minor.wav" WAVE INDEX 01 00:00:00 TRACK 06 AUDIO TITLE "No 6 in D Flat Major" PERFORMER "Franz Liszt [1811-1886]" INDEX 00 09:00:37FILE "06 - No 6 in D Flat Major.wav" WAVE INDEX 01 00:00:00 TRACK 07 AUDIO TITLE "No 7 in D Minor" PERFORMER "Franz Liszt [1811-1886]" INDEX 00 06:56:30FILE "07 - No 7 in D Minor.wav" WAVE INDEX 01 00:00:00 TRACK 08 AUDIO TITLE "No 8 in F Sharp Minor" PERFORMER "Franz Liszt [1811-1886]" INDEX 00 05:06:72FILE "08 - No 8 in F Sharp Minor.wav" WAVE INDEX 01 00:00:00 TRACK 09 AUDIO TITLE "No 9 in E Flat Major" PERFORMER "Franz Liszt [1811-1886]" INDEX 00 06:39:22FILE "09 - No 9 in E Flat Major.wav" WAVE INDEX 01 00:00:00

CUE CD2

REM GENRE ClassicalREM DISCID 5C0DBE07REM COMMENT "ExactAudioCopy v0.95b4"PERFORMER "Franz Liszt"TITLE "Hungarian Rhapsodies - Disk 2"FILE "01 - No 10 in E Major.wav" WAVE TRACK 01 AUDIO TITLE "No 10 in E Major" PERFORMER "Franz Liszt" INDEX 01 00:00:00 TRACK 02 AUDIO TITLE "No 11 in A Minor" PERFORMER "Franz Liszt" INDEX 00 05:01:15FILE "02 - No 11 in A Minor.wav" WAVE INDEX 01 00:00:00 TRACK 03 AUDIO TITLE "No 12 in C Sharp Minor" PERFORMER "Franz Liszt" INDEX 00 05:16:34FILE "03 - No 12 in C Sharp Minor.wav" WAVE INDEX 01 00:00:00 TRACK 04 AUDIO TITLE "No 13 in A Minor" PERFORMER "Franz Liszt" INDEX 00 10:05:65FILE "04 - No 13 in A Minor.wav" WAVE INDEX 01 00:00:00 TRACK 05 AUDIO TITLE "No 14 in F Minor" PERFORMER "Franz Liszt" INDEX 00 08:31:09FILE "05 - No 14 in F Minor.wav" WAVE INDEX 01 00:00:00 TRACK 06 AUDIO TITLE "No 15 in A Minor" PERFORMER "Franz Liszt" INDEX 00 12:09:62FILE "06 - No 15 in A Minor.wav" WAVE INDEX 01 00:00:00 TRACK 07 AUDIO TITLE "Rhapsody Espagnole" PERFORMER "Franz Liszt" INDEX 00 04:48:03FILE "07 - Rhapsody Espagnole.wav" WAVE INDEX 01 00:00:00

CUE CD3

REM GENRE ClassicalREM DISCID AE0F070CREM COMMENT "ExactAudioCopy v0.95b4"PERFORMER "Franz Liszt"TITLE "12 etudes d'execution transcendante"FILE "01 - N1 en ut majeur 'Preludio'.wav" WAVE TRACK 01 AUDIO TITLE "N1 en ut majeur 'Preludio'" PERFORMER "Franz Liszt" PREGAP 00:00:32 INDEX 01 00:00:00 TRACK 02 AUDIO TITLE "N2 en la mineur 'Fusees'" PERFORMER "Franz Liszt" INDEX 00 00:48:50FILE "02 - N2 en la mineur 'Fusees'.wav" WAVE INDEX 01 00:00:00 TRACK 03 AUDIO TITLE "N3 en fa majeur 'Paysage'" PERFORMER "Franz Liszt" INDEX 00 02:02:25FILE "03 - N3 en fa majeur 'Paysage'.wav" WAVE INDEX 01 00:00:00 TRACK 04 AUDIO TITLE "N4 en re mineur 'Mazeppa'" PERFORMER "Franz Liszt" INDEX 00 05:14:13FILE "04 - N4 en re mineur 'Mazeppa'.wav" WAVE INDEX 01 00:00:00 TRACK 05 AUDIO TITLE "N5 en si bemol majeur ''Feux follets''" PERFORMER "Franz Liszt" INDEX 00 07:20:00FILE "05 - N5 en si bemol majeur ''Feux follets''.wav" WAVE INDEX 01 00:00:00 TRACK 06 AUDIO TITLE "N6 en sol mineur 'Vision'" PERFORMER "Franz Liszt" INDEX 00 03:58:62FILE "06 - N6 en sol mineur 'Vision'.wav" WAVE INDEX 01 00:00:00 TRACK 07 AUDIO TITLE "N7 en mi bemol majeur 'Eroica'" PERFORMER "Franz Liszt" INDEX 00 04:49:38FILE "07 - N7 en mi bemol majeur 'Eroica'.wav" WAVE INDEX 01 00:00:00 TRACK 08 AUDIO TITLE "N8 en ut mineur 'Wilde Jagd'" PERFORMER "Franz Liszt" INDEX 00 05:00:12FILE "08 - N8 en ut mineur 'Wilde Jagd'.wav" WAVE INDEX 01 00:00:00 TRACK 09 AUDIO TITLE "N9 en la bemol majeur 'Ricordanza'" PERFORMER "Franz Liszt" INDEX 00 05:31:49FILE "09 - N9 en la bemol majeur 'Ricordanza'.wav" WAVE INDEX 01 00:00:00 TRACK 10 AUDIO TITLE "N10 en fa mineur 'Appassionata'" PERFORMER "Franz Liszt" INDEX 00 09:00:74FILE "10 - N10 en fa mineur 'Appassionata'.wav" WAVE INDEX 01 00:00:00 TRACK 11 AUDIO TITLE "N11 en re bemol majeur 'Harmonies du soir'" PERFORMER "Franz Liszt" INDEX 00 05:08:74FILE "11 - N11 en re bemol majeur 'Harmonies du soir'.wav" WAVE INDEX 01 00:00:00 TRACK 12 AUDIO TITLE "N12 en si bemol mineur 'Chasse neige'" PERFORMER "Franz Liszt" INDEX 00 10:09:74FILE "12 - N12 en si bemol mineur 'Chasse neige'.wav" WAVE INDEX 01 00:00:00

CUE CD4

REM GENRE ClassicalREM DATE 2001REM DISCID 7D0EAF0BREM COMMENT "ExactAudioCopy v0.99pb4"PERFORMER "Cziffra, Georges"TITLE "Oeuvres pour Piano Disc IV"FILE "01 - Mephisto Valse, d'apres le Faust de Lenau, 'Der Tanz in der Dorfschenke'.wav" WAVE TRACK 01 AUDIO TITLE "Mephisto Valse, d'apres le Faust de Lenau, 'Der Tanz in der Dorfschenke'" PERFORMER "Cziffra, Georges" INDEX 01 00:00:00 TRACK 02 AUDIO TITLE "Les Jeux d'eau а la Ville d'Este (annes de pиlerinage, III : L'Italie)" PERFORMER "Cziffra, Georges" INDEX 00 11:19:72FILE "02 - Les Jeux d'eau а la Ville d'Este (annes de pиlerinage, III - L'Italie).wav" WAVE INDEX 01 00:00:00 TRACK 03 AUDIO TITLE "Valse oubliee No.1 en fa diese majeur" PERFORMER "Cziffra, Georges" INDEX 00 07:20:15FILE "03 - Valse oubliee No.1 en fa diese majeur.wav" WAVE INDEX 01 00:00:00 TRACK 04 AUDIO TITLE "Valse Impromptu en la bemol majeur" PERFORMER "Cziffra, Georges" INDEX 00 02:51:39FILE "04 - Valse Impromptu en la bemol majeur.wav" WAVE INDEX 01 00:00:00 TRACK 05 AUDIO TITLE "Rкve d'Amour, nocturne No.3 en la bemol majeur" PERFORMER "Cziffra, Georges" INDEX 00 06:42:28FILE "05 - Rкve d'Amour, nocturne No.3 en la bemol majeur.wav" WAVE INDEX 01 00:00:00 TRACK 06 AUDIO TITLE "Grand Galop Chromatique" PERFORMER "Cziffra, Georges" INDEX 00 04:47:45FILE "06 - Grand Galop Chromatique.wav" WAVE INDEX 01 00:00:00 TRACK 07 AUDIO TITLE "La Campella, en mi majeur (Grande etude de Paganini, No.3)" PERFORMER "Cziffra, Georges" INDEX 00 03:19:41FILE "07 - La Campella, en mi majeur (Grande etude de Paganini, No.3).wav" WAVE INDEX 01 00:00:00 TRACK 08 AUDIO TITLE "La Chasse, en mi majeur (Grande etude de Paganini, No.5)" PERFORMER "Cziffra, Georges" INDEX 00 04:10:52FILE "08 - La Chasse, en mi majeur (Grande etude de Paganini, No.5).wav" WAVE INDEX 01 00:00:00 TRACK 09 AUDIO TITLE "Etude de Concert No.1 - La Ronde des Lutins" PERFORMER "Cziffra, Georges" INDEX 00 02:59:38FILE "09 - Etude de Concert No.1 - La Ronde des Lutins.wav" WAVE INDEX 01 00:00:00 TRACK 10 AUDIO TITLE "Etude de Concert No.2 - Dans les Bois" PERFORMER "Cziffra, Georges" INDEX 00 02:45:29FILE "10 - Etude de Concert No.2 - Dans les Bois.wav" WAVE INDEX 01 00:00:00 TRACK 11 AUDIO TITLE "Funerailles (Harmonies poetiques et religieuses, No.7)" PERFORMER "Cziffra, Georges" INDEX 00 03:42:40FILE "11 - Funerailles (Harmonies poetiques et religieuses, No.7).wav" WAVE INDEX 01 00:00:00

CUE CD5

REM GENRE ClassicalREM DATE 1956REM DISCID 41104F05REM COMMENT "ExactAudioCopy v0.99pb4"PERFORMER "Franz Liszt [1811-1886]"TITLE "Piano Works cd5_5 [Georges Cziffra]"FILE "01 - Ballade n.2 en si mineur (1956).wav" WAVE TRACK 01 AUDIO TITLE "Ballade n.2 en si mineur (1956)" PERFORMER "Franz Liszt [1811-1886]" INDEX 01 00:00:00 TRACK 02 AUDIO TITLE "Polonaise n.1 en ut mineur (1956)" PERFORMER "Franz Liszt [1811-1886]" INDEX 00 13:12:36FILE "02 - Polonaise n.1 en ut mineur (1956).wav" WAVE INDEX 01 00:00:00 TRACK 03 AUDIO TITLE "Saint Francois d'Assise: la predication aux oiseaux (1956)" PERFORMER "Franz Liszt [1811-1886]" INDEX 00 10:02:21FILE "03 - Saint Francois d'Assise- la predication aux oiseaux (1956).wav" WAVE INDEX 01 00:00:00 TRACK 04 AUDIO TITLE "Saint Francois de Paule marchant sur les flots (1985)" PERFORMER "Franz Liszt [1811-1886]" INDEX 00 07:50:27FILE "04 - Saint Francois de Paule marchant sur les flots (1985).wav" WAVE INDEX 01 00:00:00 TRACK 05 AUDIO TITLE "Sonate en si mineur (1968)" PERFORMER "Franz Liszt [1811-1886]" INDEX 00 08:58:00FILE "05 - Sonate en si mineur (1968).wav" WAVE INDEX 01 00:00:00
[teatrix.ru].t10060.torrent 
Торрент: Зарегистрирован [ 2015-10-25 20:37 ] · D93CD0A69187A63D73172270939FBC3652DCD0BF

Скачать .torrent

Скачать

25 KB

Статус: проверено
Скачан: 0 раз
Размер: 980 MB
terms.php



Быстрый ответ

Имя:

      
Для отправки сообщений необходимо включить JavaScript
Показать сообщения:    

Текущее время: 07-Дек 23:20

Часовой пояс: UTC + 3


Вы можете начинать темы
Вы можете отвечать на сообщения
Вы не можете редактировать свои сообщения
Вы не можете удалять свои сообщения
Вы не можете голосовать в опросах
Вы не можете прикреплять файлы к сообщениям
Вы можете скачивать файлы