(Classical) Franz Schubert - String Quartet No.14 \'Death and the Maiden\'; String Quintet in C major - Pavel Haas Quartet, Danjulo Ishizaka - 2013, FLAC (image+.cue) lossless


 

[Цитировать]

Franz Schubert - String Quartet No.14 'Death and the Maiden'; String Quintet in C major - Pavel Haas Quartet, Danjulo Ishizaka
Жанр: Classical
Страна-производитель диска: Czech Republic
Год издания диска: 2013
Издатель (лейбл): Supraphon
Номер по каталогу: SU 4110-2
Дата записи: 2013
Аудиокодек: FLAC
Тип рипа: image+.cue
Битрейт аудио: lossless
Продолжительность: 91:42
Источник: собственный рип
Наличие сканов в содержимом раздачи: да
Треклист:
Franz Schubert
CD1
[1]-[4] String Quartet No.14 in D minor 'Death and the Maiden', D810
CD2
[1]-[4] String Quintet in C major, D956, Op. Posth. 163
Gramophone Award 2014
Исполнители:
Pavel Haas Quartet
Veronika Jarůšková violin
Marek Zwiebel violin
Pavel Nikl viola
Peter Jarůšek cello
Danjulo Ishizaka cello (CD2)

Лог создания рипа: CD1

Exact Audio Copy V1.0 beta 3 from 29. August 2011
EAC extraction logfile from 17. March 2015, 1:27
Pavel Haas Quartet / Schubert - String Quartet No.14 'Death and the Maiden'
Used drive : HL-DT-STDVDRAM GU70N Adapter: 0 ID: 0
Read mode : SecureUtilize accurate stream : YesDefeat audio cache : YesMake use of C2 pointers : No
Read offset correction : 48Overread into Lead-In and Lead-Out : NoFill up missing offset samples with silence : YesDelete leading and trailing silent blocks : NoNull samples used in CRC calculations : YesUsed interface : Native Win32 interface for Win NT & 2000
Used output format : User Defined EncoderSelected bitrate : 128 kBit/sQuality : HighAdd ID3 tag : NoCommand line compressor : C:\Program Files (x86)\Exact Audio Copy\Flac\flac.exeAdditional command line options : -V -8 -T "Date=%year%" -T "Genre=%genre%" %source%
TOC of the extracted CD
Track | Start | Length | Start sector | End sector --------------------------------------------------------- 1 | 0:00.00 | 11:32.12 | 0 | 51911 2 | 11:32.12 | 13:34.18 | 51912 | 112979 3 | 25:06.30 | 3:50.16 | 112980 | 130245 4 | 28:56.46 | 8:53.26 | 130246 | 170246
Range status and errors
Selected range
Filename C:\temp\Schubert - Death and the Maiden; String Quintet - Pavel Haas Quartet, Ishizaka\CD1 - Death and the Maiden\Schubert - String Quartet No.14.wav
Peak level 93.1 % Extraction speed 4.2 X Range quality 100.0 % Test CRC 9945B0A5 Copy CRC 9945B0A5 Copy OK
No errors occurred
AccurateRip summary
Track 1 accurately ripped (confidence 7) [D2F86B6D] (AR v2)Track 2 accurately ripped (confidence 7) [14AEF3A0] (AR v2)Track 3 accurately ripped (confidence 7) [82E4F294] (AR v2)Track 4 accurately ripped (confidence 7) [D5D03FF2] (AR v2)
All tracks accurately ripped
End of status report
==== Log checksum 7D3E404D1E45E2FC780CD45BE4B0EEEA5E2ED3056CB0107AC65EB7EB7774CE4B ====

Лог создания рипа: CD2

Exact Audio Copy V1.0 beta 3 from 29. August 2011
EAC extraction logfile from 17. March 2015, 8:37
Pavel Haas Quartet, Danjulo Ishizaka / Schubert - String Quintet
Used drive : HL-DT-STDVDRAM GU70N Adapter: 0 ID: 0
Read mode : SecureUtilize accurate stream : YesDefeat audio cache : YesMake use of C2 pointers : No
Read offset correction : 48Overread into Lead-In and Lead-Out : NoFill up missing offset samples with silence : YesDelete leading and trailing silent blocks : NoNull samples used in CRC calculations : YesUsed interface : Native Win32 interface for Win NT & 2000
Used output format : User Defined EncoderSelected bitrate : 128 kBit/sQuality : HighAdd ID3 tag : NoCommand line compressor : C:\Program Files (x86)\Exact Audio Copy\Flac\flac.exeAdditional command line options : -V -8 -T "Date=%year%" -T "Genre=%genre%" %source%
TOC of the extracted CD
Track | Start | Length | Start sector | End sector --------------------------------------------------------- 1 | 0:00.00 | 19:56.13 | 0 | 89712 2 | 19:56.13 | 14:43.67 | 89713 | 156004 3 | 34:40.05 | 9:39.28 | 156005 | 199457 4 | 44:19.33 | 9:31.58 | 199458 | 242340
Range status and errors
Selected range
Filename C:\temp\Schubert - Death and the Maiden; String Quintet - Pavel Haas Quartet, Ishizaka\CD2 - String Quintet\Schubert - String Quintet.wav
Peak level 97.4 % Extraction speed 1.9 X Range quality 100.0 % Test CRC D7E1C816 Copy CRC D7E1C816 Copy OK
No errors occurred
AccurateRip summary
Track 1 accurately ripped (confidence 7) [D650301C] (AR v2)Track 2 accurately ripped (confidence 7) [D47560BD] (AR v2)Track 3 accurately ripped (confidence 6) [40BB47A6] (AR v2)Track 4 accurately ripped (confidence 7) [7313383F] (AR v2)
All tracks accurately ripped
End of status report
==== Log checksum 35CB92A61EFA05423A64A5F97F63DA9BEAF6B804A9E86921483B5DD5FFA54071 ====



Показать сообщения:    

Текущее время: 04-Дек 17:16

Часовой пояс: UTC + 3


Вы не можете начинать темы
Вы не можете отвечать на сообщения
Вы не можете редактировать свои сообщения
Вы не можете удалять свои сообщения
Вы не можете голосовать в опросах
Вы не можете прикреплять файлы к сообщениям
Вы не можете скачивать файлы