(Classical) Franz Joseph Haydn - String Quartets Op.71 & 74 (Festetics Quartet) - 2009, WavPack (image+.cue) lossless


 

[Цитировать]

Franz Joseph Haydn - String Quartets Op.71 & 74 (Festetics Quartet)
Жанр: Classical
Год издания диска: 2009
Издатель (лейбл): Arcana
Номер по каталогу: 418
Дата записи: 1994-1995
Аудиокодек: WavPack
Тип рипа: image+.cue
Битрейт аудио: lossless
Продолжительность: 2:31:11
Источник: скачано с
сайт-источник/ник/другое: eMule
Наличие сканов в содержимом раздачи: да
Треклист:
CD1
[1]-[4] Quartet B-Dur Hob.III/69
[5]-[8] Quartet D-Dur Hob.III/70
[9]-[12] Quartet Es-Dur Hob.III/71
CD2
[1]-[4] Quartet C-Dur Hob.III/72
[5]-[8] Quartet D-Dur Hob.III/73
[9]-[12] Quartet g-moll Hob.III/74
Исполнители:
Festetics String Quartet
István Kertész, violon école milanaise, XVIIIe s.
Erika Petöfi, violon Matthias Thier, Vienne 1770
Peter Ligeti, alto Matthias Albanus, Bolzano 1651
Rezsö Pertorini, violoncelle anonyme français, XVIIe s.

Лог создания рипаCD 1

Exact Audio Copy V0.99 prebeta 5 from 4. May 2009
EAC extraction logfile from 11. June 2009, 18:43
Franz Joseph Haydn / String Quartets op. 71 & 74 (Disk 1)
Used drive : HL-DT-STDVDRAM GH20NS15 Adapter: 2 ID: 1
Read mode : SecureUtilize accurate stream : YesDefeat audio cache : NoMake use of C2 pointers : No
Read offset correction : 667Overread into Lead-In and Lead-Out : NoFill up missing offset samples with silence : YesDelete leading and trailing silent blocks : NoNull samples used in CRC calculations : YesUsed interface : Installed external ASPI interface
Used output format : Internal WAV RoutinesSample format : 44.100 Hz; 16 Bit; Stereo
TOC of the extracted CD
Track | Start | Length | Start sector | End sector --------------------------------------------------------- 1 | 0:00.00 | 7:00.03 | 0 | 31502 2 | 7:00.03 | 6:07.54 | 31503 | 59081 3 | 13:07.57 | 4:22.57 | 59082 | 78788 4 | 17:30.39 | 7:16.32 | 78789 | 111520 5 | 24:46.71 | 8:32.42 | 111521 | 149962 6 | 33:19.38 | 5:39.05 | 149963 | 175392 7 | 38:58.43 | 2:52.72 | 175393 | 188364 8 | 41:51.40 | 3:35.34 | 188365 | 204523 9 | 45:26.74 | 9:44.43 | 204524 | 248366 10 | 55:11.42 | 7:14.46 | 248367 | 280962 11 | 62:26.13 | 5:11.07 | 280963 | 304294 12 | 67:37.20 | 4:18.61 | 304295 | 323705
Range status and errors
Selected range
Filename D:\Haydn - String Quartets Op.71 & 74 - Festetics\Franz Joseph Haydn - String Quartets op. 71 & 74 (Disk 1).wav
Peak level 100.0 % Range quality 100.0 % Copy CRC D6DA1B96 Copy OK
No errors occurred
AccurateRip summary
Track 1 cannot be verified as accurate (confidence 2) [04329DAB], AccurateRip returned [5B46653A]Track 2 cannot be verified as accurate (confidence 2) [2CE83CC1], AccurateRip returned [18DA8309]Track 3 cannot be verified as accurate (confidence 2) [DF8136BF], AccurateRip returned [62337C1D]Track 4 cannot be verified as accurate (confidence 2) [B9AFEEDC], AccurateRip returned [7567B5E2]Track 5 cannot be verified as accurate (confidence 2) [2B6F3FBC], AccurateRip returned [E53DF2E8]Track 6 cannot be verified as accurate (confidence 2) [394A43EC], AccurateRip returned [B2B63A32]Track 7 cannot be verified as accurate (confidence 2) [6BFAF752], AccurateRip returned [44D04B6A]Track 8 cannot be verified as accurate (confidence 2) [A266E77B], AccurateRip returned [1B36F797]Track 9 cannot be verified as accurate (confidence 2) [24F410EF], AccurateRip returned [36359A89]Track 10 cannot be verified as accurate (confidence 2) [DE6944F4], AccurateRip returned [20EE5144]Track 11 cannot be verified as accurate (confidence 2) [50C48FB5], AccurateRip returned [DBCD61EC]Track 12 not present in database
11 track(s) could not be verified as accurate 1 track(s) not present in the AccurateRip database
No tracks could be verified as accurateYou may have a different pressing from the one(s) in the database
End of status report

CD 2

Exact Audio Copy V0.99 prebeta 5 from 4. May 2009
EAC extraction logfile from 11. June 2009, 18:51
Franz Joseph Haydn / String Quartets op. 71 & 74 (Disk 2)
Used drive : HL-DT-STDVDRAM GH20NS15 Adapter: 2 ID: 1
Read mode : SecureUtilize accurate stream : YesDefeat audio cache : NoMake use of C2 pointers : No
Read offset correction : 667Overread into Lead-In and Lead-Out : NoFill up missing offset samples with silence : YesDelete leading and trailing silent blocks : NoNull samples used in CRC calculations : YesUsed interface : Installed external ASPI interface
Used output format : Internal WAV RoutinesSample format : 44.100 Hz; 16 Bit; Stereo
TOC of the extracted CD
Track | Start | Length | Start sector | End sector --------------------------------------------------------- 1 | 0:00.00 | 6:48.56 | 0 | 30655 2 | 6:48.56 | 11:29.14 | 30656 | 82344 3 | 18:17.70 | 5:02.42 | 82345 | 105036 4 | 23:20.37 | 8:39.14 | 105037 | 143975 5 | 31:59.51 | 6:19.68 | 143976 | 172468 6 | 38:19.44 | 7:44.54 | 172469 | 207322 7 | 46:04.23 | 4:56.01 | 207323 | 229523 8 | 51:00.24 | 4:26.30 | 229524 | 249503 9 | 55:26.54 | 5:51.15 | 249504 | 275843 10 | 61:17.69 | 7:15.38 | 275844 | 308506 11 | 68:33.32 | 4:27.02 | 308507 | 328533 12 | 73:00.34 | 6:16.32 | 328534 | 356765
Range status and errors
Selected range
Filename D:\Haydn - String Quartets Op.71 & 74 - Festetics\Franz Joseph Haydn - String Quartets op. 71 & 74 (Disk 2).wav
Peak level 100.0 % Range quality 100.0 % Copy CRC 0DDE0EE7 Copy OK
No errors occurred
AccurateRip summary
Track 1 cannot be verified as accurate (confidence 2) [18523748], AccurateRip returned [9AED3ABF]Track 2 cannot be verified as accurate (confidence 2) [155DB759], AccurateRip returned [2C54CDF1]Track 3 cannot be verified as accurate (confidence 2) [74E3F516], AccurateRip returned [59B7AA93]Track 4 not present in databaseTrack 5 cannot be verified as accurate (confidence 2) [E1115FD9], AccurateRip returned [B8B5451E]Track 6 cannot be verified as accurate (confidence 2) [822D74A0], AccurateRip returned [79DE03A9]Track 7 cannot be verified as accurate (confidence 2) [4FB8CB13], AccurateRip returned [3882D538]Track 8 cannot be verified as accurate (confidence 2) [5D274D8C], AccurateRip returned [E76641BA]Track 9 cannot be verified as accurate (confidence 2) [1B41B10F], AccurateRip returned [203987F8]Track 10 cannot be verified as accurate (confidence 2) [F776ACC1], AccurateRip returned [A3FBB5BC]Track 11 cannot be verified as accurate (confidence 2) [3AFC4AD9], AccurateRip returned [BA74FB35]Track 12 not present in database
10 track(s) could not be verified as accurate 2 track(s) not present in the AccurateRip database
No tracks could be verified as accurateYou may have a different pressing from the one(s) in the database
End of status report

Содержание индексной карты (.CUE)CD 1

REM GENRE ClassicalREM DATE 1995REM DISCID 9B10DC0CREM COMMENT ExactAudioCopy v0.99pb5PERFORMER "Quatuor Festetics"TITLE "String Quartets op. 71 & 74 (Disk 1)"FILE "Franz Joseph Haydn - String Quartets op. 71 & 74 (Disk 1).wv" WAVE TRACK 01 AUDIO TITLE "Quartet B-Dur Hob.III/69 - I. Allegro" PERFORMER "Quatuor Festetics" INDEX 00 00:00:00 INDEX 01 00:01:00 TRACK 02 AUDIO TITLE "Quartet B-Dur Hob.III/69 - II. Adagio" PERFORMER "Quatuor Festetics" INDEX 01 07:00:03 TRACK 03 AUDIO TITLE "Quartet B-Dur Hob.III/69 - III. Allegretto" PERFORMER "Quatuor Festetics" INDEX 01 13:07:57 TRACK 04 AUDIO TITLE "Quartet B-Dur Hob.III/69 - IV. Finale. Vivace" PERFORMER "Quatuor Festetics" INDEX 01 17:30:39 TRACK 05 AUDIO TITLE "Quartet D-Dur Hob.III/70 - I. Adagio - Allegro" PERFORMER "Quatuor Festetics" INDEX 00 24:35:71 INDEX 01 24:46:71 TRACK 06 AUDIO TITLE "Quartet D-Dur Hob.III/70 - II. Adagio" PERFORMER "Quatuor Festetics" INDEX 01 33:19:38 TRACK 07 AUDIO TITLE "Quartet D-Dur Hob.III/70 - III. Menuetto. Allegro" PERFORMER "Quatuor Festetics" INDEX 01 38:58:43 TRACK 08 AUDIO TITLE "Quartet D-Dur Hob.III/70 - IV. Finale. Allegretto" PERFORMER "Quatuor Festetics" INDEX 01 41:51:40 TRACK 09 AUDIO TITLE "Quartet Es-Dur Hob.III/71 - I. Vivace" PERFORMER "Quatuor Festetics" INDEX 00 45:13:74 INDEX 01 45:26:74 TRACK 10 AUDIO TITLE "Quartet Es-Dur Hob.III/71 - II. Andante con moto" PERFORMER "Quatuor Festetics" INDEX 01 55:11:42 TRACK 11 AUDIO TITLE "Quartet Es-Dur Hob.III/71 - III. Menuetto" PERFORMER "Quatuor Festetics" INDEX 01 62:26:13 TRACK 12 AUDIO TITLE "Quartet Es-Dur Hob.III/71 - IV. Finale. Vivace" PERFORMER "Quatuor Festetics" INDEX 01 67:37:20

CD 2

REM GENRE ClassicalREM DATE 1995REM DISCID 9912940CREM COMMENT ExactAudioCopy v0.99pb5PERFORMER "Quatuor Festetics"TITLE "String Quartets op. 71 & 74 (Disk 2)"FILE "Franz Joseph Haydn - String Quartets op. 71 & 74 (Disk 2).wv" WAVE TRACK 01 AUDIO TITLE "Quartet C-Dur Hob.III/72 - I. Allegro moderato" INDEX 01 00:00:00 TRACK 02 AUDIO TITLE "Quartet C-Dur Hob.III/72 - II. Andantino grazioso" PERFORMER "Quatuor Festetics" INDEX 01 06:48:56 TRACK 03 AUDIO TITLE "Quartet C-Dur Hob.III/72 - III. Menuetto. Allegro" PERFORMER "Quatuor Festetics" INDEX 01 18:17:70 TRACK 04 AUDIO TITLE "Quartet C-Dur Hob.III/72 - IV. Finale. Vivace" PERFORMER "Quatuor Festetics" INDEX 01 23:20:37 TRACK 05 AUDIO TITLE "Quartet D-Dur Hob.III/73 - I. Allegro spiritoso" PERFORMER "Quatuor Festetics" INDEX 00 31:46:51 INDEX 01 31:59:51 TRACK 06 AUDIO TITLE "Quartet D-Dur Hob.III/73 - II. Andante grazioso" PERFORMER "Quatuor Festetics" INDEX 01 38:19:44 TRACK 07 AUDIO TITLE "Quartet D-Dur Hob.III/73 - III. Menuetto" PERFORMER "Quatuor Festetics" INDEX 01 46:04:23 TRACK 08 AUDIO TITLE "Quartet D-Dur Hob.III/73 - IV. Finale. Presto" PERFORMER "Quatuor Festetics" INDEX 00 50:49:24 INDEX 01 51:00:24 TRACK 09 AUDIO TITLE "Quartet g-moll Hob.III/74 - I. Allegro" PERFORMER "Quatuor Festetics" INDEX 01 55:26:54 TRACK 10 AUDIO TITLE "Quartet g-moll Hob.III/74 - II. Largo assai" PERFORMER "Quatuor Festetics" INDEX 01 61:17:69 TRACK 11 AUDIO TITLE "Quartet g-moll Hob.III/74 - III. Menuetto. Allegretto" PERFORMER "Quatuor Festetics" INDEX 01 68:33:32 TRACK 12 AUDIO TITLE "Quartet g-moll Hob.III/74 - IV. Finale. Allegro con brio" PERFORMER "Quatuor Festetics" INDEX 01 73:00:34



Показать сообщения:    

Текущее время: 05-Дек 11:32

Часовой пояс: UTC + 3


Вы не можете начинать темы
Вы не можете отвечать на сообщения
Вы не можете редактировать свои сообщения
Вы не можете удалять свои сообщения
Вы не можете голосовать в опросах
Вы не можете прикреплять файлы к сообщениям
Вы не можете скачивать файлы